#TITLE:Lightning;
#SUBTITLE:;
#ARTIST:Ryu *;
#TITLETRANSLIT:;
#SUBTITLETRANSLIT:;
#ARTISTTRANSLIT:;
#GENRE:;
#CREDIT:;
#BANNER:[ZIv Academy] Lightning.png;
#BACKGROUND:[ZIv Academy] Lightning - bg.png;
#LYRICSPATH:;
#CDTITLE:;
#MUSIC:[ZIv Academy] Lightning.ogg;
#OFFSET:-1.162;
#SAMPLESTART:21.613;
#SAMPLELENGTH:10.212;
#SELECTABLE:YES;
#BPMS:0.000=188.000;
#STOPS:;
#BGCHANGES:;
#KEYSOUNDS:;

//---------------dance-single - C. Yakumo----------------
#NOTES:
     dance-single:
     C. Yakumo:
     Challenge:
     11:
     0.972,1.000,0.341,0.184,0.742:
0000
0000
0000
0000
,
0000
0000
0000
0000
,
0000
0000
0000
0000
,
0000
0000
0000
0000
,
2001
0000
0000
3010
0000
0100
0001
0010
,
0000
0001
1000
0100
2000
0000
3020
0000
,
0230
0000
0300
0001
0000
0010
0001
0100
,
0010
1000
0100
1000
0001
0000
0011
0000
,
1100
0000
1000
0010
0000
1000
0010
0000
0100
0000
0001
0000
0010
0000
0100
0000
,
0110
0000
0010
0001
0000
0010
0001
0000
1000
0000
1000
0000
0010
0000
0100
0000
,
0101
0000
0001
1000
0000
0001
1000
0000
0100
0000
0010
0000
0001
0000
0100
0000
,
0110
0000
0010
1000
0000
0010
1000
0000
0100
0000
0100
0000
0010
0000
0001
0000
,
1001
0000
1000
0010
0100
0010
1000
0000
0001
0000
0010
0000
0100
0000
1000
0000
,
0010
0000
0100
0001
0100
0010
1000
0000
0100
0000
0100
0000
0010
0000
0001
0000
,
1000
0000
0100
1000
0001
1000
0100
0000
0010
0000
0001
0100
0010
0100
0001
0000
,
0010
0000
0000
0000
0000
0000
0000
0000
0010
0000
0000
0000
0000
0000
0000
0000
0010
0000
0000
0000
0000
0000
0000
0000
0100
0000
0000
0000
0010
0000
0000
0000
0001
0000
0000
0000
1000
0000
0000
0000
0001
0000
0000
0000
1000
0000
0000
0000
0020
0000
0000
0000
0000
0000
0000
0000
0000
0000
0000
0000
0000
0000
0000
0030
,
0110
0000
0100
0001
0000
0100
0001
0000
0010
0000
0100
0000
0010
0000
0001
0000
,
1000
0000
0010
0100
0000
0010
0100
0000
0001
0000
0001
0000
1000
0000
0100
0000
,
0010
0000
0100
1000
0000
0100
1000
0000
0010
0000
0100
0000
0001
0000
0010
0000
,
0100
0000
1000
0001
0000
1000
0001
0000
0100
0000
0100
0000
0010
0000
1000
0000
,
0100
0000
1000
0010
0000
1000
0010
0000
0100
0000
0001
0000
0010
0000
0100
0000
,
0010
0000
0001
0100
0000
0001
0100
0000
0010
0000
0010
0000
1000
0000
0001
0000
,
0010
0000
0100
1000
0000
0100
1000
0000
0010
0000
0100
0000
0001
0000
1000
0000
,
0001
0000
0000
0000
0000
0000
0000
0000
0010
0000
0000
0000
0100
0000
0000
0000
0000
0000
0000
0000
0010
0000
0000
0000
0100
0000
0000
0000
0000
0000
0000
0000
1000
0000
0000
0000
0010
0000
0000
0000
1000
0000
0000
0000
0010
0000
0000
0000
0200
0000
0000
0000
0000
0000
0000
0000
0000
0000
0000
0000
0000
0000
0000
0300
,
0101
0000
0001
0010
0000
0001
0010
0000
0100
0000
1000
0000
0010
0000
0100
0000
,
0001
0000
1000
0010
0000
1000
0010
0000
0100
0000
0100
0000
0001
0000
0010
0000
,
0100
0000
1000
0010
0000
1000
0010
0000
0100
0000
0001
0000
1000
0000
0010
0000
,
0100
0000
0001
0100
0000
0001
0100
0000
0010
0000
0010
0000
1000
0000
0001
0000
,
1000
0000
0100
0010
0000
0100
0010
0000
0001
0000
1000
0000
0010
0000
0100
0000
,
0001
0000
0010
0100
0000
0010
0100
0000
1000
0000
1000
0000
0010
0000
0100
0000
,
0001
0000
1000
0010
0000
1000
0010
0000
0100
0000
0001
0010
0000
0001
0010
0000
,
0100
0000
0100
0000
0100
0000
1000
0001
0100
0010
0100
0000
0010
0000
0010
0000
,
2000
0000
3000
2000
0000
3001
0100
0010
,
1000
0001
0011
0010
0100
1000
1010
0010
,
0100
0000
0001
0000
0011
0000
0010
0001
1000
0000
0100
0000
0110
0000
0010
0000
,
0001
0000
1000
0000
1010
0000
0010
0100
0002
0000
0000
0000
0023
0000
0000
0000
,
0230
0000
0000
0000
0000
0000
0000
0000
0000
0000
0000
0000
0000
0000
0000
0300
1100
0000
0000
0000
0000
0000
0000
0000
1000
0000
0000
0000
0001
0000
0000
0000
0100
0000
0000
0000
0000
0000
0000
0000
0010
0000
0000
0000
0000
0000
0000
0000
1010
0000
0000
0000
0000
0000
0000
0000
1000
0000
0000
0000
0000
0000
0000
0000
,
0001
0000
0010
0000
0110
0000
0100
1000
0010
0000
0100
0000
0101
0000
0001
0000
,
1000
0000
0100
0000
0110
0000
0010
0001
1000
0000
0001
0000
0101
0000
0100
0000
,
0110
0000
0010
0000
1000
0000
0001
0000
0101
0000
0000
0000
0100
0010
1000
0000
,
1010
0000
0010
0100
0000
0001
0100
0000
0010
0000
1000
0000
0100
0000
0010
0000
,
0001
0000
1000
0100
0000
1000
0010
0000
0100
0000
0100
0000
0001
0000
0010
0000
,
0100
0000
1000
0001
0000
0100
0001
0000
0010
0000
0100
0000
1000
0000
0010
0000
,
0100
0000
0001
1000
0000
0001
0010
0000
0100
0000
0100
0000
1000
0000
0010
0000
,
0100
0000
0001
0010
0001
1000
0100
0000
0010
0000
0001
0000
1000
0000
0010
0000
,
0100
0000
0010
1000
0010
0100
0001
0000
1000
0000
0100
0000
0010
0000
0001
0000
,
0100
0001
0100
0010
1000
0100
0010
0001
1000
0100
1000
0001
0100
0010
1000
0001
,
0100
0010
0100
0001
0010
0100
1000
0001
0100
0010
1000
0100
0010
0001
0010
0001
,
1000
0000
0010
0100
0000
0001
0010
0000
0100
0000
1000
0000
0100
0000
0010
0000
,
0001
0000
0100
0010
0000
1000
0001
0000
0010
0000
0010
0000
0100
0000
1000
0000
,
0100
0000
0010
0001
0000
1000
0010
0000
0100
0000
0001
0000
1000
0000
0100
0000
,
0010
0000
0001
1000
0000
0010
0100
0000
0001
0000
0000
0000
0021
0000
0000
0000
,
0130
0000
1000
0010
0000
0100
0001
0000
1000
0000
0001
0000
0010
0000
0100
0000
,
1000
0000
0100
0010
0000
0001
1000
0000
0010
0000
0100
0000
0001
0000
1000
0000
,
0001
0000
0100
0001
0000
1000
0100
0000
0010
0000
0001
0000
0010
0000
0100
0000
,
1000
0000
0010
0100
0000
0001
1000
0000
0001
0010
0001
0010
0200
0000
0000
0000
,
1300
0000
0001
0010
0000
0001
0010
0000
0100
0000
0010
0000
0001
0000
1000
0000
,
0010
0000
0100
0001
0000
0100
0001
0000
1000
0000
0010
0000
0100
0000
0001
0000
,
0010
0000
0100
1000
0000
0100
1000
0000
0001
0000
1000
0000
0100
0000
0010
0000
,
0100
0000
1000
0001
0000
1000
0001
0000
0100
0000
0010
0000
1000
0000
0100
0000
,
0010
0000
0001
0100
0000
0001
0100
0000
0010
0000
0000
0000
2010
0000
0000
0000
,
3100
0000
0000
0000
0000
0000
0000
0000
0010
0000
0000
0000
0001
0000
0000
0000
0000
0000
0000
0000
0010
0000
0000
0000
0001
0000
0000
0000
0000
0000
0000
0000
1000
0000
0000
0000
0000
0000
0000
0000
0000
0000
0000
0000
0000
0000
0000
0000
1020
0000
0000
0000
0000
0000
0000
0000
0000
0000
0000
0000
0000
0000
0000
0030
,
1001
0000
1000
0010
0000
0010
0100
0000
0101
0000
0001
0010
0000
0010
0100
0000
,
1100
0000
1000
0000
0001
0000
0100
0010
1000
0001
0040
0000
0000
0000
0000
0000
,
0030
0000
0000
0000
,
0000
0000
0000
0000
,
0000
0000
0000
0000
,
0000
0000
0000
0000
,
1001
0000
1000
0100
0000
1000
0100
0000
0010
0000
0100
0000
0001
0000
0100
0000
,
1000
0000
0001
0100
0000
0001
0100
0000
0010
0000
0100
0000
1000
0000
0100
0000
,
0010
0000
1000
0001
0000
1000
0001
0000
0100
0000
0010
0000
0001
0000
0010
0000
,
1000
0000
0001
0010
0000
0001
0010
0000
0100
0000
1000
0000
0010
0000
0100
0000
,
0001
0000
1000
0010
0000
1000
0010
0000
0100
0000
0010
0000
0001
0000
0010
0000
,
1000
0000
0001
0010
0000
0001
0010
0000
0100
0000
0010
0000
1000
0000
0010
0000
,
0001
0000
0100
0010
0000
0100
0010
0000
1000
0000
0100
0000
0001
0000
0100
0000
,
0010
0000
0001
0100
0000
0001
0100
0000
0010
1000
0010
1000
0002
0000
0000
0000
,
1003
0000
0001
0100
0000
0001
0100
0000
0010
0000
1000
0000
0010
0000
0001
0000
,
0010
0000
0100
0001
0100
0010
1000
0000
0100
0000
0100
0000
0010
0000
0001
0000
,
1000
0000
0010
0100
0000
0010
0100
0000
0001
0000
0010
0000
0100
0000
0001
0000
,
0100
0000
1000
0010
0000
1000
0010
0000
0100
0000
0100
0000
0001
0000
1000
0000
,
0100
0000
0000
0000
0000
0000
0000
0000
0010
0000
0000
0000
0001
0000
0000
0000
0000
0000
0000
0000
1000
0000
0000
0000
0100
0000
0000
0000
0000
0000
0000
0000
0020
0000
0000
0000
0000
0000
0000
0000
0000
0000
0000
0000
0000
0000
0000
0030
0210
0000
0000
0000
0000
0000
0000
0000
0000
0000
0000
0000
0000
0000
0000
0000
,
1300
0000
0000
0000
0000
0000
0000
0000
0001
0000
0000
0000
0100
0000
0000
0000
0000
0000
0000
0000
0010
0000
0000
0000
1000
0000
0000
0000
0000
0000
0000
0000
0200
0000
0000
0000
0000
0000
0000
0000
0000
0000
0000
0000
0000
0000
0000
0300
2100
0000
0000
0000
0000
0000
0000
0000
0000
0000
0000
0000
0000
0000
0000
3000
,
1001
0000
1000
0100
0000
1000
0100
0000
1001
0000
0001
0100
0000
0001
0100
0000
,
1001
0000
0011
0000
1100
0000
1000
0001
1000
0100
0010
0000
0001
0000
1000
0000
,
0010
0000
0000
0000
;

//---------------dance-single - Scarz----------------
#NOTES:
     dance-single:
     Scarz:
     Hard:
     10:
     0.747,0.697,0.055,0.129,0.475:
0000
0000
0000
0000
,
0000
0000
0000
0000
,
0000
0000
0000
0000
,
0000
0000
0000
0000
,
0001
0200
0000
0310
0000
0100
0001
0010
,
0000
0001
0100
0010
2000
0000
3002
0000
,
1003
0020
0000
0130
0000
0010
1000
0100
,
0000
1000
0010
0100
0001
0000
0000
0000
,
1000
0000
0000
0100
0000
0000
0001
0000
1000
0000
0010
0000
0001
0000
0100
0000
,
1000
0000
0000
0100
0000
0000
0001
0000
0010
0000
0010
0000
0100
0000
1000
0000
,
0001
0000
0000
1000
0000
0000
0010
0000
0100
0000
0001
0000
0100
0000
1000
0000
,
0100
0000
0000
0001
0000
0000
0010
0000
0100
0000
0100
0000
1000
0000
0001
0000
,
1000
0000
0000
0010
0000
0000
0001
0000
1000
0000
0100
0000
0001
0000
0010
0000
,
1000
0000
0000
0010
0000
0000
0001
0000
0100
0000
0100
0000
0010
0000
1000
0000
,
0001
0000
0000
0010
0000
0000
0100
0000
1000
0000
0000
0010
0000
0000
0100
0000
,
0001
0000
1000
0000
0001
0000
1000
0001
0000
0000
0000
0000
0000
0000
0000
0000
,
1000
0000
0000
0001
0000
0000
0010
0000
0100
0000
1000
0000
0100
0000
0001
0000
,
0100
0000
0000
1000
0000
0000
0010
0000
0100
0000
0100
0000
0001
0000
1000
0000
,
0001
0000
0000
0100
0000
0000
1000
0000
0001
0000
0010
0000
1000
0000
0100
0000
,
0001
0000
0000
0100
0000
0000
1000
0000
0010
0000
0010
0000
0100
0000
0001
0000
,
1000
0000
0000
0100
0000
0000
0001
0000
1000
0000
0010
0000
0001
0000
0100
0000
,
1000
0000
0000
0100
0000
0000
0001
0000
0010
0000
0010
0000
0100
0000
1000
0000
,
0001
0000
0000
1000
0000
0000
0010
0000
0100
0000
0001
0000
0100
0000
1000
0000
,
0100
0000
0000
0001
0000
0000
0100
0000
0010
0000
0000
0000
0000
0000
0000
0000
,
1000
0000
0000
0010
0000
0000
0001
0000
1000
0000
0100
0000
0001
0000
0010
0000
,
1000
0000
0000
0010
0000
0000
0001
0000
0100
0000
0100
0000
0010
0000
1000
0000
,
0001
0000
0000
1000
0000
0000
0100
0000
0010
0000
0001
0000
0010
0000
1000
0000
,
0010
0000
0000
0001
0000
0000
0100
0000
0010
0000
0010
0000
1000
0000
0001
0000
,
1000
0000
0000
0001
0000
0000
0100
0000
0010
0000
1000
0000
0010
0000
0001
0000
,
0010
0000
0000
1000
0000
0000
0100
0000
0010
0000
0010
0000
0001
0000
1000
0000
,
0001
0000
0100
0010
0000
0100
0010
0000
1000
0000
0100
0010
0000
0100
0010
0000
,
0001
0000
0100
0000
0010
0000
1000
0001
0000
0000
0000
0000
0000
0000
0000
0000
,
1000
0020
0000
0130
0000
0010
1000
0100
,
0000
1000
0010
0100
0002
0000
2003
0000
,
3001
0020
0000
0130
0000
0010
0001
0100
,
0000
0001
0010
0100
2000
0000
3002
0000
,
1003
0200
0000
0301
0000
0100
1000
0001
,
0000
0100
1000
0100
0002
0000
2003
0000
,
3001
0020
0000
1030
0000
0010
0001
1000
,
0000
0010
0001
0010
1000
0000
0000
0000
,
0001
0000
0000
0010
0000
0000
0100
0000
1000
0000
1000
0000
0010
0000
0001
0000
,
0010
0000
0000
1000
0000
0000
0100
0000
0001
0000
0010
0000
1000
0000
0100
0000
,
1000
0000
0000
0010
0000
0000
0100
0000
0001
0000
0001
0000
0100
0000
1000
0000
,
0100
0000
0000
0001
0000
0000
0010
0000
1000
0000
0100
0000
0001
0000
0010
0000
,
0001
0000
0000
0100
0000
0000
0010
0000
1000
0000
1000
0000
0100
0000
0001
0000
,
0100
0000
0000
1000
0000
0000
0010
0000
0001
0000
0100
0000
1000
0000
0010
0000
,
1000
0000
0000
0100
0000
0000
0010
0000
0001
0000
0000
0100
0000
0000
0010
0000
,
1000
0000
0001
0000
1000
0000
0001
1000
0000
0000
0000
0000
0000
0000
0000
0000
,
1000
0000
0100
0010
0000
0100
0010
0000
0001
0000
0100
0000
1000
0000
0100
0000
,
0001
0000
0010
0100
0000
0010
0100
0000
0010
0000
0010
0000
0100
0000
1000
0000
,
0001
0000
0100
0010
0000
0100
0010
0000
1000
0000
0100
0000
0001
0000
0100
0000
,
1000
0000
0010
0100
0000
0010
0100
0000
0001
0000
0000
0000
0000
0000
0000
0000
,
1000
0000
0010
0100
0000
0010
0100
0000
0001
0000
0010
0000
1000
0000
0010
0000
,
0001
0000
0100
0010
0000
0100
0010
0000
0100
0000
0100
0000
0010
0000
1000
0000
,
0001
0000
0010
0100
0000
0010
0100
0000
1000
0000
0010
0000
0001
0000
0010
0000
,
1000
0000
0100
0010
0000
0100
0010
0000
0001
0000
0000
0000
0000
0000
0000
0000
,
1000
0000
0100
0001
0000
0100
0001
0000
1000
0000
0010
0000
0001
0000
0100
0000
,
1000
0000
0100
0001
0000
0100
0001
0000
0010
0000
0010
0000
0100
0000
1000
0000
,
0001
0000
0100
1000
0000
0100
1000
0000
0001
0000
0010
0000
1000
0000
0100
0000
,
0001
0000
0100
1000
0000
0100
1000
0000
0010
0000
0010
0000
0100
0000
0001
0000
,
1000
0000
0010
0100
0000
0010
0100
0000
0001
0000
0000
0000
1001
0000
0000
0000
,
0001
0000
0010
0100
0000
0010
0100
0000
1000
0000
0000
0000
1001
0000
0000
0000
,
1000
0000
0010
0100
0000
0010
0100
0000
0001
0000
0010
0100
0000
0010
0100
0000
,
1000
0000
0010
0000
0100
0000
0001
1000
0000
0000
0000
0000
0000
0000
0000
0000
,
1001
0000
0000
0000
,
0000
0000
0000
0000
,
0000
0000
0000
0000
,
0000
0000
0000
0000
,
0001
0000
0010
0100
0000
0010
0100
0000
1000
0000
0010
0000
0001
0000
0010
0000
,
1000
0000
0100
0010
0000
0100
0010
0000
0100
0000
0100
0000
0010
0000
0001
0000
,
1000
0000
0010
0100
0000
0010
0100
0000
0001
0000
0010
0000
1000
0000
0010
0000
,
0001
0000
0100
0010
0000
0100
0010
0000
0100
0000
0100
0000
0010
0000
1000
0000
,
0001
0000
0100
0010
0000
0100
0010
0000
1000
0000
0100
0000
0001
0000
0100
0000
,
1000
0000
0010
0100
0000
0010
0100
0000
0001
0000
0010
0000
1000
0000
0010
0000
,
0001
0000
0100
0010
0000
0100
0010
0000
0100
0000
0100
0000
0010
0000
1000
0000
,
0001
0000
0010
0100
0000
0010
0100
0000
1000
0000
0000
0000
0000
0000
0000
0000
,
0001
0000
0100
1000
0000
0100
1000
0000
0001
0000
0010
0000
1000
0000
0100
0000
,
0001
0000
0100
1000
0000
0100
1000
0000
0010
0000
0010
0000
0100
0000
0001
0000
,
1000
0000
0100
0001
0000
0100
0001
0000
1000
0000
0010
0000
0001
0000
0100
0000
,
1000
0000
0100
0001
0000
0100
0001
0000
0010
0000
0010
0000
0100
0000
1000
0000
,
0001
0000
0100
0010
0000
0100
0010
0000
1000
0000
0000
0000
1001
0000
0000
0000
,
1000
0000
0100
0010
0000
0100
0010
0000
0001
0000
0000
0000
1001
0000
0000
0000
,
0001
0000
0100
0010
0000
0100
0010
0000
1000
0000
0100
0010
0000
0100
0010
0000
,
0001
0000
0100
0000
0010
0000
1000
0001
0000
0000
0000
0000
0000
0000
0000
0000
,
1001
0000
0000
0000
;

//---------------dance-single - Scarz----------------
#NOTES:
     dance-single:
     Scarz:
     Medium:
     8:
     0.667,0.697,0.092,0.120,0.212:
0000
0000
0000
0000
,
0000
0000
0000
0000
,
0000
0000
0000
0000
,
0000
0000
0000
0000
,
2000
0000
0000
3010
0000
0100
0010
1000
,
0000
0100
0010
0001
2000
0000
3001
0000
,
0002
0000
0000
0103
0000
0010
0100
0001
,
0000
0010
0100
1000
0001
0000
0000
0000
,
1001
0000
0000
0000
,
0110
0000
0000
0000
,
1001
0000
0000
0000
,
0110
0000
0000
0000
,
1000
0000
0100
0000
,
0010
0000
0001
0000
,
1000
0010
0100
0000
0001
0010
0100
0000
,
1000
0010
0100
0001
0010
0000
0000
0000
,
0001
0100
1000
0100
0010
1000
0001
0010
,
0100
1000
0100
0001
0100
0100
1000
0001
,
1000
0100
0001
0100
0010
0001
1000
0100
,
0010
0001
0010
1000
0010
0010
0001
1000
,
0001
0010
1000
0010
0100
1000
0001
0010
,
0100
1000
0100
0001
0100
0100
1000
0001
,
1000
0010
0001
0010
0100
0001
1000
0010
,
0100
0001
0100
1000
0100
0100
0001
0000
,
1000
0010
0100
0001
0010
1000
0010
0001
,
0100
1000
0100
0001
0100
0100
0001
1000
,
0001
0010
0100
1000
0010
0001
0010
1000
,
0100
0001
0100
1000
0010
0010
1000
0001
,
1000
0010
0100
0001
0010
1000
0010
0001
,
0100
1000
0100
0001
0010
0010
0001
1000
,
0001
0000
0000
0010
0000
0000
0100
0000
1000
0000
0000
0010
0000
0000
0100
0000
,
0001
0000
1000
0000
0001
0000
1000
0001
0000
0000
0000
0000
0000
0000
0000
0000
,
1000
0200
0000
0301
0000
0100
1000
0001
,
0000
0100
1000
0100
0002
0000
2003
0000
,
3001
0020
0000
0130
0000
0010
0001
0100
,
0000
0001
0010
0100
2000
0000
3002
0000
,
1003
0200
0000
0310
0000
0100
1000
0010
,
0000
1000
0100
0010
0002
0000
2003
0000
,
3001
0200
0000
1300
0000
0100
0001
1000
,
0000
0100
0001
0100
1000
0000
0000
0000
,
0001
0000
0000
0100
0000
0000
1000
0000
0001
0000
0010
0000
1000
0000
0100
0000
,
0001
0000
0000
0100
0000
0000
1000
0000
0010
0000
0010
0000
0100
0000
0001
0000
,
1000
0000
0000
0100
0000
0000
0001
0000
1000
0000
0010
0000
0001
0000
0100
0000
,
1000
0000
0000
0100
0000
0000
0001
0000
0010
0000
0010
0000
0100
0000
1000
0000
,
0001
0000
0000
0100
0000
0000
1000
0000
0001
0000
0010
0000
1000
0000
0100
0000
,
0001
0000
0000
0100
0000
0000
1000
0000
0010
0000
0010
0000
0100
0000
0001
0000
,
1000
0000
0000
0010
0000
0000
0100
0000
0001
0000
0000
0010
0000
0000
0100
0000
,
1000
0000
0001
0000
1000
0000
0001
1000
0000
0000
0000
0000
0000
0000
0000
0000
,
0001
0000
0000
1000
0000
0000
0010
0000
0100
0000
0001
0000
0100
0000
1000
0000
,
0100
0000
0000
0001
0000
0000
0010
0000
0100
0000
0100
0000
1000
0000
0001
0000
,
1000
0000
0000
0001
0000
0000
0010
0000
0100
0000
1000
0000
0100
0000
0001
0000
,
0100
0000
0000
1000
0000
0000
0010
0000
0100
0000
0000
0000
0000
0000
0000
0000
,
0001
0000
0000
0100
0000
0000
1000
0000
0001
0000
0010
0000
1000
0000
0100
0000
,
0001
0000
0000
0100
0000
0000
1000
0000
0010
0000
0010
0000
0100
0000
0001
0000
,
1000
0000
0000
0100
0000
0000
0001
0000
1000
0000
0010
0000
0001
0000
0100
0000
,
1000
0000
0000
0100
0000
0000
0001
0000
1000
0000
0000
0000
0000
0000
0000
0000
,
0001
0000
0000
1000
0000
0000
0010
0000
0100
0000
0001
0000
0100
0000
1000
0000
,
0100
0000
0000
0001
0000
0000
0010
0000
0100
0000
0100
0000
1000
0000
0001
0000
,
1000
0000
0000
0001
0000
0000
0010
0000
0100
0000
1000
0000
0100
0000
0001
0000
,
0100
0000
0000
1000
0000
0000
0010
0000
0100
0000
0100
0000
0001
0000
1000
0000
,
0001
0000
0000
0010
0000
0000
0100
0000
1000
0000
0000
0000
1010
0000
0000
0000
,
1000
0000
0000
0010
0000
0000
0100
0000
0001
0000
0000
0000
0011
0000
0000
0000
,
0001
0000
0000
0010
0000
0000
0100
0000
1000
0000
0000
0010
0000
0000
0100
0000
,
0001
0000
1000
0000
0001
0000
1000
0001
0000
0000
0000
0000
0000
0000
0000
0000
,
1001
0000
0000
0000
,
0000
0000
0000
0000
,
0000
0000
0000
0000
,
0000
0000
0000
0000
,
1000
0100
0001
0100
1000
1000
0010
0100
,
0001
0010
1000
0010
0001
0001
0010
0100
,
1000
0010
0001
0010
1000
1000
0100
0010
,
0001
0100
1000
0100
0001
0001
0010
0100
,
1000
0010
1000
0100
1000
1000
0010
0100
,
0001
0010
0001
0100
0001
0001
0010
0100
,
1000
0010
0100
0010
1000
1000
0010
0100
,
0001
0010
0100
0010
0001
0000
0000
0000
,
1000
0000
0010
0100
0000
0010
0100
0000
0001
0000
0010
0000
1000
0000
0010
0000
,
0001
0000
0100
0010
0000
0100
0010
0000
0100
0000
0100
0000
0010
0000
1000
0000
,
0001
0000
0010
0100
0000
0010
0100
0000
1000
0000
0010
0000
0001
0000
0010
0000
,
1000
0000
0100
0010
0000
0100
0010
0000
0001
0000
0100
0000
1000
0000
0100
0000
,
0001
0000
0010
0100
0000
0010
0100
0000
1000
0000
0000
0000
1001
0000
0000
0000
,
1000
0000
0010
0100
0000
0010
0100
0000
0001
0000
0000
0000
1001
0000
0000
0000
,
0001
0000
0010
0100
0000
0010
0100
0000
1000
0000
0010
0100
0000
0010
0100
0000
,
0001
0000
0010
0000
0100
0000
1000
0001
0000
0000
0000
0000
0000
0000
0000
0000
,
1001
0000
0000
0000
;

//---------------dance-single - C. Yakumo----------------
#NOTES:
     dance-single:
     C. Yakumo:
     Easy:
     4:
     0.211,0.232,0.065,0.000,0.000:
0000
0000
0000
0000
,
0000
0000
0000
0000
,
0000
0000
0000
0000
,
0000
0000
0000
0000
,
0001
0000
1000
0000
,
0001
0000
0010
0100
,
0010
0000
0001
0000
,
1000
1000
1000
0000
,
0001
0000
0100
0000
,
0001
0000
0010
0000
,
0001
0000
0100
0000
,
0001
0000
1000
0000
,
0100
0000
0010
0000
,
0100
0000
1000
0000
,
0001
0000
0100
0000
,
0010
0010
0010
0000
,
1000
0000
0100
0000
,
1000
0000
0010
0000
,
1000
0000
0001
0000
,
1000
0000
0010
0000
,
0100
0000
0001
0000
,
0010
0000
0100
0000
,
0010
0000
0001
0000
,
1000
1000
1000
0000
,
0010
0000
0100
0000
,
0010
0000
1000
0000
,
0100
0000
0010
0000
,
0100
0000
1000
0000
,
0001
0000
0100
0000
,
0001
0000
0010
0000
,
0100
0000
1000
0000
,
0100
0100
0100
0000
,
0010
0000
0000
0001
,
0001
0000
0100
0000
,
0010
0000
0100
0000
,
0001
0000
1000
0000
,
0001
0000
0010
0000
,
0100
0000
1000
0000
,
0001
0000
0100
0000
,
0001
0000
1000
0000
,
0100
0000
0010
0000
,
0001
0000
1000
0000
,
0010
0000
0100
0000
,
0001
0000
0010
0000
,
0100
0000
1000
0000
,
0100
0000
0010
0000
,
0001
0000
0001
0000
,
0001
0001
0001
0000
,
1000
0000
0010
0000
,
0100
0000
0001
0000
,
0100
0000
0010
0000
,
1000
0000
0000
0000
,
0001
0000
0010
0000
,
0100
0000
0010
0000
,
0001
0000
1000
0000
,
0010
0000
0000
0000
,
1001
0000
0000
0000
,
0101
0000
0000
0000
,
1010
0000
0000
0000
,
0011
0000
0000
0000
,
1000
0000
0000
0000
,
1000
0000
0000
0000
,
1000
0000
1000
0000
,
1000
0000
0000
0000
,
0000
0000
0000
0000
,
0000
0000
0000
0000
,
0000
0000
0000
0000
,
0000
0000
0000
0000
,
1001
0000
1000
0000
,
0010
0000
1000
0001
,
1000
0000
0100
0000
,
0010
0000
0001
0100
,
0001
0000
0010
0000
,
0100
0000
1000
0010
,
1000
0000
0100
0000
,
0010
0000
0011
0000
,
0001
0000
1000
0000
,
0010
0000
0010
0000
,
0100
0000
0001
0000
,
0010
0000
0010
0000
,
0100
0000
1000
0000
,
0100
0000
1000
0000
,
0001
0000
0100
0000
,
0010
0000
1000
0000
,
1001
0000
0000
0000
;

//---------------dance-single - C. Yakumo----------------
#NOTES:
     dance-single:
     C. Yakumo:
     Beginner:
     2:
     0.107,0.155,0.009,0.000,0.000:
0000
0000
0000
0000
,
0000
0000
0000
0000
,
0000
0000
0000
0000
,
0000
0000
0000
0000
,
0001
0000
0000
0000
,
0000
0000
0000
0000
,
0001
0000
0000
0000
,
0000
0000
0000
0000
,
1000
0000
0000
0000
,
0000
0000
0000
0000
,
0010
0000
0000
0000
,
0000
0000
0000
0000
,
0100
0000
0000
0000
,
0000
0000
0000
0000
,
0001
0000
0001
0000
,
0001
0000
0000
0000
,
0010
0000
0000
0000
,
0001
0000
0000
0000
,
1000
0000
0000
0000
,
0010
0000
0000
0000
,
1000
0000
0000
0000
,
0001
0000
0000
0000
,
0100
0000
0000
0000
,
0010
0000
0000
0000
,
1000
0000
0000
0000
,
0100
0000
0000
0000
,
0010
0000
0000
0000
,
0001
0000
0000
0000
,
1000
0000
0000
0000
,
0001
0000
0000
0000
,
0010
0000
0000
0000
,
0100
0000
0000
0000
,
1000
0000
0000
0000
,
0000
0000
0000
0000
,
0001
0000
0000
0000
,
0000
0000
0000
0000
,
0100
0000
0000
0000
,
0000
0000
0000
0000
,
0010
0000
0000
0000
,
0000
0000
0000
0000
,
1000
0000
0000
0000
,
1000
0000
0000
0000
,
0001
0000
0000
0000
,
0001
0000
0000
0000
,
0010
0000
0000
0000
,
0010
0000
0000
0000
,
0001
0000
0000
0000
,
0000
0000
0000
0000
,
1000
0000
0000
0000
,
0010
0000
0000
0000
,
0100
0000
0000
0000
,
0010
0000
0000
0000
,
1000
0000
0000
0000
,
0001
0000
0000
0000
,
0010
0000
0000
0000
,
0100
0000
0000
0000
,
0010
0000
0000
0000
,
0001
0000
0001
0000
,
1000
0000
0000
0000
,
0001
0000
0001
0000
,
0100
0000
0000
0000
,
0010
0000
0000
0000
,
1000
0000
1000
0000
,
0001
0000
0001
0000
,
0000
0000
0000
0000
,
0000
0000
0000
0000
,
0000
0000
0000
0000
,
0000
0000
0000
0000
,
0010
0000
0000
0000
,
0100
0000
0100
0000
,
1000
0000
0000
0000
,
0001
0000
0001
0000
,
0100
0000
0000
0000
,
0010
0000
0010
0000
,
1000
0000
0000
0000
,
0100
0000
0100
0000
,
0010
0000
0000
0000
,
0001
0000
1000
0000
,
0001
0000
0000
0000
,
0100
0000
0010
0000
,
0100
0000
0000
0000
,
0100
0000
0000
0000
,
0010
0000
1000
0000
,
0001
0000
0001
0000
,
1001
0000
0000
0000
;
