#TITLE:HAELEQUIN;
#SUBTITLE:;
#ARTIST:orangentle;
#TITLETRANSLIT:;
#SUBTITLETRANSLIT:;
#ARTISTTRANSLIT:;
#CREDIT:Team WHORES;
#BANNER:;
#BACKGROUND:;
#LYRICSPATH:;
#CDTITLE:;
#MUSIC:HAELEQUIN.mp3;
#OFFSET:-1.453;
#SAMPLESTART:16.911;
#SAMPLELENGTH:22.994;
#SELECTABLE:YES;
#DISPLAYBPM:167.000;
#BPMS:0.000=167.000;
#STOPS:;
#BGCHANGES:;

//---------------dance-single - HAEL-D ME I'M SCARED----------------
#NOTES:
     dance-single:
     HAEL-D ME I'M SCARED:
     Hard:
     10:
     0.922,1.000,0.675,0.266,0.859: // measure 1
1001
0000
0000
0101
0000
0000
0110
0000
,  // measure 2
0000
1010
0000
0000
1001
0000
0011
0000
,  // measure 3
1001
0000
0000
0110
0000
0000
1001
0000
,  // measure 4
0000
0000
0101
0000
0000
0000
0000
0000
0110
0000
0000
0001
1000
0000
0001
0000
,  // measure 5
1000
0100
0010
0000
0100
0000
1000
0000
0001
0100
0010
0000
0100
0000
0001
0000
,  // measure 6
1000
0001
0100
0000
0001
0000
1000
0000
0001
1000
0010
0000
1000
0000
0100
0000
,  // measure 7
0010
0001
0100
0001
1000
0000
0001
0000
1000
0100
0010
0001
0100
0000
0010
0100
,  // measure 8
0010
2002
0000
0000
,  // measure 9
0000
0000
0000
3003
,  // measure 10
1001
1000
0100
0011
0000
0001
0100
0000
,  // measure 11
1010
0000
0010
0000
1000
0000
1001
0000
0000
0000
0001
0010
1000
0000
0010
0000
,  // measure 12
0001
0000
0000
0000
1010
0000
0001
0100
0001
0000
1000
0000
0100
0000
0010
0000
,  // measure 13
0001
0000
0000
1000
0000
0000
0100
0000
0010
0000
0001
1000
0001
0000
0100
0010
,  // measure 14
0100
0000
0000
0000
1001
0000
1000
0100
1000
0000
0100
0000
0010
0000
0100
0000
,  // measure 15
0010
0000
0000
0001
0010
0000
0000
0001
1000
0000
0010
1000
0001
0000
1000
0000
,  // measure 16
1100
0000
0000
0011
0000
0000
2002
0000
0000
0000
3003
0000
0110
0000
0000
0000
,  // measure 17
1010
0000
0010
0000
0100
0000
0202
0000
0000
0000
0303
0000
1001
0000
1000
0001
,  // measure 18
0100
0000
0000
0000
1010
0000
1000
0000
1100
0000
0000
1001
0000
0000
0101
0000
,  // measure 19
0110
0000
0000
0000
2002
0000
0000
0000
3003
0000
1000
0001
0000
0000
0100
0001
,  // measure 20
0100
0000
0010
0000
1000
0001
1000
0100
0010
0000
0100
0000
1000
0000
0001
0000
,  // measure 21
0100
0000
0001
1000
0100
0000
0010
0000
0100
0000
0000
0100
1000
0000
0001
0000
,  // measure 22
0101
0000
0000
0001
0000
0000
0100
0000
0110
0000
0000
0010
0000
0000
1000
0000
,  // measure 23
2002
0000
0000
0000
3003
0000
0001
1000
0002
0000
0000
0000
0013
0100
0010
0100
,  // measure 24
0010
0001
0100
1000
0100
0010
1000
0001
,  // measure 25
1000
0000
0100
0001
0100
0000
1000
0000
0001
0000
1000
0010
0100
0000
0001
1000
,  // measure 26
0001
0000
0000
0100
0000
0000
0001
0000
1001
0000
0000
0100
0000
0000
1000
0000
,  // measure 27
1100
0000
0100
0000
0110
0000
0010
0000
0001
0000
1000
0000
0001
1000
0010
0100
,  // measure 28
0001
0000
1000
0010
1000
0010
1000
0000
0100
0000
0010
0001
0010
0001
0010
0000
,  // measure 29
0001
0000
1000
0001
1000
0001
1000
0001
0010
0000
0100
0010
0100
0010
0100
0010
,  // measure 30
0001
0000
1000
0100
0010
0001
0100
0001
0100
0000
0010
0000
1000
0000
0100
1000
,  // measure 31
0100
0011
1100
1001
,  // measure 32
0001
0100
0001
0100
0010
1000
0010
1000
0001
1000
0001
1000
0100
0000
0000
0000
,  // measure 33
0010
0001
0010
0001
1000
0100
1000
0100
1000
0100
0010
0002
1003
0000
0000
0000
,  // measure 34
1000
0100
0010
0001
0010
0001
0100
0010
1000
0010
1000
0001
1000
0100
0010
0100
,  // measure 35
1000
0000
0100
0000
0010
0000
0001
1000
0001
0000
0100
0000
0010
0100
0010
0100
,  // measure 36
0020
0000
0100
0000
0000
1000
0000
0000
0100
0000
0000
0100
0000
0000
2030
0000
,  // measure 37
0000
0000
0001
0000
0000
0010
0000
0000
0001
0000
0000
0001
0000
0000
3010
0000
,  // measure 38
1000
0000
0100
0000
0010
0000
0001
0000
1000
0001
1000
0001
0010
0100
0010
0100
,  // measure 39
0010
1000
0100
1000
0100
0010
0001
0010
,  // measure 40
0002
0000
1000
0000
0000
0010
0000
0000
1000
0000
0000
1000
0000
0000
0010
0000
,  // measure 41
2003
0000
0001
0000
0000
0010
0000
0000
0001
0000
0000
0001
0000
0000
3010
0000
,  // measure 42
2002
3003
0022
0033
,  // measure 43
1100
0000
0000
0000
1001
0000
0000
0000
0101
0000
0101
0000
0010
1000
0010
1000
,  // measure 44
0001
0000
0001
1000
0000
1000
0100
0000
0100
0010
0000
0010
,  // measure 45
0100
1000
0100
0010
0001
0010
0100
1000
0001
0100
0010
1000
,  // measure 46
0001
0000
0000
1000
0000
0001
0100
0001
0100
0000
0000
0000
0001
0010
0100
1000
,  // measure 47
0001
1000
0100
1000
0010
0100
0001
0010
0100
0010
0001
1000
,  // measure 48
1100
0000
0010
0000
0001
0000
1001
0000
0000
0000
0001
0100
0010
0000
1001
0000
,  // measure 49
0000
0000
1000
0100
0010
0000
1001
0000
0000
0000
0110
0000
0010
0000
1001
0000
,  // measure 50
1000
0100
0010
0011
0001
0100
0010
1010
,  // measure 51
0000
0000
0001
1000
0001
0000
1001
0000
0000
0000
0110
0000
0110
0000
0000
0000
,  // measure 52
1001
0000
0000
0000
0101
0000
0000
0000
1000
0001
1000
0001
0100
0001
0100
0020
,  // measure 53
0200
0000
0000
0330
,  // measure 54
1001
0000
0000
0100
0000
0000
0102
0000
0000
0000
0013
0000
0001
0000
1000
0000
,  // measure 55
0100
0000
0010
0000
0100
0000
1000
0000
0001
0100
0000
0101
0000
0000
1001
0000
,  // measure 56
1100
0000
0000
1000
0000
0000
1002
0000
0000
0000
0013
0000
0001
0000
0200
0000
,  // measure 57
1300
0000
0100
0000
0001
0000
0100
0000
0010
1000
0000
1001
0000
0000
0001
0000
,  // measure 58
0011
0000
0000
1001
0000
0000
2100
0000
0000
0000
3001
0000
1000
0000
0010
0000
,  // measure 59
0100
0000
0001
0000
0100
0000
0010
0000
1000
0100
0000
0011
0000
0000
1001
0000
,  // measure 60
2002
3003
0220
0330
,  // measure 61
1010
0000
0000
0000
0101
0000
0000
0000
1000
0000
0100
0000
0010
0001
0010
0001
,  // measure 62
1000
0000
0010
0100
0001
0000
0010
0000
1000
0000
0010
0100
1000
0000
0010
0000
,  // measure 63
0001
0000
0010
0100
0001
0000
1000
0000
0001
1000
0000
1001
0000
0000
0101
0000
,  // measure 64
0100
0000
0001
1000
0100
0000
1000
0000
0100
0000
1000
0001
0100
0000
0001
0000
,  // measure 65
0010
0000
0100
0010
0001
0000
0100
0000
0010
1000
0000
1100
0000
0000
1001
0000
,  // measure 66
1000
0000
0100
0000
0010
0001
0000
0010
0001
0000
1000
0100
0000
1000
0100
0000
,  // measure 67
1000
0000
0001
0000
0100
0001
0000
0100
0001
0000
1000
0010
0000
0000
1001
0000
,  // measure 68
0000
0000
0001
0100
0001
0000
1000
0010
1000
0000
0001
1000
0001
0000
1000
0100
,  // measure 69
0010
0000
0001
0100
0010
0000
1000
0001
0010
0000
0001
1000
0010
0000
0010
0200
,  // measure 70
0020
0000
0000
0000
,  // measure 71
0330
0110
1010
1001
,  // measure 72
1000
0010
0100
0010
0100
0001
0100
0001
1000
0100
1000
0001
1000
0100
0010
0100
,  // measure 73
1000
0000
0001
0010
0100
0010
0001
1000
0001
0100
0010
1000
0001
1000
0100
1000
,  // measure 74
0100
0000
0010
0001
0000
1000
0100
0010
0001
0100
0010
1000
0010
0100
0001
0100
,  // measure 75
0010
0000
0000
1010
0000
0000
1001
0000
0001
0000
1000
0000
0010
1000
0001
0100
,  // measure 76
0001
1000
0100
0010
0001
0100
0010
1000
0100
0000
0010
0000
0100
0000
1000
0000
,  // measure 77
1001
0000
0000
0000
0001
0010
0100
0010
0001
0000
1000
0000
0100
0000
1000
0000
,  // measure 78
1001
0000
0001
0100
0001
1000
0100
0010
0100
0000
0010
0001
0100
0010
1000
0010
,  // measure 79
0100
0000
0010
1000
0001
0010
0100
0010
0001
0000
0010
0001
1000
0010
0100
0010
,  // measure 80
1000
0000
0010
0100
0010
1000
0010
0100
0001
0100
0001
1000
0100
0010
0001
1000
,  // measure 81
0001
0000
1000
0100
0001
0000
1000
0010
0001
0000
1000
0001
1000
0000
0010
0100
,  // measure 82
0010
1000
0010
1000
0100
0000
0010
0000
0001
0010
0001
0100
0010
0000
1000
0000
,  // measure 83
0001
0100
0010
1000
0200
0000
0000
0000
0310
0001
0100
0001
2000
0000
0000
0000
,  // measure 84
0002
0000
0000
0000
3003
0000
0000
0000
1000
0100
0010
0001
0010
0001
1000
0010
,  // measure 85
0100
0001
0100
0010
1000
0001
1000
0100
0000
0000
1100
0000
0000
1000
0001
1000
,  // measure 86
0001
0100
0010
1001
0000
1000
0100
0010
,  // measure 87
0011
0000
0001
0000
0100
0000
1010
0000
0000
0000
0001
0100
0001
0000
1000
0000
,  // measure 88
1100
0100
1000
1001
0000
0001
0100
0010
,  // measure 89
1001
0001
0010
1100
0000
0010
0001
1000
,  // measure 90
0001
0100
0010
0000
1000
0000
1001
0000
0001
0000
0010
0001
0100
0000
0010
0000
,  // measure 91
1000
0001
1000
0000
1001
0000
0001
0000
0100
0000
0010
0100
0010
0000
1001
0000
,  // measure 92
1000
0001
1000
0001
1000
0001
1000
0001
0100
0010
0100
0010
1000
0001
1000
0001
,  // measure 93
1000
0100
0010
0001
0010
0100
1000
0001
1000
0010
0100
0001
0100
0010
2000
0002
,  // measure 94
3003
2002
0000
0000
,  // measure 95
0000
0000
0000
0000
,  // measure 96
0000
0000
0000
3003
;

//---------------dance-single - AW HAEL NO----------------
#NOTES:
     dance-single:
     AW HAEL NO:
     Challenge:
     10:
     0.961,1.000,0.382,0.307,1.000:
1001
0000
0000
1100
0000
0000
1001
0000
,
0000
0101
0000
0000
0110
0000
0001
0000
,
1001
0000
0000
0011
0000
0000
0110
0000
,
0000
0000
1100
0000
0000
0000
0000
0000
1001
0000
0000
0001
1000
0000
0010
0000
,
1010
0000
1000
0000
0001
0000
0100
0000
0010
0000
1000
0000
0001
0000
1000
0100
,
0010
0000
0001
0000
1000
0000
0100
0000
0010
0000
0001
0000
1000
0000
0100
0010
,
0100
0000
1000
0000
0001
0000
0100
0000
0010
0000
1000
0000
0001
0000
0100
0010
,
0001
2000
0000
0000
,
3100
0010
0000
0100
0001
0000
1000
0100
1000
0001
0010
0100
1000
0001
1000
0010
,
0100
0001
0100
0110
0000
1000
1000
0001
,
1000
0000
0100
0000
0010
0000
0110
0000
0000
0000
1000
0001
0000
1000
0100
0010
,
0001
0000
0000
0000
1000
0100
0010
0001
1000
0010
1000
0010
0100
0001
0100
0001
,
1000
0000
0000
0001
0000
0000
1000
0100
0010
0001
0010
0001
1000
0100
1000
0100
,
0010
0000
0000
0000
0001
0000
1000
0010
0100
0000
1000
0000
0100
0000
0001
0000
,
0010
0001
1000
0100
1000
0001
1000
0010
0100
0001
0100
0010
0000
1000
0010
0100
,
0001
0000
0000
1001
0000
0000
0101
0000
0000
0000
1000
0100
0010
0100
1000
0001
,
1000
0000
0000
0100
0010
0000
0011
0000
0000
0000
1000
0000
0001
0000
0100
0010
,
1000
0001
0010
0100
0001
0100
0010
0001
1000
0001
1000
0010
0000
0100
0001
0100
,
0010
0000
0000
0000
2002
0000
0000
0000
3003
0000
0001
1000
0000
0001
0100
0010
,
1000
0000
0001
0000
1000
0001
0100
0010
1000
0000
0010
0000
0100
0000
0001
0000
,
0010
0000
0100
0010
0100
0000
1000
0000
0001
0000
1000
0100
0010
0000
0001
0000
,
2002
3003
0220
0330
,
2002
0000
0000
0000
3003
0000
0001
1000
0100
0000
0000
0000
0010
0100
1000
0001
,
1000
0010
0100
1000
0001
0010
1000
0100
,
0010
0000
0001
0010
0100
0000
1000
0000
0001
0000
1000
0000
0100
0000
0010
0100
,
2000
0000
0000
0100
0000
0000
3001
0000
0102
0000
0000
0010
0000
0000
0103
0000
,
0001
0000
1000
0000
0010
0000
0100
0000
0001
0000
1000
0000
0001
0010
0100
1000
,
0001
0000
1000
0010
0100
0010
0100
0001
1000
0000
0001
1000
0100
1000
0100
0010
,
0001
0000
1000
0001
1000
0010
0100
0010
0100
0000
0001
0100
0001
1000
0100
0010
,
0001
0000
0010
0100
1000
0001
1000
0001
0100
0000
0010
0000
0100
0000
0001
1000
,
0100
0000
0000
0000
1001
0000
0000
0000
1010
0000
0000
0000
0100
0001
0100
0010
,
1000
0001
0010
0001
0010
0001
0010
0100
1000
0001
1000
0001
0100
0001
0100
0010
,
1000
0000
0000
0001
0000
0000
1000
0000
0000
0100
0000
0000
0010
0000
0000
0100
0000
0000
1000
0000
0000
0001
0000
0000
0100
0000
0000
0000
0000
0000
0001
0000
0100
0000
0010
0000
1000
0000
0000
0000
0000
0000
0000
0000
0000
0000
0000
0000
,
0001
0010
0001
0010
0100
0010
0001
1000
0010
0100
0010
0100
0010
1000
0001
0010
,
0100
0000
1000
0000
0001
0000
0100
0010
0100
0000
0001
0000
1000
0001
0100
0001
,
2000
0000
0100
0000
0000
0001
0000
0000
0100
0000
0000
0100
0000
0000
0002
0000
,
3000
0000
0100
0000
0000
1000
0000
0000
0100
0000
0000
0100
0000
0000
1003
0000
,
0020
0000
0000
0000
0000
0000
0000
0000
0130
0001
1000
0100
1000
0001
0100
0001
,
0010
0100
0010
0100
0010
0100
0010
0100
1000
0100
1000
0100
1000
0001
1000
0001
,
0200
0000
0010
0000
0000
1000
0000
0000
0010
0000
0000
0010
0000
0000
0302
0000
,
0000
0000
1000
0000
0000
0010
0000
0000
1000
0000
0000
1000
0000
0000
0103
0000
,
0220
0330
2020
3030
,
1001
0000
0000
0000
0011
0000
0000
0000
1001
0000
0001
0000
1000
0100
1000
0100
,
0010
0100
1000
0001
1000
0100
0010
0100
1000
0001
1000
0010
,
0100
0001
1000
0010
1000
0001
0100
0001
1000
0010
0100
0001
,
1000
0000
0000
0001
0000
1000
0100
0010
0200
0000
0000
0000
1300
0100
1000
0001
,
0100
0010
0100
0001
1000
0001
0100
0010
1000
0001
0010
0100
,
1000
0000
0001
0000
1000
0100
0020
0000
0000
0000
0031
1000
0001
0100
0020
0000
,
0000
0000
0000
0000
0130
0000
0001
0000
1000
0000
0000
0000
0100
0020
0000
0000
0000
0000
0000
0000
0130
0000
1000
0000
0010
0000
0000
0000
0100
0000
0000
0000
,
0001
1000
0010
0001
1000
0100
0001
0010
,
0000
1100
0000
0101
0000
1000
0001
0010
,
0200
0000
0000
0000
1300
0001
1000
0100
0010
0100
1000
0001
1000
0100
0010
0001
,
1000
0000
0000
0000
,
1001
0000
0000
0101
0000
0000
0021
0000
0000
0000
0031
0000
0010
0000
0100
0000
,
0001
0000
0100
0000
1000
0000
0001
0000
0100
1000
0000
0100
0000
0000
0010
0000
,
0110
0000
0000
0000
0000
0000
0000
0000
0000
0101
0000
0000
0000
0000
0000
0000
0000
0000
1020
0000
0000
0000
0000
0000
0000
0000
0000
0000
0000
0000
1030
0000
0000
0000
0000
0000
0010
0000
0000
0000
0000
0000
0100
0000
0001
0000
0100
0000
,
0001
0000
0000
0000
0000
0000
0000
0000
1001
0000
0000
1100
0000
0000
0001
0000
,
0011
0000
0000
1100
0000
0000
0201
0000
0000
0000
0301
0000
0100
0000
0010
0000
,
0001
0000
0010
0000
1000
0000
0001
0000
0010
0100
0000
0010
0000
0000
0001
0000
,
2002
0000
0000
0000
3003
0000
0000
0000
0220
0000
0000
0000
0330
0000
1000
0001
,
0200
0000
0000
0000
0010
0000
0000
0000
0301
0000
0100
0000
1000
0100
0010
1000
,
0001
0000
1000
0100
0010
0000
0001
0000
1000
0001
1000
0001
0100
0000
0010
0000
,
1000
0001
0010
0001
1000
0000
0100
0000
0010
0001
0010
0200
0000
0000
1300
0000
,
0001
0100
0001
0100
0010
0000
1000
0000
0001
1000
0100
1000
0001
0000
0010
0000
,
0100
0010
0100
0010
0001
0000
1000
0000
0010
0100
0010
2000
0000
0000
3001
0000
,
0100
0000
0001
0000
1000
0100
1000
0001
0100
0000
0001
0100
0000
0001
0100
0000
,
0010
0000
1000
0000
0001
0010
0001
1000
0010
0000
1000
0010
0000
1000
0002
0000
,
0000
0000
0013
0100
1000
0000
0001
0100
0010
0000
1000
0001
0010
0000
0100
1000
,
0010
0000
0000
0000
0000
0000
0100
0000
0000
0001
0000
0000
0010
0000
0000
0000
0000
0000
0100
0000
0000
0010
0000
0000
0001
0000
0000
0000
0000
0000
0100
0000
0000
0010
0000
0000
1000
0000
0000
0000
0000
0000
0001
0000
0010
0000
0100
0000
,
2000
0000
0000
0000
,
3001
1010
1010
0110
,
0001
0010
0100
1000
0001
0010
0100
1000
0001
1000
0010
1000
0100
0010
0001
1000
,
0010
0000
0000
0100
0001
0100
0010
1000
0001
0010
0001
0010
0100
1000
0100
1000
,
0001
0000
0000
0000
0000
0000
0000
0000
0000
1000
0000
0000
0000
0000
0000
0001
0000
0000
0100
0000
0000
0010
0000
0000
1000
0000
0000
0010
0000
0000
0100
0000
0000
0001
0000
0000
1000
0000
0001
0000
1000
0000
0001
0000
1000
0000
0001
0000
,
0010
0000
0000
0100
0000
0000
0010
0000
0001
1000
0100
1000
0001
0010
0100
1000
,
0001
1000
0010
0100
0001
0000
0000
0100
0010
0000
1000
0000
0001
0000
0010
0000
,
1000
0000
0000
0010
0100
1000
0100
0010
0001
0000
1000
0000
0010
0000
0100
0000
,
1000
0100
0010
0100
0001
0000
1000
0100
0001
0100
0010
0100
1000
0000
0001
0100
,
0010
0100
0010
1000
0001
0000
1000
0010
0001
0010
0100
0010
1000
0001
0010
0100
,
1000
0000
0000
0001
1000
0010
1000
0010
0100
0001
1000
0100
1000
0001
0100
0001
,
0010
0000
0000
0001
0010
0001
0010
0000
0000
0100
1000
0100
1000
0000
0000
0001
1000
0001
0100
0000
0000
0010
0100
0001
,
1000
0001
0010
0100
1000
0001
1000
0100
0010
0000
0001
1000
0010
0100
0001
0100
,
0010
0000
1000
0001
0020
0000
0000
0000
0130
0000
1000
0001
0200
0000
0000
0000
,
0320
0000
0000
0000
0000
0000
0000
0000
0130
0001
1000
0100
0010
0001
1000
0100
,
0020
0000
0000
0000
0000
0000
0000
0031
0010
0000
0100
0000
1000
0001
1000
0010
,
0100
0001
0100
0110
0000
1000
1001
0000
,
0011
0010
0100
1100
0000
1000
0010
0000
,
0101
0001
1000
0011
0000
0000
0110
0100
,
1000
0000
0010
0110
0000
0001
0100
0010
,
1000
0001
0010
0001
1000
0100
1000
0001
0100
0001
1000
0100
0010
0001
1000
0010
,
0100
0001
0100
0010
1000
0001
0010
0100
1000
0100
0010
0001
0100
0000
0110
0000
,
0001
0100
0001
1000
0100
1000
0010
1000
0001
0010
0001
0100
0001
1000
0100
1000
,
0010
1000
0001
0010
0001
0100
0001
1000
0100
0010
0001
0100
0010
1000
0200
2000
,
3300
0022
0000
0000
,
0000
0000
0000
0000
,
0000
0000
0000
0033
;

//---------------dance-single - YOU QUIN PASS IT----------------
#NOTES:
     dance-single:
     YOU QUIN PASS IT:
     Easy:
     5:
     0.379,0.457,0.314,0.191,0.031: // measure 1
0000
0000
0000
0000
,  // measure 2
0000
0000
0000
0000
,  // measure 3
0000
0000
0000
0000
,  // measure 4
0000
0000
0000
0000
,  // measure 5
1000
0100
1000
0100
,  // measure 6
0010
0001
0010
0001
,  // measure 7
1000
0010
1000
0010
,  // measure 8
0100
2002
0000
0000
,  // measure 9
0000
0000
0000
3003
,  // measure 10
0101
0000
0000
0001
0000
1000
0001
0000
,  // measure 11
1000
0000
0000
1000
0000
0100
0000
0100
,  // measure 12
0010
0000
0000
0001
0000
0100
0000
0000
,  // measure 13
0001
0000
0000
1000
0000
0001
0000
1000
,  // measure 14
0100
0000
0000
0010
0000
0000
0100
0000
,  // measure 15
1000
0000
0000
0001
0000
1000
0001
0100
,  // measure 16
0010
0000
0000
0220
0000
0000
0330
0000
,  // measure 17
1000
0000
0000
2002
0000
0000
3003
0000
,  // measure 18
0001
0000
0000
1000
0000
0001
0000
0001
,  // measure 19
0010
0000
0220
0000
0000
0330
0000
0000
,  // measure 20
1000
0100
0001
0100
,  // measure 21
1000
0010
0100
0001
,  // measure 22
0101
0000
1100
0000
,  // measure 23
2002
0000
3003
0000
,  // measure 24
0001
0100
1000
0100
,  // measure 25
0001
0010
0100
1000
,  // measure 26
1100
0000
0101
0000
,  // measure 27
1000
0001
1000
0001
1000
0001
2000
0000
,  // measure 28
3010
0000
0000
0010
0100
0000
0001
0000
,  // measure 29
1000
0000
0000
0001
0010
0000
0100
0000
,  // measure 30
0001
0000
0000
0001
0100
0000
1000
0000
,  // measure 31
1001
0110
1001
0110
,  // measure 32
0001
0100
0010
0100
,  // measure 33
0001
0100
1000
0000
,  // measure 34
0001
0010
1000
0010
,  // measure 35
0001
1000
0001
1000
0001
1000
0002
0000
,  // measure 36
0023
0000
0100
0000
,  // measure 37
0030
0000
0100
0000
,  // measure 38
2000
0000
0100
0000
,  // measure 39
0001
0000
0100
0000
,  // measure 40
3020
0000
0000
0000
0100
0000
0000
0030
,  // measure 41
0010
0000
0100
0000
,  // measure 42
0101
0000
1100
0000
,  // measure 43
1010
0000
1000
0000
0001
0010
0001
0000
,  // measure 44
1000
0100
0001
0100
,  // measure 45
1000
0010
0001
0010
,  // measure 46
1000
0001
0100
0010
,  // measure 47
1000
0001
0010
0100
,  // measure 48
1000
0000
0100
0010
0000
0001
0000
0011
,  // measure 49
0000
0000
1000
0010
0000
1000
0000
1010
,  // measure 50
0000
0001
0100
0001
0000
1000
0100
1000
,  // measure 51
0000
0001
0000
0010
0000
0100
0010
0000
,  // measure 52
0120
0001
1000
0100
,  // measure 53
0031
0000
0000
0000
,  // measure 54
1100
0000
0000
1000
0000
0000
0020
0000
0000
0000
0000
0000
0130
0000
0000
0000
,  // measure 55
0010
0000
0100
0000
0001
0100
0000
0000
,  // measure 56
0101
0000
0000
0001
0000
0000
0020
0000
0000
0000
0000
0000
0130
0000
0000
0000
,  // measure 57
0110
0000
0000
0000
0000
0000
0000
0000
1100
0000
0000
1100
0000
0000
0000
0000
,  // measure 58
1001
0000
0000
0001
0000
0000
0200
0000
0000
0000
0000
0000
0310
0000
0000
0000
,  // measure 59
1000
0010
0100
0000
,  // measure 60
0102
0003
2100
3000
,  // measure 61
0011
0001
1010
1000
,  // measure 62
0100
0001
0100
0001
,  // measure 63
0100
0000
0000
0000
1000
0000
0000
0000
0100
0000
0000
0100
0000
0000
0000
0000
,  // measure 64
1000
0010
1000
0010
,  // measure 65
0001
0000
0000
0000
0010
0000
0000
0000
1000
0000
0000
1000
0000
0000
0000
0000
,  // measure 66
0002
0000
1000
0100
,  // measure 67
2003
0000
0010
0000
0001
0000
3100
0010
,  // measure 68
0000
0011
0110
1100
,  // measure 69
1001
0101
0110
1010
,  // measure 70
2002
0000
0000
0000
,  // measure 71
3003
1010
0010
0100
,  // measure 72
0001
0100
1000
0100
,  // measure 73
0001
0010
0100
1000
,  // measure 74
0010
1000
0001
0100
,  // measure 75
1000
0000
0100
0000
0001
0000
1000
0001
,  // measure 76
1000
0100
1000
0100
,  // measure 77
0101
0000
0000
0000
0000
0000
0000
0000
0110
0000
0000
1000
0000
0000
0001
0000
,  // measure 78
0100
0100
0100
0000
0010
0010
0010
0000
,  // measure 79
1000
1000
1000
0000
0001
1000
0001
1000
,  // measure 80
0100
0010
0100
0010
,  // measure 81
1000
0010
0001
0100
,  // measure 82
0110
0000
1001
0000
,  // measure 83
0110
0000
1001
0000
,  // measure 84
0001
0010
0100
1000
,  // measure 85
0001
0000
0000
0000
0000
0000
0000
1000
0000
0000
0010
0000
0000
0100
0000
0000
,  // measure 86
0001
0100
0001
0100
,  // measure 87
1000
0100
0010
1000
,  // measure 88
0001
0010
0001
0010
,  // measure 89
1000
0010
0100
1000
,  // measure 90
0001
0100
1000
0100
,  // measure 91
0001
0000
0010
0000
1000
0000
0010
0002
,  // measure 92
0000
0000
0000
0000
,  // measure 93
0000
0000
0000
0003
,  // measure 94
1000
0220
0000
0000
,  // measure 95
0000
0000
0000
0000
,  // measure 96
0000
0000
0000
0330
;

//---------------dance-double - Telperion----------------
#NOTES:
     dance-double:
     Telperion:
     Challenge:
     10:
     0.888,1.000,0.239,0.273,0.999:
00011000
00000000
00000000
00010010
00000000
00000000
00011000
00000000
,
00000000
00101000
00000000
00000000
00011000
00000000
00000010
00000000
,
00001010
00000000
00000000
00011000
00000000
00000000
00110000
00000000
,
00000000
00000000
01100000
00000000
00000000
00000000
00000000
00000000
10010000
00000000
00000000
10000000
01000000
00000000
10000000
00000000
,
00010000
00000000
01000000
00000000
00100000
00000000
00010000
00000000
00001000
00000000
00000100
00000000
00000001
00000000
00001000
00000100
,
00000010
00000000
00000001
00000000
00000010
00000000
00001000
00000000
00010000
00000000
01000000
00000000
10000000
00000000
00010000
01000000
,
00100000
00000000
10000000
00000000
00100000
00000000
00010000
00000000
00001000
00000000
00000100
00000000
00000001
00000000
00001000
00000001
,
00000010
00000220
00000000
00000330
,
00000001
00001000
00000000
00000100
00001000
00000000
00000010
00010000
00001000
00010000
00001000
00010000
00001000
01000000
00010000
01000000
,
00100000
00000000
10000000
00100000
00000000
00010000
00001000
01000000
,
00001000
00000000
00010000
00000000
00000010
00000000
00001000
00000000
00000000
00000000
00000100
00000000
00010000
00000100
00001000
00000100
,
00000010
00000000
00000000
00000000
00000001
00000000
00001000
00000001
00000100
00000010
00000100
00000001
00001000
00000100
00001000
00000100
,
00000010
00000000
00000000
00000100
00000000
00000000
00010000
00001000
00100000
00001000
00010000
00001000
01000000
00000000
00000100
00000000
,
00010000
00000000
00000000
00000000
00001000
00000000
01000000
00010000
00100000
00000000
00001000
00000000
01000000
00000000
00001000
00000000
,
00100000
00010000
00100000
00010000
10000000
01000000
10000000
01000000
00100000
00010000
10000000
00100000
01000000
00000000
00010000
00000000
,
01010000
00000000
00000000
00001000
00000000
00000000
00012000
00000000
00000000
00000000
00000000
00000000
01003000
00000000
00010000
00000000
,
10010000
00000000
00000000
10000000
01000000
00000000
00200000
00000000
00000000
00000000
00000000
00000000
00310000
00000000
00100000
01000000
,
10000000
00010000
10000000
01000000
00100000
00001000
00010000
00001000
01000000
00001000
00010000
00000100
00010000
00001000
01000000
00001000
,
00010000
00000000
00000000
00000000
00000020
00000000
00000000
00000000
00000000
00000000
00010030
00000000
00001000
01000000
00010000
01000000
,
00100000
00000000
00010000
00000000
00100000
10000000
01000000
10000000
00100000
00000000
00010000
00000000
00001000
00000000
00000100
00000000
,
00000010
00000000
00000000
00001000
00000000
00000000
00000001
00000000
00000100
00000000
00000000
00001000
00010000
00000000
00000100
00000000
,
00001100
00000000
00000000
00010000
00000000
00000000
00001000
00000000
01001000
00000000
00000000
01000000
00000000
00000000
00010000
00000000
,
00120000
00000000
00000000
00000000
00030000
00000000
00100000
01000000
10000000
00000000
00000000
00000000
00010000
10000000
01000000
10000000
,
00010000
10000000
01000000
00100000
00001000
00010000
00001000
00100000
,
00000010
00000000
00000000
00010000
00000010
00000000
00000100
00000000
00000001
00000000
00000100
00000000
00000010
00000000
00001000
00000001
,
00000020
00000000
00000000
00000030
00001200
00000000
00000000
00000300
,
00011000
00000000
00000010
00000000
00010000
00000000
00001000
00000000
00100000
00000000
00010000
00000000
01000000
00001000
01000000
00001000
,
00100000
00000000
00010000
00100000
00010000
00100000
00010000
00100000
01000000
00000000
10000000
00010000
10000000
00010000
01000000
00001000
,
00010000
00000000
00000010
00010000
00000010
00010000
00000010
00010000
00001000
00000000
00100000
00001000
00010000
00000100
00001000
00000001
,
00000100
00000000
00000010
00001000
00000010
00000100
00000001
00000100
00000010
00000000
00001000
00000000
00000001
00000000
00000010
00000100
,
00001000
00000000
00000000
00000000
00010000
00000000
00000000
00000000
01000000
00000000
00000000
00000000
00100000
00000000
10000000
00100000
,
01000000
00010000
01000000
00010000
01000000
00001000
01000000
00001000
00010000
00001000
00010000
00001000
01000000
00001000
00010000
00000100
,
00001000
00000000
00000000
00000100
00000000
00000000
00001000
00000000
00000000
00000100
00000000
00000000
00000010
00000000
00000000
00000100
00000000
00000000
00000010
00000000
00000000
00000100
00000000
00000000
00001000
00000000
00000000
00000000
00000000
00000000
00001000
00000000
00000100
00000000
00000010
00000000
00000001
00000000
00000000
00000000
00000000
00000000
00000000
00000000
00000000
00000000
00000000
00000000
,
00001000
00000001
00000100
00000010
00001000
00000010
00001000
00000010
00010000
00001000
00010000
00001000
00100000
00001000
00010000
00000010
,
00000100
00000000
00000001
00000000
00000100
00000000
00001000
00000000
00010000
00000000
01000000
00000000
10000000
00010000
10000000
01000000
,
00100000
00000000
01000000
00000000
00000000
10000000
00000000
00000000
00010000
00000000
00000000
10000000
00000000
00000000
01000000
00000000
,
00000000
00000000
00010000
00000000
00000000
00001000
00000000
00000000
00000100
00000000
00000000
00001000
00000000
00000000
00010000
00000000
,
00000000
00000000
00100000
00000000
00000000
00010000
00000000
00000000
00001000
00000000
00000000
00000010
00000000
00000000
00000001
00000000
,
00001000
00000001
00000010
00000100
00001000
00000001
00001000
00000100
00010000
00000000
00000000
00000100
00000000
00000000
00001000
00000000
,
00000001
00000000
00000100
00000000
00000000
00000010
00000000
00000000
00000100
00000000
00000000
00000001
00000000
00000000
00002000
00000000
,
00003000
00000000
00000100
00000000
00000000
00000010
00000000
00000000
00000100
00000000
00000000
00010000
00000000
00000000
00001000
00000000
,
00022000
00033000
02002000
03003000
,
00201000
00000000
00000000
00000000
00300010
00000000
00000000
00000000
00010010
00000000
00010000
00000000
00000010
00010000
00001000
00010000
,
00000010
00000000
00001000
00000001
00000100
00000010
00001000
00000000
00000010
00000100
00001000
00010000
,
00000010
00000000
00010000
00001000
00100000
01000000
00010000
00000000
01000000
00100000
00010000
10000000
,
00100000
00000000
00000000
10000000
00000000
00100000
01000000
00010000
20000000
00000000
30000000
00000000
00100000
01000000
00010000
01000000
,
00100000
10000000
00100000
01000000
00010000
01000000
00001000
00010000
00001000
00100000
00001000
00010000
,
00000010
00000000
00001000
00000000
00000100
00000010
00000002
00000000
00000000
00000000
00000103
00000010
00001000
00000010
00020000
00000000
,
00000000
00000000
00000000
00000000
00031000
00000000
01000000
00000000
00010000
00000000
00000000
00000000
00100000
00010000
00000000
00000000
00000000
00000000
00000000
00000000
00100000
00000000
00000000
00000000
01000000
00000000
00000000
00000000
10000000
00000000
00000000
00000000
,
00010000
10000000
01000000
00010000
00001000
00000100
00000010
00000002
,
00000000
00000000
00000013
00000100
00000010
00000000
00002000
00000000
00000000
00000000
00003001
00000000
00001000
00000000
00000001
00000000
,
00000100
00000000
00000000
00000000
00000010
00000100
00000010
00001000
00000001
00000010
00000100
00001000
00000100
00010000
00000100
00010000
,
00001000
00000000
00000000
00000000
,
01000100
00000000
00000000
00010000
00000000
00000000
00000020
00000000
00000000
00000000
00100030
00000000
00001000
00000000
01000000
00000000
,
00010000
00000000
00100000
00000000
01000000
00000000
10000000
00000000
01000000
00010000
00000000
00001000
00000000
00000000
00000000
00000000
,
01000100
00000000
00000000
00000000
00000000
00000000
00000000
00000000
00000000
00001000
00000000
00000000
00000000
00000000
00000000
00000000
00000000
00000000
00200000
00000000
00000000
00000000
00000000
00000000
00000000
00000000
00000000
00000000
00000000
00000000
00300010
00000000
00000000
00000000
00000000
00000000
00001000
00000000
00000000
00000000
00000000
00000000
00000010
00000000
00000100
00000000
00000010
00000000
,
00000100
00000000
00000000
00000000
00000000
00000000
00000000
00000000
00000101
00000000
00000000
00020000
00000000
00000000
00031000
00000000
,
00100010
00000000
00000000
00001000
00000000
00000000
02000000
00000000
00000000
00000000
03000100
00000000
00010000
00000000
00000010
00000000
,
00001000
00000000
00000001
00000000
00000010
00000000
00000100
00000000
00001000
00000100
00000000
00010000
00000000
00000000
00000100
00000000
,
00000002
00000000
00002003
00000000
,
00013000
00000000
00000000
00000000
00010000
00000000
00000000
00000000
00001000
00000000
00100000
00000000
00010000
10000000
00010000
10000000
,
00100000
00000000
01000000
00010000
01000000
00000000
00100000
00000000
00010000
00001000
00010000
00001000
00100000
00000000
01000000
00000000
,
00100000
00000000
00010000
10000000
00010000
00000000
01000000
00000000
00001000
01000000
00001000
00020000
00000000
00000000
00031000
00000000
,
00000100
00000000
00000010
00000100
00000010
00000000
00001000
00000000
00000001
00000010
00000001
00000010
00000100
00000000
00001000
00000000
,
00000010
00000000
00000100
00000001
00000100
00000000
00000010
00000000
00010000
00000010
00010000
00002000
00000000
00000000
00013000
00000000
,
00000010
00000000
00001000
00000000
00000100
00010000
00001000
01000000
00010000
00000000
00100000
00010000
00000000
00100000
00010000
00000000
,
10000000
00000000
00010000
00000000
01000000
00001000
00010000
00000100
00001000
00000000
00000001
00001000
00000000
00000000
00000020
00000000
,
00000000
00000000
00000130
00000001
00001000
00000000
00000100
00010000
00001000
00000000
01000000
00001000
00010000
00000000
00000010
00100000
,
00001000
00000000
00000000
00000000
00000000
00000000
01000000
00000000
00000000
00010000
00000000
00000000
00100000
00000000
00000000
00000000
00000000
00000000
00001000
00000000
00000000
10000000
00000000
00000000
00010000
00000000
00000000
00000000
00000000
00000000
00100000
00000000
00000000
01000000
00000000
00000000
10000000
00000000
00000000
00000000
00000000
00000000
00010000
00000000
01000000
00000000
00100000
00000000
,
20000000
00000000
00000000
00000000
,
30000000
10100000
00100000
01000000
,
00100000
10000000
00100000
01000000
00010000
01000000
00010000
01000000
00001000
01000000
00001000
00010000
00000100
00001000
00000100
00000010
,
00001000
00000000
00000000
00000010
00000100
00001000
00000001
00001000
00000100
00010000
00000100
00001000
00000100
00000010
00000001
00001000
,
00000010
00000000
00000000
00000000
00000000
00000000
00000000
00000000
00000000
00000100
00000000
00000000
00000000
00000000
00000000
00000001
00000000
00000000
00000100
00000000
00000000
00000010
00000000
00000000
00001000
00000000
00000000
00000010
00000000
00000000
00010000
00000000
00000000
00000010
00000000
00000000
00010000
00000000
00001000
00000000
00010000
00000000
00001000
00000000
00010000
00000000
00001000
00000000
,
00100000
00000000
00000000
00001000
00000000
00000000
00010000
00000000
00000010
00010000
00001000
00010000
00000100
00001000
00000010
00000100
,
00000001
00000000
00000000
00000000
00000010
00000100
00001000
00000100
00010000
00000000
00001000
00000000
01000000
00000000
00100000
00000000
,
00010000
00000000
00000000
00100000
01000000
00100000
10000000
00010000
00100000
00000000
01000000
00000000
10000000
00000000
00010000
00000000
,
10000000
00010000
10000000
01000000
00010000
00000000
00000000
00000000
00001000
00100000
01000000
00100000
00001000
00000000
00000000
00000000
,
00010000
00000010
00001000
00000100
00000010
00000000
00000000
00000000
00000001
00001000
00000010
00000100
00000001
00000100
00000010
00001000
,
00000001
00000010
00000100
00001000
00000000
00000100
00001000
00000100
00000010
00000100
00001000
00000100
00010000
00001000
01000000
00010000
,
00100000
00020000
01030000
02000000
03001000
00002000
00013000
00020000
,
00030100
00010000
00000100
00010000
00001000
00010000
00001000
01000000
00010000
00000000
01000000
00010000
01000000
00001000
01000000
00001000
,
00010000
00000000
00000010
00001000
00000010
00010000
00001000
00100000
00010000
10000000
01000000
00100000
00010000
10000000
00010000
01000000
,
00200000
00000000
00000000
00000000
00000000
00000000
00000000
00000000
10300000
00100000
10000000
00100000
01000000
00010000
01000000
00010000
,
20000000
00000000
00000000
00000000
00000000
00000000
00000000
00010000
30000000
00000000
10000000
00000000
00000000
01000000
00100000
00001000
,
00010000
00001000
00100000
00101000
00000000
00000000
00001000
00000000
,
01001000
00000000
01000000
01100000
00000000
00000000
20000000
00000000
,
30100000
01000000
00001000
00011000
00000000
00000000
00000100
00000000
,
00000110
00000000
00001000
00001001
00000000
00000000
00001000
00000000
,
00000001
00000010
00000001
00001000
00000001
00000010
00000100
00001000
00000001
00001000
00000100
00010000
00000100
00001000
00000100
00010000
,
00001000
00100000
00001000
00010000
00001000
01000000
00010000
01000000
00100000
01000000
00010000
01000000
00100000
00000000
10000000
00000000
,
00010000
10000000
01000000
00100000
00010000
01000000
00001000
00010000
00000100
00001000
00000001
00000100
00000010
00001000
00000100
00010000
,
00001000
01000000
00010000
00100000
01000000
10000000
00010000
10000000
01000000
00100000
00001000
00010000
00000100
01000000
00002000
00020000
,
00033000
00020020
00000000
00000000
,
00000000
00000000
00000000
00100000
,
00000000
00000000
00000000
00030030
;

//---------------dance-single - HAEL-STROM----------------
#NOTES:
     dance-single:
     HAEL-STROM:
     Medium:
     9:
     0.681,0.653,0.464,0.382,0.204: // measure 1
1010
0000
0000
1010
0000
0000
0101
0000
,  // measure 2
0000
0101
0000
0000
0110
0000
0110
0000
,  // measure 3
0110
0000
0000
0110
0000
0000
1001
0000
,  // measure 4
0000
0000
1001
0000
0000
0000
0000
0000
0011
0000
0000
0001
1000
0000
0001
0000
,  // measure 5
1000
0000
0000
0000
0001
0000
0010
0000
0100
0000
0010
0000
0001
0000
1000
0010
,  // measure 6
0100
0000
0010
0100
0001
1000
0001
1000
,  // measure 7
0100
0000
0010
0100
1000
0001
0100
0010
,  // measure 8
0100
2002
0000
0000
,  // measure 9
0000
0000
0000
3003
,  // measure 10
0110
0000
0001
1000
0000
0001
1000
0100
,  // measure 11
0010
0000
0100
0000
1000
0000
0001
0000
0000
0000
0100
0001
0100
0000
0010
0000
,  // measure 12
2000
0000
0000
0001
3001
0100
0010
1000
,  // measure 13
0001
0000
0000
0100
0000
0000
0220
0000
0000
0000
0330
0000
0010
0000
1000
0000
,  // measure 14
0001
0000
0000
0000
1000
0000
0100
1000
0100
0000
0010
0000
0100
0000
1000
0000
,  // measure 15
0100
0000
0000
0000
0010
0000
0001
0000
0100
0000
0010
1000
0000
0000
0001
0000
,  // measure 16
0011
0000
0000
1001
0000
0000
2200
0000
0000
0000
3300
0000
1001
0000
0000
0000
,  // measure 17
1010
0010
0100
0202
0000
0303
1001
0000
,  // measure 18
0110
0000
0000
0000
0010
0000
1000
0000
0001
0000
0000
0010
0000
0000
0001
0000
,  // measure 19
1001
0000
0000
0000
0220
0000
0000
0000
0330
0000
0010
0100
0000
0000
0010
0000
,  // measure 20
1000
0100
1000
0001
0010
0100
0010
0001
,  // measure 21
1000
0000
0000
0001
0000
0000
1000
0000
0001
0000
0100
0000
0010
0000
0100
0000
,  // measure 22
0101
0000
0000
0001
0000
0000
1000
0000
1001
0000
0000
0001
0000
0000
1000
0000
,  // measure 23
2200
0000
0000
0000
3300
0000
0000
0000
2001
0000
0000
0000
3001
0010
0001
0010
,  // measure 24
0001
0000
0010
0001
0100
0010
1000
0001
,  // measure 25
0100
0000
0000
0001
0000
0000
1000
0000
0100
0000
0000
0000
0011
0000
0000
0000
,  // measure 26
1100
0000
0000
0100
0000
0000
1000
0000
1001
0000
0000
0001
0000
0000
0100
0000
,  // measure 27
0010
0000
1000
0000
0010
0000
0100
0000
0001
0000
0100
0000
0001
1000
0001
1000
,  // measure 28
0002
0010
2000
3003
,  // measure 29
2000
0010
0002
3003
,  // measure 30
1001
0000
1000
0100
0010
0001
0010
0100
,  // measure 31
1100
1010
0101
1001
,  // measure 32
0001
1000
0001
0010
0100
0010
0001
0100
,  // measure 33
0010
1000
0001
1000
0200
0000
0310
0000
,  // measure 34
0001
0010
0100
0010
0001
1000
0010
0100
,  // measure 35
0002
0000
0000
0000
0000
0000
1003
0100
2000
0000
0000
0000
3010
0100
0010
0100
,  // measure 36
0020
1000
0000
1000
,  // measure 37
0230
0001
0000
0010
,  // measure 38
0302
1000
0000
0010
,  // measure 39
2003
0010
0000
0100
,  // measure 40
3002
0010
1000
0100
,  // measure 41
2003
0010
0100
3001
,  // measure 42
2020
3030
0202
0303
,  // measure 43
1001
0000
0110
0000
0001
0010
0100
1000
,  // measure 44
0001
0000
0001
0100
0000
0100
0001
0000
0001
1000
0000
1000
,  // measure 45
0100
0000
0100
1000
0000
1000
0001
0000
0001
0010
0000
0001
,  // measure 46
0010
0001
0100
0010
1000
0100
1000
0100
,  // measure 47
1000
0000
0001
0100
0000
0010
1000
0000
0001
1000
0100
0010
,  // measure 48
0001
0010
0001
1001
0000
1000
0010
1001
,  // measure 49
0000
0010
0100
1001
0000
0011
0000
1001
,  // measure 50
0000
1000
0100
0110
0000
0001
0100
0110
,  // measure 51
0000
0010
1000
1001
0000
0001
0010
0100
,  // measure 52
0210
1000
0001
0310
,  // measure 53
2002
0000
0000
3003
,  // measure 54
1000
0000
0000
0001
0000
0000
0210
0000
0000
0000
0310
0000
0100
0000
0010
0000
,  // measure 55
1000
0000
0001
0000
1000
0000
0100
0000
0010
0001
0000
0010
0000
0000
0001
0000
,  // measure 56
1000
0000
0000
0010
0000
0000
0201
0000
0000
0000
0310
0000
0100
0000
0001
0000
,  // measure 57
1001
0000
1000
0000
0100
0000
0010
0000
0100
0000
0000
0010
0000
0000
0100
0000
,  // measure 58
1000
0000
0000
0001
0000
0000
2001
0000
0000
0000
3001
0000
0100
0000
0001
0000
,  // measure 59
1000
0000
0100
0000
0010
0000
0001
0000
0100
0010
0000
0100
0000
0000
0010
0000
,  // measure 60
2020
3030
2002
3003
,  // measure 61
0011
0000
0000
0000
1100
0000
0000
0000
0001
0000
1000
0000
0001
1000
0001
0000
,  // measure 62
1000
0010
0100
0001
1000
0100
0010
0001
,  // measure 63
1000
0000
0001
0000
0010
0000
0100
0000
0010
0000
0000
0001
0000
0000
0100
0000
,  // measure 64
0010
0100
0001
0100
0010
1000
0001
0010
,  // measure 65
0100
0000
0001
0000
0100
0000
1000
0000
0001
1000
0000
0001
0000
0000
1000
0000
,  // measure 66
0010
0000
0100
0000
0001
0000
0000
0100
0001
0000
1000
0000
0100
0000
0010
0000
,  // measure 67
0001
0000
1000
0000
0100
0000
0000
1000
0100
0000
1000
0000
0001
0000
0101
0000
,  // measure 68
0000
0100
0100
0001
0001
1000
1000
0100
,  // measure 69
0001
0100
0010
0100
1000
0100
0010
0100
,  // measure 70
2002
0000
0000
0000
,  // measure 71
3003
1010
0101
1001
,  // measure 72
0001
0000
0100
0000
0010
0000
0100
0000
0001
0000
1000
0000
0100
0000
1000
0001
,  // measure 73
1000
0001
0100
0010
0100
0001
1000
0100
,  // measure 74
1000
0000
0000
0000
0001
0000
0010
0001
0010
0000
0001
0000
0100
0000
0001
0000
,  // measure 75
1000
0000
0000
1000
0100
0000
0010
0000
0100
0000
0001
0000
0100
0000
0010
0000
,  // measure 76
0001
1000
0001
0100
0010
0100
0001
1000
,  // measure 77
1100
0000
1000
0001
0100
0010
0100
0001
,  // measure 78
1000
0100
0001
0100
1000
0010
0001
0010
,  // measure 79
1000
0100
0010
0001
0100
0010
1000
0001
,  // measure 80
1000
0010
0010
0100
0100
0001
0001
1000
,  // measure 81
0100
0000
0000
0100
0010
0000
0000
0010
0001
0000
0000
0001
1000
0000
0000
1000
,  // measure 82
0100
1000
0001
0100
0010
1000
0100
0010
,  // measure 83
0100
0010
0001
1000
0100
1000
0010
0100
,  // measure 84
0202
0000
0000
0000
0303
0000
0000
0000
0001
1000
0001
0000
1000
0100
1000
0000
,  // measure 85
2002
0000
0000
0000
3003
0000
0000
0010
0000
0000
0100
0000
0010
0000
0001
1000
,  // measure 86
0001
0100
0010
2000
0000
3100
0010
0100
,  // measure 87
1000
0001
0010
0200
0000
0310
0001
1000
,  // measure 88
0001
0100
0001
2000
0000
3010
1000
0100
,  // measure 89
0010
0100
1000
0002
0000
1003
0001
0010
,  // measure 90
0001
0100
0010
1000
0100
0010
0001
1000
,  // measure 91
0100
1000
0001
0010
0001
0100
0010
1002
,  // measure 92
0000
1003
0100
1000
0001
0100
0001
1000
,  // measure 93
0100
0001
0100
1000
0010
0100
0020
0200
,  // measure 94
0330
2002
0000
0000
,  // measure 95
0000
0000
0000
0000
,  // measure 96
0000
0000
0000
3003
;

//---------------dance-single - ----------------
#NOTES:
     dance-single:
     :
     Beginner:
     2:
     0.172,0.261,0.198,0.116,0.000: // measure 1
0000
0000
0000
0000
,  // measure 2
0000
0000
0000
0000
,  // measure 3
0000
0000
0000
0000
,  // measure 4
0000
0000
0000
0000
,  // measure 5
1000
0000
0000
0000
,  // measure 6
0001
0000
0000
0000
,  // measure 7
0100
0000
0000
0000
,  // measure 8
0010
0220
0000
0000
,  // measure 9
0330
0000
0000
0000
,  // measure 10
1001
0000
0000
0000
,  // measure 11
0110
0000
0000
0000
,  // measure 12
1001
0000
0000
0000
,  // measure 13
1000
0000
0001
0000
,  // measure 14
0010
0000
0100
0000
,  // measure 15
0010
0000
0000
0000
,  // measure 16
0100
0000
1000
0000
,  // measure 17
0001
0000
0000
0000
,  // measure 18
1000
0000
0001
0000
,  // measure 19
1001
1001
0000
0000
,  // measure 20
1001
0000
0001
0000
,  // measure 21
0100
0000
0000
0000
,  // measure 22
0010
0000
1000
0000
,  // measure 23
0001
0000
0000
0000
,  // measure 24
1000
0000
0100
0000
,  // measure 25
0010
0000
0001
0000
,  // measure 26
1000
0000
0001
0000
,  // measure 27
0100
0000
0000
0000
,  // measure 28
0110
0000
0100
0000
,  // measure 29
0001
0000
1000
0000
,  // measure 30
0100
0000
0010
0000
,  // measure 31
0100
0000
0000
0000
,  // measure 32
1001
0000
0001
0000
,  // measure 33
1000
0000
2000
3000
,  // measure 34
0001
0000
0100
0000
,  // measure 35
0010
0000
0100
0000
,  // measure 36
2002
0000
0000
0000
,  // measure 37
3003
0000
0000
0000
,  // measure 38
0220
0000
0000
0000
,  // measure 39
0330
0000
0000
0000
,  // measure 40
2002
0000
0000
0000
,  // measure 41
3003
0000
0000
0000
,  // measure 42
0110
0000
1001
0000
,  // measure 43
0220
0000
0000
0330
,  // measure 44
0010
0000
1000
0000
,  // measure 45
0001
0000
1000
0000
,  // measure 46
0100
0000
0010
0000
,  // measure 47
0100
0000
1000
0000
,  // measure 48
0001
0000
0000
0000
,  // measure 49
1000
0000
0000
0000
,  // measure 50
1001
0000
0000
0000
,  // measure 51
0001
0000
0000
0000
,  // measure 52
0100
0000
0010
0000
,  // measure 53
0110
0000
0000
0000
,  // measure 54
1001
0000
0000
0000
,  // measure 55
0000
0000
0000
0000
,  // measure 56
0110
0000
0000
0000
,  // measure 57
1000
0000
0001
0000
,  // measure 58
1001
0000
0000
0000
,  // measure 59
0000
0000
0000
0000
,  // measure 60
0110
0000
1001
0000
,  // measure 61
0110
0000
0000
0000
,  // measure 62
0010
0000
1000
0000
,  // measure 63
0001
0000
0100
0000
,  // measure 64
0001
0000
0010
0000
,  // measure 65
0001
0000
1000
0000
,  // measure 66
0001
0000
0000
0000
,  // measure 67
0100
0000
0000
0000
,  // measure 68
0001
0000
1000
0000
,  // measure 69
0001
0000
1000
0000
,  // measure 70
2002
0000
0000
0000
,  // measure 71
3003
0000
0000
0000
,  // measure 72
1000
0000
0001
0000
,  // measure 73
0100
0000
0001
0000
,  // measure 74
1000
0000
0100
0000
,  // measure 75
0010
0000
0100
0000
,  // measure 76
1000
0000
0000
0000
,  // measure 77
0001
0000
1000
0000
,  // measure 78
0001
0000
0001
0000
,  // measure 79
0100
0000
0100
0000
,  // measure 80
0010
0000
0100
0000
,  // measure 81
0001
0000
0100
0000
,  // measure 82
0010
0000
1000
0000
,  // measure 83
0001
0000
1000
0000
,  // measure 84
1001
0000
0000
0000
,  // measure 85
0110
0000
0000
0000
,  // measure 86
1001
0000
0001
0000
,  // measure 87
0100
0000
0001
0000
,  // measure 88
1000
0000
0100
0000
,  // measure 89
1000
0000
0001
0000
,  // measure 90
1000
0000
0100
0000
,  // measure 91
0010
0000
0001
0000
,  // measure 92
2002
0000
0000
0000
,  // measure 93
0000
0000
0000
3003
,  // measure 94
0000
2002
0000
0000
,  // measure 95
0000
0000
0000
0000
,  // measure 96
0000
0000
0000
3003
;
