#TITLE:Give Your Heart a Break;
#SUBTITLE:;
#ARTIST:Demi Lovato;
#TITLETRANSLIT:;
#SUBTITLETRANSLIT:;
#ARTISTTRANSLIT:;
#GENRE:;
#CREDIT:;
#BANNER:[ZIv Academy] - Give Your Heart A Break.png;
#BACKGROUND:[ZIv Academy] - Give Your Heart A Break-bg.png;
#LYRICSPATH:;
#CDTITLE:;
#MUSIC:[ZIv Academy] - Give Your Heart A Break.ogg;
#OFFSET:-0.192;
#SAMPLESTART:39.160;
#SAMPLELENGTH:12.000;
#SELECTABLE:YES;
#BPMS:0.000=123.015
;
#STOPS:
;
#BGCHANGES:;
#KEYSOUNDS:;
#ATTACKS:;

//---------------dance-single - ----------------
#NOTES:
     dance-single:
     :
     Beginner:
     1:
     0.113,0.098,0.010,0.000,0.000,75.000,1.000,0.000,0.000,0.000,0.000,0.113,0.098,0.010,0.000,0.000,75.000,1.000,0.000,0.000,0.000,0.000: // measure 0
0000
0000
0000
0000
,  // measure 1
0000
0000
0000
0000
,  // measure 2
0000
0000
0000
0000
,  // measure 3
0000
0000
0000
0000
,  // measure 4
1000
0000
1000
0000
,  // measure 5
0001
0000
0001
0000
,  // measure 6
0100
0000
0100
0000
,  // measure 7
0010
0000
0000
0000
,  // measure 8
1000
0000
1000
0000
,  // measure 9
0100
0000
0100
0000
,  // measure 10
0010
0000
0010
0000
,  // measure 11
0001
0000
0000
0000
,  // measure 12
1000
0000
0000
0001
,  // measure 13
0001
0000
0000
0100
,  // measure 14
0100
0000
0000
0010
,  // measure 15
0010
0000
0000
1000
,  // measure 16
1000
0000
0000
0100
,  // measure 17
0100
0000
0000
0010
,  // measure 18
0010
0000
0000
0000
,  // measure 19
1001
0000
0000
0000
,  // measure 20
1000
0000
1000
0000
,  // measure 21
0100
0000
0100
0000
,  // measure 22
0010
0000
0010
0000
,  // measure 23
0001
0000
0001
0000
,  // measure 24
0100
0000
0100
0000
,  // measure 25
0010
0000
0010
0000
,  // measure 26
1000
0000
1000
0000
,  // measure 27
0001
0000
0001
0000
,  // measure 28
1000
0000
1000
0000
,  // measure 29
0010
0000
0010
0000
,  // measure 30
0100
0000
0100
0000
,  // measure 31
0001
0000
0001
0000
,  // measure 32
0010
0000
0010
0000
,  // measure 33
0100
0000
0100
0000
,  // measure 34
1000
0000
1000
0000
,  // measure 35
0001
0000
0001
0000
,  // measure 36
1000
0000
0000
0000
,  // measure 37
0010
0000
0000
0000
,  // measure 38
0100
0000
0000
0000
,  // measure 39
0001
0000
0000
0000
,  // measure 40
0010
0000
0000
0000
,  // measure 41
0100
0000
0000
0000
,  // measure 42
1000
0000
0000
0000
,  // measure 43
0001
0000
0000
0000
,  // measure 44
1000
0000
1000
0000
,  // measure 45
0001
0000
0001
0000
,  // measure 46
0100
0000
0100
0000
,  // measure 47
0010
0000
0000
0000
;

//---------------dance-single - ----------------
#NOTES:
     dance-single:
     :
     Easy:
     3:
     0.202,0.198,0.021,0.042,0.000,130.000,2.000,4.000,0.000,0.000,0.000,0.202,0.198,0.021,0.042,0.000,130.000,2.000,4.000,0.000,0.000,0.000:
0000
0000
0000
0000
,
0000
0000
0000
0000
,
0000
0000
0000
0000
,
0000
0000
0000
0000
,
1000
2000
0100
0000
,
3001
0002
0100
0000
,
1003
0001
2000
0000
,
3010
0000
0010
0000
,
1000
0010
0100
0000
,
0001
0010
0100
0000
,
1000
0010
0100
0000
,
0001
0000
0001
0000
,
1000
0100
0100
0000
,
1000
0010
0010
0000
,
1000
0010
0001
0000
,
0001
0010
1000
0000
,
0100
1000
0001
0000
,
1000
0001
0010
0000
,
1001
0000
0000
0000
,
0002
0000
0000
0003
,
1000
0100
0010
0100
,
1000
1000
0001
0000
,
0001
0100
0010
0100
,
0001
0001
1000
0000
,
0010
1000
0010
0001
,
0010
0010
0100
0000
,
0001
0001
1000
1000
,
0100
0000
0100
0000
,
0100
1000
0010
0000
,
0100
0100
0100
0000
,
0100
0001
0010
0000
,
0100
0100
0100
0000
,
0100
1000
0001
0100
,
0010
0010
0010
0000
,
0100
0000
0100
0000
,
0001
0001
0001
0001
,
0010
0000
1000
0010
,
0001
0000
0001
0100
,
1000
0000
1000
0100
,
0001
0000
1000
1000
,
0001
0000
0001
0010
,
1000
0000
1000
0010
,
0001
0000
0001
1000
,
0010
0010
0100
0100
,
0110
0010
0010
0000
,
1000
1000
1000
0000
,
0001
0001
0001
0000
,
0010
0000
0010
0000
;

//---------------dance-single - ----------------
#NOTES:
     dance-single:
     :
     Medium:
     6:
     0.351,0.377,0.114,0.291,0.000,197.000,11.000,28.000,0.000,0.000,0.000,0.351,0.377,0.114,0.291,0.000,197.000,11.000,28.000,0.000,0.000,0.000:
0000
0000
0000
0000
,
0000
0000
0000
0000
,
0000
0000
0000
0000
,
0000
0000
0000
0000
,
1000
0000
0100
0000
1000
0000
0100
1000
,
0001
0000
1000
0000
0001
0000
1000
0001
,
0100
0000
0001
0000
0100
0000
0001
1000
,
0001
1000
1001
0000
,
0001
0000
0010
0000
0001
0000
0010
0001
,
1000
0000
0001
0000
1000
0000
0001
1000
,
0010
0000
1000
0000
0010
0000
1000
0001
,
1000
0001
1001
0000
,
1000
0000
0100
0020
0000
0000
0001
0000
,
0031
0000
0100
0020
0000
0000
1000
0000
,
1030
0000
0100
2000
0000
0000
0001
0000
,
3001
0000
1000
0001
1000
0000
0010
0000
,
0010
0000
1000
0200
0000
0000
1000
0000
,
1300
0000
0010
0200
0000
0000
0001
0000
,
0301
0000
1000
0002
0000
0000
1000
0000
,
1003
0000
0001
1000
0001
0000
0101
0000
,
1100
0000
1000
0010
0100
0000
0110
0000
,
0101
0000
0001
0010
0100
0000
0110
0000
,
1100
0000
1000
0010
0100
0000
0101
0000
,
1100
0000
1000
0010
0200
0000
0301
0010
,
0200
1000
0010
1000
,
2300
0001
0100
0001
,
3002
0000
2003
0000
,
3001
0000
0100
0010
0100
0000
0001
1000
,
0001
0000
0010
0000
0001
0000
0100
0001
,
0100
0000
0010
0000
1000
0000
0100
1000
,
0100
0000
1000
0000
0010
0000
0100
0010
,
0100
0000
0001
0000
1000
0000
0100
0010
,
0100
0000
0010
0001
0010
0000
0001
0000
,
0100
0000
0010
1000
0010
0000
1000
0000
,
0002
0000
2003
0000
,
3002
0000
0013
0100
2000
0000
3010
0100
,
0002
0010
0100
1000
,
2003
0100
0010
0001
,
3002
0100
0010
1000
,
2003
0000
3010
0100
0001
0010
0100
1000
,
0020
1000
0100
1000
,
2030
0100
0010
0100
,
3200
0010
1000
0010
,
0320
0032
0203
0320
,
1030
1000
1000
0100
,
0010
0010
0010
0001
,
1000
1000
1000
0001
,
0100
0010
0100
0010
0000
0220
0000
0000
,
0000
0330
0000
0000
;

//---------------dance-single - ----------------
#NOTES:
     dance-single:
     :
     Hard:
     7:
     0.477,0.427,0.062,0.562,0.016,261.000,6.000,54.000,0.000,0.000,0.000,0.477,0.427,0.062,0.562,0.016,261.000,6.000,54.000,0.000,0.000,0.000:
0000
0000
0000
0000
,
0000
0000
0000
0000
,
0000
0000
0000
0000
,
0000
0000
0000
0000
,
2000
0000
0010
0000
0100
0000
0010
0010
,
3020
0000
0100
0000
1000
0000
0100
0100
,
0230
0000
0001
0000
0010
0000
0001
0001
,
0301
0010
1000
0001
0100
2000
0001
0001
,
3002
0000
0010
0000
0100
0000
0010
0010
,
0023
0000
0100
0000
0001
0000
0100
0100
,
0230
0000
0010
0000
1000
0000
0010
0010
,
0310
0001
0100
1000
0001
0020
1000
1000
,
1030
0000
0001
2100
0000
0000
0001
0001
,
3001
0000
1000
0102
0000
0000
1000
1000
,
1003
0000
0001
2001
0000
0000
0001
0001
,
3001
1000
0100
0001
0100
1000
0010
0001
,
0010
0000
1000
2010
0000
0000
0010
0010
,
3010
0000
0100
0012
0000
0000
0010
0013
,
2002
0000
0000
3003
,
1000
0100
0010
0001
0100
0010
1000
0000
,
0001
0010
0100
1000
0020
0000
1000
1000
,
1030
0000
0010
0100
0010
0000
0100
0000
0002
0000
0000
0000
0100
0000
0100
0000
,
0103
1000
0100
0001
0020
0000
0001
0001
,
0031
0010
1000
0010
0002
0010
0010
0010
,
0013
0100
1000
0001
0200
0000
0010
0010
,
0310
0100
0001
1000
0200
0000
1000
1000
,
2300
0000
0010
0010
3020
0000
0230
0000
,
0301
0000
1000
0001
1000
0000
0100
0000
0020
0000
0000
0000
0001
0000
0001
0000
,
0031
0010
0010
0100
2000
0000
3010
0200
,
0000
1300
1000
0100
0002
0000
0013
0200
,
0000
1300
0001
0010
1000
0010
0001
0200
,
0000
0010
0310
0000
1000
0010
0100
0002
,
0000
1003
0100
0010
0001
0100
1000
0100
,
0000
0000
0001
0010
0100
0000
1000
0000
0100
0000
0001
0000
0100
0000
2000
0000
,
0000
3010
1000
0002
0000
0013
0001
0100
,
0000
0100
0010
1000
0100
0010
0100
0100
,
2000
0000
0010
0000
0100
0000
0010
0010
,
3020
0000
0100
0000
1000
0000
0100
0100
,
0230
0000
0001
0000
0010
0000
0001
0001
,
0301
0010
0100
1000
0010
0001
1000
0100
,
0002
0000
0010
0000
0100
0000
0010
0010
,
0023
0000
0100
0000
0001
0000
0100
0100
,
0230
0000
1000
0000
0010
0000
1000
1000
,
2300
3020
0230
0302
,
2003
0000
3200
0000
2300
0000
3100
1000
,
0002
0000
2003
0000
3002
0000
1003
0001
,
0200
0000
0302
0000
0203
0000
0301
1000
,
0100
0010
0001
0100
0020
2000
0000
0000
,
0000
3030
0000
0000
;
