#TITLE:Bass_Tek 2;
#ARTIST:P*Light;
#TITLETRANSLIT:;
#SUBTITLETRANSLIT:;
#ARTISTTRANSLIT:;
#CREDIT:Lisek + KNS-17;
#BANNER:[ZIv Academy] - Bass_Tek 2.png;
#BACKGROUND:[ZIv Academy] - Bass_Tek 2-bg.png;
#CDTITLE:cdtitle.png;
#MUSIC:[ZIv Academy] - Bass_Tek 2.ogg;
#OFFSET:-0.789000;
#SAMPLESTART:33.26;
#SAMPLELENGTH:12.7;
#SELECTABLE:YES;
#BPMS:0.000000=170.000000;
#STOPS:;
#BGCHANGES:;
#KEYSOUNDS:;
#ATTACKS:;

//---------------dance-single - Lisek----------------
#NOTES:
     dance-single:
     Lisek:
     Challenge:
     11:
     0.697875,1.000000,0.650827,0.235239,0.356779,510.000000,83.000000,30.000000,4.000000,0.000000,10.000000,0.697875,1.000000,0.650827,0.235239,0.356779,510.000000,83.000000,30.000000,4.000000,0.000000,10.000000:
// measure 0
0000
0000
0000
0000
,  // measure 1
0000
0000
0000
0000
,  // measure 2
0000
0000
0000
0000
,  // measure 3
0000
0000
0000
0000
,  // measure 4
1000
0000
0000
0100
0010
0000
0001
0000
0100
0000
0000
0010
0100
0000
0010
0000
,  // measure 5
1000
0000
0000
0100
0010
0000
0100
0000
1000
0000
0000
0001
0100
0000
0010
0000
,  // measure 6
0100
0000
0000
0001
0010
0000
0100
0000
1000
0000
0010
0000
0100
0000
0001
0000
,  // measure 7
0010
0001
0100
0010
,  // measure 8
2000
0000
3200
0302
0203
0000
0000
0000
,  // measure 9
0000
0000
0000
0000
0000
0000
0320
2030
,  // measure 10
3002
0000
0203
2300
3002
0000
0000
0000
,  // measure 11
0000
0000
0000
0000
0203
2300
3200
0320
,  // measure 12
2030
0000
3200
0302
0203
0000
0000
0000
,  // measure 13
0000
0000
0000
0000
0010
1000
0010
0001
,  // measure 14
0310
0000
1000
0010
0001
0000
0000
0000
,  // measure 15
0010
0000
1000
0010
,  // measure 16
1001
0000
1000
0100
0110
0000
0010
0001
,  // measure 17
0101
0000
0100
0010
1010
0000
1000
0100
,  // measure 18
0110
0000
0010
0100
1100
0000
1000
0010
,  // measure 19
0110
0000
0100
0001
0011
0000
0010
0001
,  // measure 20
0101
0000
0100
0010
1010
0000
1000
0100
,  // measure 21
0110
0000
0010
0100
1100
0000
1000
0010
,  // measure 22
0110
0101
1010
0110
,  // measure 23
1001
0000
0000
0000
,  // measure 24
1010
0000
0010
0000
0110
0000
0100
0000
0001
0000
0010
0100
0000
0000
1000
0000
,  // measure 25
1001
0000
0001
0000
0101
0000
0100
0000
0010
1000
0010
0100
0001
0000
0000
0000
,  // measure 26
0101
0000
0001
0000
1001
0000
1000
0000
0010
0000
0100
0010
0000
0000
1000
0000
,  // measure 27
0002
0103
0200
0310
0000
1000
0001
0000
,  // measure 28
1100
0000
1000
0000
1010
0000
0010
0000
0100
0000
0001
0010
0000
0000
0001
0000
,  // measure 29
0101
0000
0000
0000
0100
0010
0100
0000
1010
0000
0000
0000
0110
0000
0000
0000
,  // measure 30
0101
0000
0000
0000
0000
0000
0001
0000
0000
0000
0000
0000
1001
0000
0000
0000
0000
0000
0001
0000
0000
0000
0000
0000
0100
0000
0000
0000
0000
0000
0010
0000
0000
0100
0000
0000
0001
0000
0000
0000
0010
0000
0100
0000
0000
0000
0000
0000
,  // measure 31
2000
3002
1003
0000
0000
0000
0000
0000
,  // measure 32
4000
0010
0100
3010
,  // measure 33
0004
0100
0010
0103
,  // measure 34
4000
0010
0100
3010
,  // measure 35
1001
0110
1001
0110
,  // measure 36
0001
0000
0000
0001
0000
0000
1000
0010
0100
0010
1000
0010
,  // measure 37
0100
0000
0010
0000
0000
0000
1000
0001
1000
0000
0010
0000
0100
0000
0000
0000
,  // measure 38
0110
0000
0000
0000
1001
0000
0000
0000
1000
0100
0010
0001
0100
0010
1000
0000
,  // measure 39
0000
0011
1100
0000
,  // measure 40
1000
0000
0000
0100
0000
0000
1000
0000
0010
0000
0000
0100
0000
0000
0001
0000
,  // measure 41
0010
0000
0000
0001
0000
0000
0100
0010
0100
0000
0000
0010
0000
0000
1000
0010
,  // measure 42
1000
0000
0000
0010
0000
0000
0100
0000
0001
0000
0000
0010
0000
0000
0001
0000
,  // measure 43
0100
0000
0000
0010
0000
0000
1000
0010
1000
0000
0000
0001
0000
0000
0010
0001
,  // measure 44
0010
0000
0000
0001
0000
0000
1000
0010
1000
0000
0000
0001
0000
0000
0100
0000
,  // measure 45
0010
0000
0000
1000
0000
0000
0100
1000
0100
0000
0000
1000
0010
0000
0100
0000
,  // measure 46
0001
0000
0000
0010
0001
0000
0100
0010
0100
0000
0000
0001
0000
0000
0010
0000
,  // measure 47
0001
0000
0000
1000
0000
0000
0010
0100
0010
0000
0000
1000
0001
0000
0000
0000
,  // measure 48
1000
0100
0010
0001
,  // measure 49
1000
0010
0100
0001
,  // measure 50
1000
0100
0010
0001
0100
0010
1000
0001
,  // measure 51
1000
0100
0010
0100
1000
0001
0100
0001
,  // measure 52
1000
0100
0010
0001
0100
0010
1000
0100
1000
0010
0100
0001
0010
0001
0100
0010
,  // measure 53
1000
0001
0010
0001
0100
0010
0100
0010
1000
0010
1000
0100
0010
0001
1000
0000
,  // measure 54
1001
0000
0000
0000
,  // measure 55
0000
0000
0000
0000
,  // measure 56
0101
0000
0001
0000
1001
0000
1000
0000
0010
0000
0100
0001
0000
0000
0010
0000
,  // measure 57
0011
0000
0001
0000
0101
0000
0100
0000
0010
0100
0010
0100
0001
0000
0000
0000
,  // measure 58
1010
0000
0000
0000
0000
0000
0010
0000
0000
0000
0000
0000
0110
0000
0000
0000
0000
0000
0100
0000
0000
0000
0000
0000
0010
0000
0000
0000
0000
0000
1000
0000
0000
0100
0000
0000
1000
0000
0000
0000
0010
0000
0000
0000
0100
0000
0000
0000
,  // measure 59
0020
0130
0200
0301
0000
0100
0010
0000
,  // measure 60
0110
0000
0100
0000
0101
0000
0001
0000
1000
0000
0010
0100
0000
0000
0010
0000
,  // measure 61
1010
0000
1000
0000
0001
1000
0001
0000
1001
0000
0000
0000
0100
0000
0000
0000
,  // measure 62
0011
0000
0000
0000
0000
0000
0001
0000
0000
0000
0000
0000
0101
0000
0000
0000
0000
0000
0100
0000
0000
0000
0000
0000
0010
0000
0000
0000
0000
0000
1000
0000
0000
0010
0000
0000
0100
0000
0000
0000
0001
0000
0000
0000
0100
0000
0000
0000
,  // measure 63
0020
0130
0001
0000
0000
0000
0000
0000
,  // measure 64
1010
0000
1000
0000
1001
0000
0001
0000
0010
0000
0001
0100
0000
0000
0010
0000
,  // measure 65
1010
0000
1000
0000
1100
0000
0100
0000
0010
0100
1000
0010
0100
0000
0000
0000
,  // measure 66
0101
0000
0000
0000
0000
0000
0100
0000
0000
0000
0000
0000
0110
0000
0000
0000
0000
0000
0010
0000
0000
0000
0000
0000
1000
0000
0000
0000
0000
0000
0100
0000
0000
1000
0000
0000
0010
0000
0000
0000
0100
0000
0000
0000
0001
0000
0000
0000
,  // measure 67
0020
0031
2000
3100
0000
1000
0001
0000
,  // measure 68
1001
0000
0000
0000
0100
0000
0000
0000
0010
0100
0001
1000
0010
0000
0000
0000
,  // measure 69
1001
0000
0000
0000
0100
0010
1000
0000
1001
0000
0000
0000
0040
0000
0030
0000
,  // measure 70
0101
0110
1010
1100
,  // measure 71
2000
3001
0100
0000
0000
0000
0000
0000
,  // measure 72
0040
1000
0100
1030
,  // measure 73
0400
0010
0001
0310
,  // measure 74
0040
0100
1000
0130
,  // measure 75
0110
1001
0110
1001
,  // measure 76
4000
0010
0100
3010
,  // measure 77
0040
0100
1000
0130
,  // measure 78
0400
0001
1000
0301
,  // measure 79
0101
1010
0101
M00M
,  // measure 80
1001
1000
1010
0010
0100
0001
0001
0000
,  // measure 81
0101
0000
0001
0000
1001
0000
1000
0000
0010
0100
0001
0100
0010
0000
0000
0000
,  // measure 82
1010
1000
1100
0100
0010
0100
0000
0000
,  // measure 83
0020
0031
0002
0103
0000
0010
0100
0000
,  // measure 84
0101
0000
0000
1010
0000
0000
1000
0100
0010
0001
1000
0010
,  // measure 85
0100
0000
0010
0000
0000
0000
1000
0010
1000
0000
0000
0000
0010
0000
0000
0000
,  // measure 86
0110
0000
0000
0101
0000
0000
0001
0010
0100
1000
0100
1000
,  // measure 87
0010
1100
0011
M00M
;

//---------------dance-single - ----------------
#NOTES:
     dance-single:
     Lisek:
     Beginner:
     1:
     0.068331,0.067435,0.000000,0.039206,0.000000,56.000000,0.000000,5.000000,0.000000,0.000000,0.000000,0.068331,0.067435,0.000000,0.039206,0.000000,56.000000,0.000000,5.000000,0.000000,0.000000,0.000000:
0000
0000
0000
0000
,
0000
0000
0000
0000
,
0000
0000
0000
0000
,
0000
0000
0000
0000
,
0000
0000
0000
0000
,
0000
0000
0000
0000
,
0000
0000
0000
0000
,
0000
0000
0000
0000
,
1000
0000
0000
0000
,
0000
0000
0000
0000
,
0001
0000
0000
0000
,
0000
0000
0000
0000
,
0100
0000
0000
0000
,
0000
0000
0000
0000
,
0010
0000
0000
0000
,
0000
0000
0000
0000
,
1000
0000
0000
0000
,
0100
0000
0000
0000
,
0010
0000
0000
0000
,
0001
0000
0000
0000
,
1000
0000
0000
0000
,
0010
0000
0000
0000
,
0100
0000
0000
0000
,
0000
0000
0000
0000
,
0001
0000
0000
0000
,
0100
0000
0000
0000
,
0010
0000
0000
0000
,
0100
0000
0000
0000
,
0001
0000
0000
0000
,
1000
0000
0000
0000
,
0010
0000
0000
0000
,
1000
0000
0000
0000
,
0001
0000
0000
0000
,
1000
0000
0000
0000
,
0001
0000
0000
0000
,
0000
0000
0000
0000
,
0100
0000
0000
0000
,
0000
0000
0000
0000
,
0010
0000
0000
0000
,
0000
0000
0000
0000
,
2000
0000
0000
0000
,
0000
0000
3000
0000
,
0200
0000
0000
0000
,
0000
0000
0300
0000
,
0020
0000
0000
0000
,
0000
0000
0030
0000
,
0002
0000
0000
0000
,
0000
0000
0003
0000
,
0200
0000
0000
0000
,
0000
0000
0000
0000
,
0000
0000
0000
0000
,
0000
0000
0000
0000
,
0000
0000
0000
0000
,
0300
0000
0000
0000
,
0000
0000
0000
0000
,
0000
0000
0000
0000
,
0001
0000
0000
0000
,
0100
0000
0000
0000
,
0010
0000
0000
0000
,
1000
0000
0000
0000
,
0001
0000
0000
0000
,
0010
0000
0000
0000
,
0100
0000
0000
0000
,
0000
0000
0000
0000
,
1000
0000
0000
0000
,
0010
0000
0000
0000
,
0100
0000
0000
0000
,
0010
0000
0000
0000
,
0100
0000
0000
0000
,
0001
0000
0000
0000
,
0100
0000
0000
0000
,
0010
0000
0000
0000
,
1000
0000
0000
0000
,
0001
0000
0000
0000
,
1000
0000
0000
0000
,
0000
0000
0000
0000
,
0100
0000
0000
0000
,
0010
0000
0000
0000
,
0100
0000
0000
0000
,
0000
0000
0000
0000
,
0001
0000
0000
0000
,
0100
0000
0000
0000
,
0010
0000
0000
0000
,
1000
0000
0000
0000
,
0001
0000
0000
0000
,
0000
0000
0000
0000
,
1000
0000
0000
0000
;

//---------------dance-single - ----------------
#NOTES:
     dance-single:
     Lisek:
     Easy:
     3:
     0.203874,0.274445,0.039206,0.180350,0.000000,154.000000,5.000000,23.000000,0.000000,0.000000,0.000000,0.203874,0.274445,0.039206,0.180350,0.000000,154.000000,5.000000,23.000000,0.000000,0.000000,0.000000:
0000
0000
0000
0000
,
0000
0000
0000
0000
,
0000
0000
0000
0000
,
0000
0000
0000
0000
,
0000
0000
0000
0000
,
0000
0000
0000
0000
,
0000
0000
0000
0000
,
0000
0000
0000
0000
,
2000
0000
0000
0000
,
0000
0000
3000
0000
,
0020
0000
0000
0000
,
0000
0000
0030
0000
,
0200
0000
0000
0000
,
0000
0000
0300
0000
,
0000
0000
0000
0000
,
0000
0000
0000
0000
,
0001
0000
0100
0000
,
0010
0000
1000
0000
,
0001
0000
1000
0000
,
0010
0000
0100
0000
,
0001
0000
0010
0000
,
0001
0000
1000
0000
,
0010
0100
0010
0100
,
0000
0000
0000
0000
,
0001
0000
0010
0000
,
0001
0000
0200
0300
,
0010
0000
1000
0000
,
0010
0000
0000
0000
,
1000
0000
0001
0000
,
0100
0000
0010
0000
,
1000
0000
0001
0000
,
0000
0000
0000
0000
,
1000
1000
2000
3000
,
0001
0001
0002
0003
,
1000
1000
2000
3000
,
0010
0100
0010
0100
,
0001
0000
0001
0000
,
0100
0000
0010
0000
,
1000
0000
1000
0000
,
0010
0000
0000
0000
,
1000
0000
1000
0000
,
1000
0000
0002
0000
,
0103
0000
0100
0000
,
0100
0000
0020
0000
,
1030
0000
1000
0000
,
1000
0000
0200
0000
,
0310
0000
0010
0000
,
0010
0000
0002
0000
,
0103
0000
0010
0000
,
0100
0000
0010
0000
,
1000
0000
0001
0000
,
1000
0000
0001
0000
,
1000
0100
0010
0001
,
1000
0100
0010
0001
,
0000
0000
0000
0000
,
0000
0000
0000
0000
,
1000
0000
0010
0000
,
0100
0000
0020
0030
,
1000
0000
0001
0000
,
0010
0000
0000
0000
,
0001
0000
0100
0000
,
0010
0000
1000
0000
,
0010
0000
0100
0000
,
0010
0000
0000
0000
,
1000
0000
0100
0000
,
1000
0000
0002
0003
,
0100
0000
0001
0000
,
1000
0000
0000
0000
,
0102
0000
0000
0003
,
1010
0000
0110
0000
,
0100
0010
1000
0001
,
1001
0000
0000
0000
,
1000
1000
2000
3000
,
0010
0010
0020
0030
,
0100
0100
0200
0300
,
0001
1000
0001
1000
,
0010
0010
0020
0030
,
0100
0100
0200
0300
,
0001
0001
0002
0003
,
1000
0001
1000
0000
,
0001
0000
0100
0000
,
0001
0000
2000
3000
,
0010
0000
0100
0000
,
0010
0000
0000
0000
,
1000
0000
0100
0000
,
0010
0000
0001
0000
,
1000
0010
0100
0001
,
2002
0000
3003
0000
;

//---------------dance-single - ----------------
#NOTES:
     dance-single:
     KNS-17:
     Hard:
     10:
     0.732601,0.759037,0.078413,0.619462,0.642986,565.000000,10.000000,79.000000,13.000000,0.000000,7.000000,0.732601,0.759037,0.078413,0.619462,0.642986,565.000000,10.000000,79.000000,13.000000,0.000000,7.000000:
0000
0000
0000
0000
,
0000
0000
0000
0000
,
0000
0000
0000
0000
,
0000
0000
0000
0000
,
0001
0000
0000
1000
0100
0000
1000
0001
0100
0000
0000
0010
1000
0000
0001
0000
,
1000
0000
0000
0001
0010
0000
0001
1000
0010
0100
0010
0000
0100
0000
0001
0000
,
1000
0100
1000
0000
0001
0100
0001
0000
1000
0010
1000
0000
0001
0010
0001
0000
,
1000
0010
0100
0001
0010
1000
0010
0001
,
2000
0000
3001
0100
0020
0000
0000
0000
,
0000
0000
0000
0000
0030
0000
1000
0001
,
0020
0000
0031
1000
0200
0000
0000
0000
,
0000
0000
0000
0000
1300
0010
0001
0010
,
2000
0000
3001
0010
0200
0000
0000
0000
,
0000
0000
0000
0000
1300
0001
1000
0010
,
0200
0000
0301
1000
0002
0000
0000
0000
,
0000
0000
0003
1001
,
0001
0011
1000
1010
,
0001
0000
0011
0000
1000
0000
0010
1000
,
0001
0101
1000
1100
,
0001
0000
0101
0000
1000
0100
0010
0100
,
1000
1010
0001
0101
,
0010
0100
0010
1000
0001
0000
1001
0000
,
1000
0100
1000
0100
0010
0001
0010
0001
,
0200
0000
0000
0000
0300
0000
M00M
0010
,
0100
0000
0002
0000
0003
0000
0002
0000
0003
0000
1000
0100
0000
0000
0100
0010
,
0000
0000
0002
0000
0003
0000
0002
0000
1003
0010
1000
0010
0200
0000
0000
0000
,
0310
0000
0000
0000
0000
0000
2000
0000
0000
0000
0000
0000
3000
0000
0000
0000
0000
0000
2000
0000
0000
0000
0000
0000
3000
0000
0000
0000
0000
0000
0001
0000
0000
0100
0000
0000
0010
0000
0000
0000
1000
0000
0000
0000
0001
0000
0000
0000
,
1000
0000
0100
0000
0010
0000
0100
0000
2000
0000
0000
0000
3001
0100
0001
0000
,
1000
0000
0020
0000
0030
0000
0020
0000
0030
0000
0100
0001
0000
0000
0001
1000
,
0100
0000
0020
0000
0031
0100
0001
0100
0020
0000
0000
0000
1030
0100
1000
0100
,
1000
0000
0000
0000
0000
0000
0020
0000
0000
0000
0000
0000
0030
0000
0000
0000
0000
0000
0020
0000
0000
0000
0000
0000
0030
0000
0000
0000
0000
0000
0100
0000
0000
0001
0000
0000
0010
0000
0000
0000
1000
0000
0000
0000
0010
0000
0000
0000
,
0200
0000
0300
0000
2000
3020
0230
0000
,
0301
0000
0000
0001
0000
0000
0100
0000
0000
0100
0000
0001
1000
0000
0100
0000
,
1000
0000
0000
1000
0000
0000
0010
0000
0000
0010
0000
0100
0001
1000
0001
1000
,
0001
0000
0000
0001
0000
0000
0010
0000
0000
0010
0000
0100
1000
0000
0001
0000
,
2000
3020
0230
0000
0302
0023
0230
0000
,
4300
0000
0000
0000
0000
0000
3001
0100
0001
0100
0010
0100
,
0002
0000
0000
0000
0000
0000
0000
0000
0000
0000
0000
0000
1003
0000
0000
0100
0000
0000
1000
0000
0000
0001
0000
0000
2000
0000
0000
0000
0000
0000
0000
0000
0000
0000
0000
0000
3001
0000
0000
0000
0100
0000
0000
0000
0001
0000
0000
0000
,
4000
0000
0000
3000
0000
0000
4000
0000
0000
3000
0000
0000
0001
0000
0100
0000
0001
0000
1000
0000
0100
0000
0010
0000
,
0200
0000
0300
M00M
,
1000
0000
0000
1000
0000
0000
1000
0000
0010
0000
0000
0010
0000
0000
0010
0000
,
0100
0000
0000
0100
0000
0000
0100
0001
1000
0000
0000
0001
0010
0000
0001
0000
,
0100
0000
0000
0100
0000
0000
0100
0010
1000
0000
0000
1000
0000
0000
1000
0000
,
0001
0000
0000
0001
0000
0000
0001
1000
0100
0000
0000
0010
0001
0000
1000
0000
,
0001
0000
0000
0001
0000
0000
0001
0100
0010
0000
0000
0010
0000
0000
0010
0000
,
1000
0000
0000
1000
0000
0000
1000
0001
0010
0000
0000
0100
1000
0000
0001
0000
,
1000
0000
0000
1000
0000
0000
1000
0001
0100
0000
0000
0100
0000
0000
0100
0000
,
0010
0000
0000
0010
0000
0000
0010
1000
0100
0000
0000
0010
0001
0000
0001
0100
,
0010
1000
0100
0001
0100
1000
0010
0100
,
0001
0010
1000
0010
0001
1000
0010
0100
,
0001
1000
0100
0001
0100
1000
0010
0100
,
0001
1000
0001
0010
1000
0010
0100
1000
,
0001
0000
0000
0001
0100
0000
0000
0100
0010
0000
0000
0010
1000
0000
0000
1000
,
0001
0000
0000
0001
0010
0000
0000
0010
0100
1000
0100
1000
0001
1000
0001
1000
,
0020
0000
0000
0030
,
0M00
0000
0000
000M
0000
0000
0M0M
1000
,
0010
0000
0200
0000
0300
0000
0200
0000
0300
0000
0010
1000
0000
0000
1000
0001
,
0000
0000
0020
0000
0030
0000
0020
0000
0130
1000
0100
0010
0002
0000
0000
0000
,
1003
0000
0000
0000
0000
0000
0020
0000
0000
0000
0000
0000
0030
0000
0000
0000
0000
0000
0020
0000
0000
0000
0000
0000
0030
0000
0000
0000
0000
0000
0100
0000
0000
0001
0000
0000
1000
0000
0000
0000
0100
0000
0000
0000
1000
0000
0000
0000
,
0001
0000
0100
0000
0010
0000
0100
0000
0002
0000
0000
0000
1003
0100
1000
0000
,
0010
0000
0200
0000
0300
0000
0200
0000
0300
0000
0001
0010
0000
0000
0100
1000
,
0001
0000
0200
0000
0310
1000
0010
1000
0200
0000
0000
0000
0310
0001
0010
0001
,
1000
0000
0000
0000
0000
0000
0002
0000
0000
0000
0000
0000
0003
0000
0000
0000
0000
0000
0002
0000
0000
0000
0000
0000
0003
0000
0000
0000
0000
0000
1000
0000
0000
0010
0000
0000
1000
0000
0000
0000
0100
0000
0000
0000
0010
0000
0000
0000
,
0200
0000
0300
0000
00M0
0000
0M00
1000
,
0001
0000
0000
0001
0000
0000
0100
0000
0000
0100
0000
0000
0001
0000
0010
0000
,
0100
0000
0000
0100
0000
0000
1000
0000
0001
0100
0001
0100
0020
0000
0000
0000
,
0130
0000
0000
0000
0000
0000
0000
0000
0000
0100
0000
0000
0000
0000
0000
0000
0000
0000
0001
0000
0000
0000
0000
0000
0000
0000
0000
0001
0000
0000
0000
0000
0000
0000
0000
0000
0010
0000
0000
0000
1000
0000
0000
0000
0010
0000
0000
0000
,
0001
0000
0100
0000
0010
0000
0100
0000
0002
0000
0000
0000
1003
0100
1000
0100
,
0020
0000
0000
0000
0034
0000
0003
0000
1000
0010
1000
0010
0200
0000
0000
0000
,
0302
0000
0000
0000
1003
0100
0010
0100
2000
0000
0000
0000
3001
0100
0001
0100
,
0010
0100
1000
0100
0001
0100
0010
1000
,
0002
0000
0003
0000
2000
3200
0320
0000
,
0031
0000
0000
0001
0000
0000
0100
0000
0000
0100
0000
0010
1000
0000
0001
0000
,
1000
0000
0000
1000
0000
0000
0100
0000
0000
0100
0000
1000
0001
0100
0001
0100
,
0010
0000
0000
0010
0000
0000
1000
0000
0000
1000
0000
0001
0010
0000
0100
0000
,
2000
3020
0230
0000
0302
0023
0230
0000
,
1300
0000
0000
1000
0000
0000
0010
0000
0000
0010
0000
0100
0001
0000
1000
0000
,
0001
0000
0000
0001
0000
0000
0010
0000
0000
0010
0000
0100
1000
0001
1000
0001
,
0100
0000
0000
0100
0000
0000
0010
0000
0000
0010
0000
1000
0100
0000
0010
0000
,
0002
0203
0320
0000
2030
3200
2300
0000
,
3001
0000
0000
0001
0000
0000
0001
0000
0100
0000
0010
1000
0000
0000
1000
0001
,
0010
0000
0000
0010
0000
0000
0100
0000
1000
0010
0100
0010
2000
0000
0000
0000
,
3001
0000
0000
0000
0000
0000
0000
0000
0000
0001
0000
0000
0000
0000
0000
0000
0000
0000
0010
0000
0000
0000
0000
0000
0000
0000
0000
0010
0000
0000
0000
0000
0000
0000
0000
0000
0100
0000
0000
0000
1000
0000
0000
0000
0001
0000
0000
0000
,
1000
0000
0010
0000
0100
0000
0010
0000
2000
0000
0000
0000
3001
0100
0001
0100
,
0040
0000
0000
0000
0000
0000
1030
0100
1000
0100
0010
0100
,
2000
0000
0000
0000
0000
0000
0000
0000
0000
0000
0000
0000
3001
0000
0000
0100
0000
0000
0001
0000
0000
1000
0000
0000
0002
0000
0000
0000
0000
0000
0000
0000
0000
0000
0000
0000
1003
0000
0000
0000
0100
0000
0000
0000
0010
0000
0000
0000
,
0400
0000
0000
0300
0000
0000
0400
0000
0000
0300
0000
0000
1000
0000
0010
0000
1000
0000
0001
0000
0010
0000
0100
0000
,
0020
0000
0030
M00M
,
0M00
0000
0000
0000
;

//---------------dance-single - ----------------
#NOTES:
     dance-single:
     KNS-17:
     Medium:
     8:
     0.593698,0.621030,0.219556,0.509684,0.188191,437.000000,28.000000,65.000000,10.000000,0.000000,0.000000,0.593698,0.621030,0.219556,0.509684,0.188191,437.000000,28.000000,65.000000,10.000000,0.000000,0.000000:
0000
0000
0000
0000
,
0000
0000
0000
0000
,
0000
0000
0000
0000
,
0000
0000
0000
0000
,
0001
0000
1000
0010
0001
0000
0001
0010
,
1000
0000
1000
0100
0001
0100
1000
0001
,
1000
0010
0100
0001
1000
0100
0010
0001
,
0001
0010
0100
1000
0001
0100
0010
1000
,
0002
0000
1003
0010
0200
0000
0000
0000
,
0000
0000
0000
0000
0300
0000
0010
1000
,
0002
0000
0013
0001
2000
0000
0000
0000
,
0000
0000
0000
0000
3001
0100
0010
1000
,
0002
0000
1003
0100
0020
0000
0000
0000
,
0000
0000
0000
0000
0031
1000
0010
0100
,
0002
0000
0013
0100
2000
0000
0000
0000
,
0000
0000
3000
1001
,
0001
0100
0010
0100
,
0001
0000
0100
0000
0010
0000
0100
0001
,
1000
0100
0010
0100
,
1000
0000
0100
0000
0010
0100
1000
0001
,
1000
0000
0010
0000
0100
0010
1000
0000
,
0001
0010
0100
0010
0001
1000
0001
0000
,
0101
0110
1010
1001
,
0022
0000
0033
MM00
,
0001
0000
0100
0000
0000
0000
0100
0000
0000
0000
0010
1000
0000
0000
0010
0100
,
0000
0001
0000
0001
1000
0100
2000
0000
,
3001
0000
0010
0000
0000
0000
0010
0000
0000
0000
0100
1000
0000
0000
0001
0000
,
1001
1010
0220
0330
,
1000
0000
0100
0000
0000
0000
0100
0000
0000
0000
0010
0001
0000
0000
0010
0100
,
0000
1000
0001
0100
0002
0000
1003
0100
,
1000
0010
0000
0010
0000
0100
0001
0100
,
0020
0000
0030
0000
2000
3200
0320
0000
,
0031
0000
0000
0001
0000
0000
0100
0000
0000
0100
0000
0000
0001
0000
1000
0000
,
0001
0000
0000
0001
0000
0000
0010
0000
0000
0010
0000
0000
0100
0000
1000
0000
,
0001
0000
0000
0001
0000
0000
0100
0000
0000
0100
0000
0000
0010
0000
1000
0000
,
0002
0023
0230
0000
2300
3200
0320
0000
,
0032
0000
0000
0000
1003
0010
0100
0010
,
2000
0000
3001
0010
0002
0000
1003
0100
,
1100
0000
0101
0000
0001
0010
0100
1000
,
0002
0000
0000
0003
,
1000
0000
0000
0010
0000
0000
1000
0000
0001
0000
0000
0100
0000
0000
0001
0000
,
1000
0000
0000
0100
0000
0000
1000
0000
0001
0000
0000
0000
1000
0000
0000
0000
,
0001
0000
0000
0010
0000
0000
0001
0000
1000
0000
0000
0100
0000
0000
1000
0000
,
0001
0000
0000
0100
0000
0000
0001
0000
1000
0000
0100
0000
0010
0000
0100
0000
,
1000
0000
0000
0010
0000
0000
0100
0000
0001
0000
0000
0100
0000
0000
0010
0000
,
1000
0000
0000
0100
0000
0000
0010
0000
0001
0000
0000
0000
1000
0000
0000
0000
,
0001
0000
0000
0100
0000
0000
0010
0000
1000
0000
0000
0010
0000
0000
0100
0000
,
0001
0000
0000
0010
0000
0000
0100
0000
1000
0000
0100
0000
0010
0000
0001
0000
,
1000
0010
1000
0000
0010
0100
0010
0000
,
0100
0001
0100
0000
0001
1000
0001
1000
,
0001
0010
0001
0000
0010
0100
0010
0000
,
0100
1000
0100
0000
1000
0001
1000
0001
,
1000
0010
0100
0001
1000
0100
0010
0001
,
1000
0010
0100
0001
0010
0100
1000
0001
,
2000
0000
0000
0000
,
30M0
0000
0000
0M00
0000
0000
0MM0
0000
,
0001
0000
0010
0000
0000
0000
0010
0000
0000
0000
0001
0100
0000
0000
0010
1000
,
0000
0100
0000
0100
0010
0001
0020
0000
,
0031
0000
0100
0000
0000
0000
0100
0000
0000
0000
0010
1000
0000
0000
0001
0000
,
0011
0110
2200
3300
,
1000
0000
0010
0000
0000
0000
0010
0000
0000
0000
1000
0100
0000
0000
0010
0001
,
0000
0100
0010
1000
0002
0000
0013
0001
,
1000
0100
0000
0100
0000
0010
0001
0100
,
0020
0030
M000
000M
,
1000
0000
0000
1000
0000
0000
0100
0000
0000
0100
0000
0000
0010
0000
0001
0000
,
1000
0000
0000
1000
0000
0000
0010
0000
0100
0000
0001
0000
2000
0000
0000
0000
,
3001
0000
0000
0001
0000
0000
0010
0000
0000
0010
0000
0000
0100
0000
1000
0000
,
1100
0011
0202
0303
,
2010
0000
0000
3000
0001
0000
0000
0000
1000
0000
0100
0000
0020
0000
0000
0000
,
0032
0000
1003
0010
0200
0000
0301
1000
,
1001
1100
0011
0101
,
2020
0000
3030
0000
0002
0023
0230
0000
,
1300
0000
0000
1000
0000
0000
0010
0000
0000
0010
0000
0000
1000
0000
0001
0000
,
1000
0000
0000
1000
0000
0000
0100
0000
0000
0100
0000
0000
0010
0000
0001
0000
,
1000
0000
0000
1000
0000
0000
0010
0000
0000
0010
0000
0000
0100
0000
0001
0000
,
2000
3200
0320
0000
0032
0023
0230
0000
,
1300
0000
0000
1000
0000
0000
0001
0000
0000
0001
0000
0000
0100
0000
0001
0000
,
1000
0000
0000
1000
0000
0000
0001
0000
0000
0001
0000
0000
0010
0000
0100
0000
,
1000
0000
0000
1000
0000
0000
0001
0000
0000
0001
0000
0000
0100
0000
0010
0000
,
2000
3200
0320
0000
0032
0023
0032
0000
,
1003
0000
0010
0000
0000
0000
0010
0000
0000
0000
1000
0001
0000
0000
0010
0001
,
0000
0100
0000
0100
0010
1000
0020
0000
,
1030
0000
0100
0000
0000
0000
0100
0000
0000
0000
0010
0001
0000
0000
1000
0000
,
1001
1010
0022
0033
,
2000
0000
0000
0000
3001
0100
0010
0100
,
0002
0000
1003
0100
2000
0000
3001
0010
,
0011
0000
1010
0000
1000
0100
0010
0001
,
2000
0000
0000
300M
,
00M0
0000
0000
0000
;
