#VERSION:0.81;
#TITLE:Alles Neu;
#SUBTITLE:;
#ARTIST:MIA.;
#TITLETRANSLIT:;
#SUBTITLETRANSLIT:;
#ARTISTTRANSLIT:;
#GENRE:Rock;
#ORIGIN:;
#CREDIT:;
#BANNER:Alles Neu.png;
#BACKGROUND:;
#PREVIEWVID:;
#JACKET:Alles Neu-jacket.png;
#CDIMAGE:;
#DISCIMAGE:;
#LYRICSPATH:;
#CDTITLE:;
#MUSIC:Alles Neu.mp3;
#OFFSET:-0.052674;
#SAMPLESTART:54.000000;
#SAMPLELENGTH:15.000000;
#SELECTABLE:YES;
#BPMS:0.000=160.000;
#STOPS:;
#DELAYS:;
#WARPS:;
#TIMESIGNATURES:0.000=4=4;
#TICKCOUNTS:0.000=4;
#COMBOS:0.000=1;
#SPEEDS:0.000=1.000=0.000=0;
#SCROLLS:0.000=1.000;
#FAKES:;
#LABELS:0.000=Song Start;
#BGCHANGES:-1.000=Alles Neu.avi=1.000=0=0=0=StretchNoLoop====,
99999=-nosongbg-=1.000=0=0=0 // don't automatically add -songbackground-
;
#KEYSOUNDS:;
#ATTACKS:
;

//---------------dance-single - ----------------
#NOTEDATA:;
#CHARTNAME:;
#STEPSTYPE:dance-single;
#DESCRIPTION:;
#CHARTSTYLE:;
#DIFFICULTY:Easy;
#METER:4;
#RADARVALUES:0.356900,0.527846,0.653402,0.076871,0.000000,138.000000,51.000000,6.000000,0.000000,0.000000,0.000000,0.000000,0.000000,0.356900,0.527846,0.653402,0.076871,0.000000,138.000000,51.000000,6.000000,0.000000,0.000000,0.000000,0.000000,0.000000;
#CREDIT:;
#NOTES:
0000
0000
0000
0000
,
0000
0000
0000
0000
,
0000
0000
0000
0000
,
0000
0000
0010
0010
,
0000
1010
0000
1010
,
0000
1001
0000
1001
,
0000
0011
0000
0011
,
0000
0110
0000
0110
,
0000
1100
0000
1100
,
0000
1001
0000
1001
,
0000
0101
0000
0101
,
0000
0110
0100
0100
,
0000
0001
1000
0001
,
0100
0100
0000
0110
,
0000
0010
0010
1000
,
0001
0010
0000
0110
,
0000
0100
0010
0001
,
1000
0010
0000
1010
,
0000
1000
0100
0010
,
0001
0100
0000
0101
,
0000
0001
1000
0001
,
0010
0100
0000
0110
,
0000
0010
0001
0100
,
1000
0100
0000
1100
,
0000
1000
0100
0001
,
0010
0100
0000
0110
,
0000
0100
1000
0010
,
0100
0001
0000
0101
,
1001
0000
1001
0000
,
1000
0100
0000
0100
,
0010
0010
0010
0000
,
0001
0000
1001
1001
,
1000
0000
1000
0000
,
0010
1000
0000
0002
,
2003
3020
0230
0302
,
2003
0000
0001
3001
,
1000
0100
1000
0100
,
0010
0100
0010
0100
,
1000
0001
1000
0001
,
0100
0100
0010
0010
,
1000
0010
1000
0010
,
0100
0010
0100
0010
,
1010
1010
1010
1010
,
1001
1001
1001
1001
,
0000
0011
0000
0011
,
0000
0110
0000
0110
,
0000
1100
0000
1100
,
0000
1001
0000
1001
,
0000
0101
0000
0101
,
0000
0110
0000
0110
,
1001
0000
1001
0000
,
0110
0000
0110
0000
;

//---------------dance-single - ----------------
#NOTEDATA:;
#CHARTNAME:;
#STEPSTYPE:dance-single;
#DESCRIPTION:;
#CHARTSTYLE:;
#DIFFICULTY:Hard;
#METER:9;
#RADARVALUES:0.750406,0.661410,0.679026,0.076871,0.166553,351.000000,53.000000,6.000000,0.000000,0.000000,0.000000,0.000000,0.000000,0.750406,0.661410,0.679026,0.076871,0.166553,351.000000,53.000000,6.000000,0.000000,0.000000,0.000000,0.000000,0.000000;
#CREDIT:;
#NOTES:
// measure 0
0000
0000
0000
0000
,  // measure 1
0000
0000
0000
0000
,  // measure 2
0000
0000
0000
0000
,  // measure 3
0000
0000
0000
0000
0000
0000
1000
0001
1000
0000
0010
0000
0110
0000
0000
0000
,  // measure 4
0100
0100
0101
0000
0010
0010
0110
0000
,  // measure 5
0100
0000
1000
0100
1000
0000
0010
0000
0100
0010
0100
0000
0101
0000
0101
0000
,  // measure 6
0001
1000
1001
0000
1000
0100
1100
0000
,  // measure 7
0100
0000
0010
0100
0010
0000
0001
0000
0100
0001
0100
0000
0110
0000
0110
0000
,  // measure 8
0010
0010
1010
0000
1000
0001
1001
0000
,  // measure 9
0001
0000
0010
0001
0010
0000
0100
0000
0010
0001
0010
0000
0110
0000
0110
0000
,  // measure 10
0100
0100
1100
0000
1000
1000
1001
0000
,  // measure 11
0001
0000
0001
0000
0100
0000
0010
0100
0001
0000
1000
0000
1001
0000
1001
0000
,  // measure 12
1000
0000
0010
0100
0010
0000
1000
0010
,  // measure 13
0001
0000
0010
0000
0100
0000
0000
0000
0010
1000
0010
0000
1000
0000
0001
0000
,  // measure 14
0010
0000
0100
0010
0100
0000
0010
0001
,  // measure 15
0100
0000
0010
0000
0100
0000
0000
0000
0001
0100
0010
0000
1000
0000
0001
0000
,  // measure 16
1000
0000
0001
1000
0100
0010
0100
0001
,  // measure 17
1000
0000
0010
0000
0001
0000
0000
0000
0100
0010
1000
0000
0001
0000
0010
0000
,  // measure 18
0100
0010
0010
0001
0001
1000
1000
0010
,  // measure 19
1000
0000
0001
0000
1000
0000
0000
0000
0001
0010
0100
0000
0010
0000
0001
0000
,  // measure 20
0100
0010
0100
0010
1000
0001
1000
0001
,  // measure 21
0010
0000
0001
0000
0010
0000
0001
0000
1000
0100
1000
0000
0100
0000
1000
0010
,  // measure 22
0100
0000
0010
0010
0100
0001
0010
0100
,  // measure 23
1000
0010
0001
0010
1000
0100
0001
0100
,  // measure 24
0010
0001
0010
0001
1000
0010
1000
0010
,  // measure 25
1000
0000
0001
0000
0010
0000
0000
0000
0100
0010
0001
0000
0100
0000
0010
0000
,  // measure 26
0100
0001
0010
0100
0001
1000
0010
0100
,  // measure 27
1000
0000
0100
0000
0110
0000
0000
0000
0010
0001
0100
0000
0010
0000
1000
0000
,  // measure 28
1010
1010
0000
0000
1001
0000
0001
0010
,  // measure 29
0100
0001
0100
0000
1000
0100
1000
0000
,  // measure 30
0100
0110
1001
0110
,  // measure 31
0010
0001
0000
0100
0010
1000
0010
1000
,  // measure 32
1010
1010
0000
0000
1001
0000
0001
0000
,  // measure 33
0010
0100
0010
0000
0001
0020
0130
0200
,  // measure 34
1300
2000
3001
0002
0103
0200
0310
0020
,  // measure 35
1030
0000
0000
0000
0010
0000
0100
0000
0001
0010
0100
0000
0010
0000
0001
0000
,  // measure 36
0100
0010
0100
0010
1000
0001
1001
0000
,  // measure 37
0001
0010
0001
0010
0100
1000
1100
0000
,  // measure 38
1000
0001
1000
0001
0100
0010
0110
0000
,  // measure 39
0010
0010
1000
0001
1000
0000
1001
0000
,  // measure 40
0001
0100
0001
0100
0010
1000
1010
0000
,  // measure 41
1000
0001
1000
0001
0100
0010
0110
0000
,  // measure 42
1010
0011
1010
0011
,  // measure 43
1000
0100
0000
0000
0101
0000
0000
0000
1000
0100
0000
0000
0001
0000
0100
0000
,  // measure 44
0010
0000
0010
0000
1010
0000
0000
0000
1000
0000
0001
1000
0001
0000
0010
0000
,  // measure 45
0100
0000
1000
0000
1100
0000
0000
0000
1000
0001
0100
0000
0001
0000
0010
0000
,  // measure 46
0100
0000
0010
0000
0110
0000
0000
0000
0010
0000
0001
0010
0100
0000
1000
0000
,  // measure 47
0001
0000
1000
0000
1001
0000
0000
0000
1000
0010
1000
0000
1010
0000
1010
0000
,  // measure 48
0010
0000
0010
0000
0110
0000
0000
0000
0100
0000
0001
1000
0001
0000
0010
0000
,  // measure 49
0100
0000
1000
0001
1000
0000
0010
0000
0100
0010
1000
0000
0100
0000
0010
0000
,  // measure 50
0110
0110
0000
0000
1001
1001
0000
0000
,  // measure 51
0110
0110
0000
0000
0101
0101
0000
0000
;

//---------------dance-single - ----------------
#NOTEDATA:;
#CHARTNAME:;
#STEPSTYPE:dance-single;
#DESCRIPTION:;
#CHARTSTYLE:;
#DIFFICULTY:Beginner;
#METER:1;
#RADARVALUES:0.095,0.098,0.000,0.000,0.000,52.000,0.000,0.000,0.000,0.000,0.000,0.000,0.000,0.095,0.098,0.000,0.000,0.000,52.000,0.000,0.000,0.000,0.000,0.000,0.000,0.000;
#CREDIT:;
#NOTES:
0000
0000
0000
0000
,
0000
0000
0000
0000
,
0000
0000
0000
0000
,
0000
0000
0000
0000
,
0001
0000
0000
0000
,
0010
0000
0000
0000
,
0100
0000
0000
0000
,
1000
0000
0000
0000
,
0010
0000
0000
0000
,
1000
0000
0000
0000
,
0001
0000
0000
0000
,
0100
0000
0000
0000
,
0010
0000
0000
0000
,
1000
0000
0000
0000
,
0100
0000
0000
0000
,
1000
0000
0000
0000
,
0001
0000
0000
0000
,
0100
0000
0000
0000
,
0010
0000
0000
0000
,
0100
0000
0000
0000
,
0001
0000
0000
0000
,
1000
0000
0000
0000
,
0100
0000
0000
0000
,
0010
0000
0000
0000
,
0001
0000
0000
0000
,
1000
0000
0000
0000
,
0010
0000
0000
0000
,
0100
0000
0000
0000
,
0001
0000
0000
0000
,
0001
0000
0000
0000
,
0001
0000
0001
0000
,
0001
0000
0000
0000
,
1000
0000
0000
0000
,
1000
0000
0000
0000
,
1000
0000
1000
0000
,
1000
0000
0000
0000
,
0010
0000
0000
0000
,
0100
0000
0000
0000
,
0010
0000
0000
0000
,
0100
0000
0100
0000
,
0100
0000
0000
0000
,
0001
0000
0000
0000
,
0100
0000
0100
0000
,
0100
0000
0000
0000
,
0010
0000
0000
0000
,
1000
0000
0000
0000
,
0001
0000
0000
0000
,
0100
0000
0000
0000
,
0001
0000
0000
0000
,
0010
0000
0000
0000
,
0100
0000
0000
0000
,
1000
0000
0000
0000
;

//---------------dance-single - ----------------
#NOTEDATA:;
#CHARTNAME:;
#STEPSTYPE:dance-single;
#DESCRIPTION:;
#CHARTSTYLE:;
#DIFFICULTY:Medium;
#METER:7;
#RADARVALUES:0.439,0.529,0.179,0.013,0.000,225.000,14.000,1.000,0.000,0.000,0.000,0.000,0.000,0.439,0.529,0.179,0.013,0.000,225.000,14.000,1.000,0.000,0.000,0.000,0.000,0.000;
#CREDIT:;
#NOTES:
// measure 0
0000
0000
0000
0000
,  // measure 1
0000
0000
0000
0000
,  // measure 2
0000
0000
0000
0000
,  // measure 3
0000
0000
0000
0000
,  // measure 4
0010
1000
0100
1000
,  // measure 5
0001
0000
0100
0000
0010
0100
0001
0000
,  // measure 6
0010
0100
1000
0001
,  // measure 7
1000
0000
0100
0000
0001
0100
1000
0000
,  // measure 8
0010
0100
0001
0100
,  // measure 9
0010
0000
1000
0000
0001
0010
1000
0000
,  // measure 10
0001
0100
1000
0010
,  // measure 11
0001
0000
0010
0000
1000
0100
0001
0000
,  // measure 12
1000
0010
0001
0100
,  // measure 13
0010
0000
1000
0000
0100
1000
0001
0000
,  // measure 14
0100
0010
1000
0100
,  // measure 15
0010
0000
0100
0000
1000
0001
0100
0000
,  // measure 16
0010
1000
0001
0010
,  // measure 17
0100
0000
1000
0000
0001
0100
0010
0000
,  // measure 18
1000
0100
0001
0100
,  // measure 19
1000
0000
0010
0000
0100
0001
1000
0000
,  // measure 20
0100
0010
0100
1000
,  // measure 21
0010
0000
0100
0000
0001
1000
0100
0000
,  // measure 22
1000
0000
0010
0000
0100
0001
0010
0000
,  // measure 23
0100
0000
1000
0000
0001
0100
0010
0000
,  // measure 24
0100
0001
1000
0100
,  // measure 25
1000
0000
0010
0000
0100
0001
0010
0000
,  // measure 26
0100
0000
1000
0000
0001
1000
0100
0000
,  // measure 27
0010
0000
0001
0000
1000
0010
0100
0000
,  // measure 28
0001
0010
0000
0000
0110
0000
0000
0000
,  // measure 29
0100
1000
0001
0000
0100
0000
0010
0000
,  // measure 30
1000
0001
0010
0000
0100
1000
0001
0000
,  // measure 31
0100
0010
1000
0000
0001
0000
0100
0000
,  // measure 32
0010
0100
0000
0000
1001
0000
0000
0000
,  // measure 33
0100
0010
0001
0000
1000
0000
0010
0000
,  // measure 34
0100
0001
0100
0010
,  // measure 35
2000
0010
0100
3001
,  // measure 36
0000
1000
0100
1000
0001
0100
0010
0000
,  // measure 37
0000
0100
0001
0010
0100
1000
0001
0000
,  // measure 38
0000
1000
0100
0010
0001
1000
0010
0000
,  // measure 39
0110
1001
0110
1001
,  // measure 40
0000
0001
0100
1000
0001
0010
1000
0000
,  // measure 41
0000
0001
0010
1000
0001
0100
1000
0000
,  // measure 42
1001
0110
0011
0011
,  // measure 43
1100
1100
1001
0110
,  // measure 44
0010
0000
1000
0000
0100
1000
0001
0000
,  // measure 45
0100
0000
0010
0000
0100
0001
0010
0000
,  // measure 46
0100
0000
1000
0000
0010
0100
0001
0000
,  // measure 47
1000
0000
0100
0000
0010
0001
1000
0000
,  // measure 48
0010
0000
0100
0000
1000
0100
0001
0000
,  // measure 49
0010
0000
0100
0000
1000
0001
0100
0000
,  // measure 50
0010
0010
0000
0000
1000
1000
0000
0000
,  // measure 51
0001
0001
0000
0000
0100
0100
0000
0000
;
