#TITLE:WACKY WACKY O!;
#SUBTITLE:;
#ARTIST:SCREAM TEAM;
#TITLETRANSLIT:;
#SUBTITLETRANSLIT:;
#ARTISTTRANSLIT:;
#GENRE:;
#CREDIT:;
#BANNER:WACKY WACKY O!.png;
#BACKGROUND:WACKY WACKY O!-bg.png;
#LYRICSPATH:;
#CDTITLE:;
#MUSIC:WACKY WACKY O!.mp3;
#OFFSET:0.080;
#SAMPLESTART:64.413;
#SAMPLELENGTH:14.700;
#SELECTABLE:YES;
#BPMS:0.000=159.000
;
#STOPS:
;
#BGCHANGES:;
#KEYSOUNDS:;
#ATTACKS:;

//---------------dance-single - ----------------
#NOTES:
     dance-single:
     :
     Hard:
     7:
     0.431,0.505,0.355,0.480,0.048,227.000,37.000,50.000,0.000,0.000,0.000,0.431,0.505,0.355,0.480,0.048,227.000,37.000,50.000,0.000,0.000,0.000: // measure 0
0000
0000
0000
0000
,  // measure 1
0000
0000
0000
0000
,  // measure 2
0000
0000
0000
0000
,  // measure 3
0000
0000
0000
0000
,  // measure 4
0000
0000
0000
0000
,  // measure 5
0000
0000
0000
0000
,  // measure 6
0000
0000
0000
0000
,  // measure 7
0000
0000
0000
0000
,  // measure 8
0000
0000
0000
0000
,  // measure 9
0000
0000
0000
0000
,  // measure 10
0000
0000
0000
2010
,  // measure 11
3001
0012
1003
1100
,  // measure 12
0101
0011
1010
2100
,  // measure 13
3001
0102
1003
1010
,  // measure 14
0011
0101
1100
2000
,  // measure 15
0000
0000
3000
0001
0100
1000
0100
0000
,  // measure 16
0000
0000
0000
0001
0010
0100
2000
0000
,  // measure 17
3020
0032
0203
1300
,  // measure 18
1100
0000
0000
0000
1000
0000
0010
0000
1000
0000
0010
0000
1000
0000
0000
0100
,  // measure 19
0000
0000
0001
0000
0000
0100
0000
0000
1000
0000
0010
0000
0100
0000
0000
0000
,  // measure 20
0000
0000
0000
0000
0000
0000
0001
0000
0010
0000
0001
0000
0010
0000
0000
1000
,  // measure 21
0000
0000
0010
0000
0000
0001
0000
0000
0100
0000
0010
0000
1000
0000
0000
0000
,  // measure 22
0000
0000
0000
0100
0001
0010
1000
0000
,  // measure 23
0000
0000
0000
0010
0001
0100
1000
0000
,  // measure 24
0000
0000
0000
0010
0100
0001
0020
0000
,  // measure 25
2030
3200
0302
1003
,  // measure 26
0000
0000
0000
0000
,  // measure 27
0001
0100
1000
0100
,  // measure 28
0001
0000
1000
0100
0000
1000
0100
0010
,  // measure 29
0001
0000
0000
0000
0100
0000
0000
0100
0000
0000
0010
0000
2000
0000
0000
0000
,  // measure 30
3200
0320
0032
0003
,  // measure 31
1000
0100
0001
0100
,  // measure 32
1000
0000
0001
0100
0000
0001
0100
0010
,  // measure 33
1000
0000
0000
0000
0100
0000
0000
0100
0000
0000
0010
0000
0002
0000
0000
0000
,  // measure 34
0000
1000
1003
0000
0000
0000
0000
0001
,  // measure 35
0100
1000
0200
0000
0301
0000
0000
1000
,  // measure 36
0100
0001
0200
0000
1300
0000
0002
0000
,  // measure 37
0000
0203
0000
2300
,  // measure 38
0000
0000
3020
0000
0000
0000
0030
0001
,  // measure 39
0100
1000
0200
0000
0301
0000
0000
1000
,  // measure 40
0100
0001
0100
1000
0010
0100
0001
0000
,  // measure 41
0020
0000
0100
0130
0000
0000
2000
0000
,  // measure 42
3002
0000
1000
1003
0000
0000
0012
0000
,  // measure 43
1003
2010
3001
0101
,  // measure 44
1100
1010
0011
0102
,  // measure 45
1003
2100
3001
0011
,  // measure 46
1010
1100
0101
0002
,  // measure 47
0000
0000
0003
1000
0100
0001
0100
0000
,  // measure 48
0000
0000
0000
1000
0010
0100
0002
0000
,  // measure 49
0023
2030
3200
0301
,  // measure 50
0000
0000
0000
2100
,  // measure 51
3001
0102
1003
1010
,  // measure 52
0011
0101
1100
2010
,  // measure 53
3001
0012
1003
1100
,  // measure 54
0101
0011
1010
2000
,  // measure 55
0000
0000
3000
0001
0010
1000
0010
0000
,  // measure 56
0000
0000
0000
0001
0100
0010
2000
0000
,  // measure 57
3200
0302
0023
1030
,  // measure 58
0000
0000
0000
0000
0000
0000
0000
0000
0000
0000
0000
0000
0001
0000
0000
0100
,  // measure 59
0000
0000
1000
0000
0000
0100
0000
0000
0001
0000
0010
0000
0100
0000
0000
0000
,  // measure 60
0000
0000
0000
0000
0000
0000
1000
0000
0010
0000
1000
0000
0010
0000
0000
0001
,  // measure 61
0000
0000
0010
0000
0000
1000
0000
0000
0100
0000
0010
0000
0001
0000
0000
0000
,  // measure 62
0000
0000
0000
0100
1000
0010
0001
0000
,  // measure 63
0000
0000
0000
0010
1000
0100
0001
0000
,  // measure 64
0000
0000
0000
0010
0100
1000
0020
0000
,  // measure 65
0032
0203
2300
3001
;

//---------------dance-single - ----------------
#NOTES:
     dance-single:
     :
     Challenge:
     9:
     0.479,0.505,0.183,0.557,0.250,272.000,19.000,58.000,0.000,18.000,0.000,0.479,0.505,0.183,0.557,0.250,272.000,19.000,58.000,0.000,18.000,0.000:
0000
0000
0000
0000
,
0000
0000
0000
0000
,
0000
0000
0000
0000
,
0000
0000
0000
0000
,
0000
0000
0000
0000
,
0000
0000
0000
0000
,
0000
0000
0000
0000
,
0000
0000
0000
0000
,
0000
0000
0000
0000
,
0000
0000
0000
0000
,
0000
0000
0000
2100
,
3001
0102
1003
2002
,
0100
0100
3103
2010
,
3001
0012
1003
2002
,
0010
0010
3013
0002
,
0000
0000
0003
1000
0100
0001
0100
0000
,
0000
0000
0000
1000
0010
0100
0002
0000
,
0023
2030
3200
0301
,
0101
0000
0000
0000
0001
0000
0010
0000
0001
0000
0010
0000
0001
0000
0000
0100
,
0000
0000
1000
0000
0000
0100
0000
0000
0001
1000
0001
1000
0001
0000
0000
0000
,
0000
0000
0000
0000
0000
0000
1000
0100
0010
0001
0100
0010
1000
0000
0000
0100
,
0000
0000
0001
0000
0000
0100
0000
0000
1000
0001
1000
0001
1000
0000
0000
0000
,
0000
0000
0000
0000
0000
0000
0001
0010
0100
1000
0010
0100
0001
0000
0000
0000
,
0000
0000
0000
0000
0000
0000
1000
0010
0100
0001
0010
0100
1000
0000
0000
0000
,
0000
0000
0000
0000
0000
0000
1000
0001
1000
0001
1000
0001
2000
0000
0000
0000
,
3020
0032
0203
1300
,
0000
0000
0000
0000
,
0001
0000
0000
0001
0100
0000
0000
0100
1000
0000
0000
1000
0100
0000
0000
0100
,
0001
0000
0000
0001
1000
0000
0100
0000
0000
0000
1000
0000
0100
0000
0010
0000
,
0001
0000
0000
0000
0100
0000
0000
0100
0000
0000
0010
0000
1000
0000
0100
0000
,
1000
0010
1000
0001
1000
0000
0000
0000
,
1000
0000
0000
1000
0100
0000
0000
0100
0001
0000
0000
0001
0100
0000
0000
0100
,
1000
0000
0000
1000
0001
0000
0100
0000
0000
0000
0001
0000
0100
0000
0010
0000
,
1000
0000
0000
0000
0100
0000
0000
0100
0000
0000
0010
0000
0002
0000
0000
0000
,
0000
1000
1003
0000
0000
0000
0000
0001
,
0100
1000
0200
0000
0301
0000
0000
1000
,
0100
0001
0200
0000
1300
0000
0002
0000
,
0000
0203
0000
2300
,
0000
0000
3020
0000
0000
0000
0030
0001
,
0100
1000
0200
0000
0301
0000
0000
1000
,
0100
0001
0100
1000
0010
0100
0001
0000
,
0020
0000
0100
0130
0000
0000
2000
0000
,
3002
0000
1000
1003
0000
0000
2010
0000
,
3001
0012
1003
2002
,
0010
0010
3013
0102
,
1003
2100
3001
2002
,
0100
0100
3103
2000
,
0000
0000
3000
0001
0100
1000
0100
0000
,
0000
0000
0000
0001
0010
0100
2000
0000
,
3020
0032
0203
1300
,
0000
0000
0000
2010
,
3001
0012
1003
2002
,
0010
0010
3013
0102
,
1003
2100
3001
2002
,
0100
0100
3103
2000
,
0000
0000
3000
0001
0100
1000
0100
0000
,
0000
0000
0000
0001
0010
0100
2000
0000
,
3020
0032
0203
1300
,
0000
0000
0000
0000
0000
0000
0000
0000
0000
0000
0000
0000
1000
0000
0000
0100
,
0000
0000
0001
0000
0000
0100
0000
0000
1000
0001
1000
0001
1000
0000
0000
0000
,
0000
0000
0000
0000
0000
0000
0001
0100
0010
1000
0100
0010
0001
0000
0000
0100
,
0000
0000
1000
0000
0000
0100
0000
0000
0001
1000
0001
1000
0001
0000
0000
0000
,
0000
0000
0000
0000
0000
0000
1000
0010
0100
0001
0010
0100
1000
0000
0000
0000
,
0000
0000
0000
0000
0000
0000
0001
0010
0100
1000
0010
0100
0001
0000
0000
0000
,
0000
0000
0000
0000
0000
0000
0001
1000
0001
1000
0001
1000
0002
0000
0000
0000
,
0203
2300
3020
0031
;

//---------------dance-single - ----------------
#NOTES:
     dance-single:
     :
     Medium:
     5:
     0.401,0.442,0.413,0.355,0.010,212.000,43.000,37.000,0.000,0.000,0.000,0.401,0.442,0.413,0.355,0.010,212.000,43.000,37.000,0.000,0.000,0.000:
0000
0000
0000
0000
,
0000
0000
0000
0000
,
0000
0000
0000
0000
,
0000
0000
0000
0000
,
0000
0000
0000
0000
,
0000
0000
0000
0000
,
0000
0000
0000
0000
,
0000
0000
0000
0000
,
0000
0000
0000
0000
,
0000
0000
0000
0000
,
0000
0000
0000
1010
,
0001
1010
0001
1010
,
0101
1010
0101
0011
,
1000
0011
1000
0011
,
1100
0011
1100
2000
,
0000
0000
3000
0001
0100
1000
0100
0000
,
0000
0000
0000
0001
0010
0100
2000
0000
,
3020
0032
0203
1300
,
1010
0000
1000
0100
1000
0100
1000
0000
,
0010
0000
0100
0000
0001
1000
0001
0000
,
0000
0000
0000
1000
0001
1000
0001
0000
,
0100
0000
0010
0000
1000
0001
1000
0000
,
0000
0000
0000
0010
0100
0001
1000
0000
,
0000
0000
0000
0100
0010
0001
1000
0000
,
0000
0000
0000
0010
0100
0001
0020
0000
,
2030
3200
0302
1003
,
0000
0000
0000
0000
,
0001
0100
1000
0100
,
0001
0000
2000
0000
0000
0000
3100
0010
,
0001
0000
0000
0000
0100
0000
0000
0100
0000
0000
0010
0000
2000
0000
0000
0000
,
3200
0320
0032
0003
,
1000
0100
0001
0100
,
1000
0000
0002
0000
0000
0000
0013
0100
,
1000
0000
0000
0000
0010
0000
0000
0010
0000
0000
0100
0000
0002
0000
0000
0000
,
0000
1000
1003
0000
0000
0000
0000
0001
,
0100
0000
0110
0000
1001
0000
0000
1000
,
0100
0110
1001
0002
,
0000
0203
0000
2300
,
0000
0000
3020
0000
0000
0000
0030
0001
,
0100
0110
1001
0000
,
1000
0010
0100
0001
,
2000
0000
0001
3001
0000
0000
2000
0000
,
3002
0000
1000
1003
0000
0000
0011
0000
,
1000
0011
1000
0011
,
1100
0011
1100
1010
,
0001
1010
0001
1010
,
0101
1010
0101
0002
,
0000
0000
0003
1000
0100
0001
0100
0000
,
0000
0000
0000
1000
0010
0100
0002
0000
,
0023
2030
3200
0301
,
0000
0000
0000
0101
,
1000
0101
1000
0101
,
1010
0101
1010
1100
,
0001
1100
0001
1100
,
0011
1100
0011
0002
,
0000
0000
0003
1000
0100
0001
0100
0000
,
0000
0000
0000
1000
0010
0100
0002
0000
,
0023
2030
3200
0301
,
0000
0000
0000
0001
,
0100
0000
0010
0000
1000
0001
1000
0000
,
0000
0000
0000
0001
1000
0001
1000
0000
,
0010
0000
0100
0000
0001
1000
0001
0000
,
0000
0000
0000
0010
0100
1000
0001
0000
,
0000
0000
0000
0100
0010
1000
0001
0000
,
0000
0000
0000
0010
0100
1000
0020
0000
,
0032
0203
2300
3001
;

//---------------dance-single - ----------------
#NOTES:
     dance-single:
     :
     Easy:
     3:
     0.335,0.379,0.346,0.327,0.000,174.000,36.000,34.000,0.000,0.000,0.000,0.335,0.379,0.346,0.327,0.000,174.000,36.000,34.000,0.000,0.000,0.000:
0000
0000
0000
0000
,
0000
0000
0000
0000
,
0000
0000
0000
0000
,
0000
0000
0000
0000
,
0000
0000
0000
0000
,
0000
0000
0000
0000
,
0000
0000
0000
0000
,
0000
0000
0000
0000
,
0000
0000
0000
0000
,
0000
0000
0000
0000
,
0000
0000
0000
0001
,
1000
0001
1000
1001
,
0110
1001
0110
0010
,
0100
0010
0100
0110
,
1001
0110
1001
1000
,
0000
0000
0100
0010
,
0000
0000
0001
0200
,
2300
3020
0032
1003
,
1001
0110
1001
0001
,
0100
0010
1000
1001
,
0000
0000
0000
0001
1000
0001
1000
0000
,
0010
0100
0001
1001
,
0000
0000
0001
0100
,
0000
0000
1000
0010
,
0000
0000
0001
0020
,
2030
3200
0302
1003
,
0000
0000
0000
0000
,
0001
0100
1000
0100
,
0001
2000
0000
3010
,
0100
0001
1001
2000
,
3020
0230
0302
0003
,
1000
0100
0001
0100
,
1000
0002
0000
0013
,
0100
1000
1001
0002
,
0000
1003
0000
0000
,
1000
0001
1001
0000
,
0001
1000
1001
0002
,
0000
0203
0000
2300
,
0000
3020
0000
0030
,
0001
1000
1001
0000
,
1000
0001
1000
0001
,
2000
0000
0001
3001
0000
0000
2000
0000
,
3002
0000
1000
1003
0000
0000
0001
0000
,
1000
0001
1000
1001
,
0110
1001
0110
0010
,
0100
0010
0100
0110
,
1001
0110
1001
0001
,
0000
0000
0100
0010
,
0000
0000
1000
0200
,
0302
0023
2030
3001
,
0000
0000
0000
0001
,
1000
0001
1000
1001
,
0110
1001
0110
0010
,
0100
0010
0100
0110
,
1001
0110
1001
1000
,
0000
0000
0010
0100
,
0000
0000
0001
0200
,
2300
3020
0032
1003
,
0000
0000
0000
0001
,
0100
0010
1000
1001
,
0000
0000
0000
0001
1000
0001
1000
0000
,
0010
0100
0001
1001
,
0000
0000
1000
0100
,
0000
0000
0001
0010
,
0000
0000
1000
0020
,
0032
0203
2300
3001
;
