#TITLE:The pants is mokou, the human body is just a host;
#SUBTITLE:;
#ARTIST:2hushit;
#TITLETRANSLIT:;
#SUBTITLETRANSLIT:;
#ARTISTTRANSLIT:;
#GENRE:;
#CREDIT:;
#BANNER:[You Won't See This in DDR III] - The pants is mokou, the human body is just a host.png;
#BACKGROUND:[You Won't See This in DDR III] - The pants is mokou, the human body is just a host - bg.png;
#LYRICSPATH:;
#CDTITLE:chen.png;
#MUSIC:[You Won't See This in DDR III] - The pants is mokou, the human body is just a host.ogg;
#OFFSET:-0.005;
#SAMPLESTART:56.049;
#SAMPLELENGTH:17.944;
#SELECTABLE:YES;
#BPMS:0.000=140.000;
#STOPS:;
#BGCHANGES:;
#KEYSOUNDS:;

//---------------dance-single - C. Yakumo----------------
#NOTES:
     dance-single:
     C. Yakumo:
     Beginner:
     3:
     0.163,0.116,0.000,0.000,0.000:
0000
0000
0000
0000
,
0000
0000
0000
0000
,
1000
0000
0001
0000
,
0100
0000
0010
0000
,
1000
0000
0001
0000
,
0010
0000
0001
0000
,
0010
0000
0100
0000
,
1000
0000
0001
0000
,
0100
0000
0001
0000
,
0010
0000
0100
0000
,
1000
0000
0010
0000
,
1000
0000
0100
0000
,
0010
0000
0001
0000
,
0100
0000
0001
0000
,
1000
0000
0010
0000
,
1000
0000
0100
0000
,
0010
0000
1000
0000
,
0100
0000
0001
0000
,
0010
0000
0100
0000
,
1000
0000
0001
0000
,
0100
0000
0001
0000
,
1000
0000
0010
0000
,
1000
0000
0001
0000
,
1000
0000
0010
0000
,
0100
0000
0001
0000
,
0010
0000
0100
0000
,
1000
0000
0100
0000
,
0010
0000
0100
0000
,
1000
0000
0001
0000
,
0010
0000
1000
0000
,
0100
0000
0010
0000
,
1000
0000
0001
0000
,
0010
0000
0100
0000
,
1000
0000
0001
0000
,
0010
0000
0001
0000
,
0100
0000
0010
0000
,
1000
0000
0001
0000
,
1000
0000
0100
0000
,
0010
0000
0100
0000
,
1000
0000
0001
0000
,
0100
0000
0001
0000
,
0010
0000
0100
0000
,
1000
0000
0100
0000
,
0010
0000
0001
0000
,
1000
0000
0010
0000
,
0100
0000
1000
0000
,
0100
0000
0010
0000
,
1000
0000
0001
0000
,
1000
0000
0100
0000
,
0010
0000
0100
0000
,
1000
0000
0010
0000
,
0100
0000
0001
0000
,
0010
0000
0100
0000
,
0010
0000
0001
0000
,
1000
0000
0100
0000
,
0010
0000
0001
0000
,
0100
0000
0010
0000
,
1000
0000
0001
0000
,
0010
0000
1000
0000
,
0001
0000
1000
0000
,
0100
0000
0001
0000
,
0010
0000
0100
0000
,
1000
0000
0010
0000
,
1000
0000
0100
0000
,
0010
0000
0001
0000
,
0100
0000
0010
0000
,
1000
0000
0001
0000
,
0010
0000
0100
0000
,
1000
0000
0001
0000
,
0100
0000
0010
0000
,
1000
0000
0100
0000
,
0010
0000
0001
0000
,
0010
0000
1000
0000
,
0001
0000
0100
0000
,
1000
0000
0001
0000
,
0010
0000
0000
0000
;

//---------------dance-single - C. Yakumo----------------
#NOTES:
     dance-single:
     C. Yakumo:
     Easy:
     7:
     0.406,0.292,0.000,0.566,0.000:
0000
0000
0000
0000
,
0000
0000
0000
0000
,
0001
0010
0100
2000
,
3001
0100
0010
0200
,
0301
1000
0001
0200
,
0310
1000
0010
0200
,
0301
1000
0100
2000
,
3001
0010
0001
2000
,
3100
1000
0010
0200
,
0301
1000
0001
0200
,
0310
0100
0001
2000
,
3001
0010
0100
0020
,
0031
1000
0100
2000
,
3001
0010
0001
0200
,
0310
1000
0001
0200
,
0310
0100
0001
2000
,
3001
0010
0100
0020
,
0031
1000
0100
2000
,
3001
0100
0001
2000
,
3010
1000
0001
0200
,
0301
1000
0010
0200
,
0310
1000
0001
2000
,
3100
0010
0100
2000
,
3001
1000
0100
0020
,
0031
1000
0010
0200
,
0310
1000
0001
2000
,
3010
0100
0001
0020
,
0130
0010
0001
2000
,
3001
1000
0010
0200
,
0301
1000
0001
0200
,
0310
0100
0001
2000
,
3001
0010
0100
0020
,
0031
1000
0100
0020
,
0031
0100
0010
0200
,
0301
1000
0001
0200
,
0301
0010
0100
2000
,
3100
0010
0001
2000
,
3001
0010
0001
0200
,
0310
1000
0010
0200
,
0301
1000
0001
2000
,
3100
0010
0001
2000
,
3100
1000
0001
0002
,
1003
0010
0100
0020
,
1030
0001
0100
0020
,
0130
0001
1000
0002
,
0013
0100
1000
0200
,
0310
0001
0010
0200
,
1300
0001
0100
0002
,
1003
0010
1000
0002
,
1003
0100
0010
0002
,
1003
0001
0010
0200
,
0310
0001
1000
0002
,
0103
0010
0100
0002
,
1003
0001
0100
0002
,
0013
0100
1000
0200
,
0310
0001
0010
0200
,
1300
0010
1000
0002
,
0103
0010
1000
0002
,
1003
0100
0010
0200
,
1300
0001
0010
0002
,
1003
0010
0100
0020
,
1030
0001
0100
0002
,
1003
0001
0010
0200
,
0310
0001
1000
0002
,
0013
0001
0100
0020
,
1030
0010
0100
0002
,
0103
0010
1000
0002
,
1003
0001
0010
0200
,
1300
0001
0010
0200
,
0310
0001
1000
0002
,
0103
0010
0100
0002
,
1003
0010
1000
0002
,
0103
0001
0010
0200
,
1300
0100
0010
0002
,
0013
0100
1000
0002
,
1003
0010
0000
0000
;

//---------------dance-single - C. Yakumo----------------
#NOTES:
     dance-single:
     C. Yakumo:
     Medium:
     9:
     0.650,0.467,0.000,0.124,0.000:
0000
0000
0000
0000
,
0000
0000
0000
0000
,
0001
1000
0010
1000
0001
0100
0020
0000
,
1030
0001
1000
0100
0010
0001
0020
0000
,
0130
1000
0001
0100
0010
0100
0002
0000
,
0013
0001
1000
0001
0010
0100
2000
0000
,
3001
0100
0001
0010
0100
1000
0020
0000
,
0130
0001
0100
0010
1000
0100
0020
0000
,
0130
1000
0001
1000
0010
0100
0002
0000
,
1003
0010
1000
0001
1000
0100
0020
0000
,
0130
1000
0001
1000
0001
0010
0200
0000
,
1300
0001
0100
0010
0100
0001
2000
0000
,
3100
0010
0100
1000
0001
0010
0200
0000
,
0310
0001
1000
0001
0100
0010
2000
0000
,
3001
0010
0001
0100
0010
1000
0200
0000
,
0310
0100
1000
0001
0100
0010
2000
0000
,
3100
0010
0100
1000
0001
0100
0020
0000
,
1030
0001
1000
0100
0010
0001
2000
0000
,
3001
0010
0100
1000
0001
0100
0001
1000
,
0010
0100
0010
1000
0001
1000
0100
0010
,
0001
0010
0100
1000
0100
0010
0001
1000
,
0010
1000
0001
0100
0001
1000
0010
1000
,
0001
1000
0100
0010
0001
0010
0100
1000
,
0100
0010
0001
0010
0100
1000
0001
0100
,
0001
1000
0010
0100
0010
1000
0001
1000
,
0100
0010
0001
0010
0100
1000
0100
0010
,
0001
1000
0010
1000
0001
0100
0001
1000
,
0010
0100
0001
0100
0010
1000
0100
1000
,
0001
0010
0001
1000
0100
1000
0010
0100
,
0001
0100
0010
1000
0001
0100
0001
1000
,
0001
0010
0100
0010
0001
1000
0100
0010
,
0001
1000
0100
0010
0001
0100
0010
0100
,
0001
1000
0010
0100
0010
1000
0100
0010
,
0100
1000
0001
1000
0100
0010
0100
1000
,
0001
1000
0001
0010
0100
0010
0001
1000
,
0100
1000
0001
0010
0100
1000
0010
1000
,
0001
0100
0001
1000
0010
1000
0001
0010
,
0100
0010
0001
1000
0001
0010
0100
1000
,
0001
0100
0001
1000
0010
1000
0001
0100
,
0001
1000
0100
1000
0001
0010
0001
1000
,
0100
0010
0001
0100
0010
1000
0001
1000
,
0010
0100
0001
1000
0001
1000
0100
0010
,
0100
1000
0001
1000
0100
0010
0001
0100
,
0001
1000
0010
0100
0001
1000
0010
1000
,
0100
0010
0100
1000
0001
1000
0100
0010
,
0001
1000
0010
0100
0010
1000
0001
1000
,
0010
1000
0100
0010
0100
1000
0001
1000
,
0100
0010
0001
0010
0100
1000
0001
0100
,
0001
1000
0010
0100
0010
1000
0001
1000
,
0001
0010
0100
1000
0001
1000
0100
0010
,
0100
1000
0001
0100
0001
1000
0010
1000
,
0001
0100
0001
0010
0100
1000
0100
0010
,
0001
1000
0001
0010
0100
1000
0010
1000
,
0001
0100
0001
1000
0001
0010
0100
0010
,
0001
1000
0100
0010
0001
1000
0100
1000
,
0010
0100
0001
0100
0010
1000
0010
1000
,
0100
0010
0001
0010
0100
1000
0001
1000
,
0100
1000
0010
0100
0001
0100
0010
1000
,
0001
0100
0010
1000
0100
1000
0001
0010
,
0001
1000
0100
1000
0001
0100
0001
1000
,
0010
1000
0001
0100
0001
0010
0100
1000
,
0001
0010
0100
0010
0001
1000
0100
1000
,
0010
0100
0010
1000
0001
1000
0010
0100
,
0001
0010
0001
1000
0100
1000
0001
0010
,
0001
0100
0010
1000
0010
0100
0001
0100
,
0010
1000
0010
0100
0001
1000
0100
1000
,
0001
0010
0001
1000
0100
0010
0100
1000
,
0001
1000
0010
0100
0010
1000
0001
1000
,
0010
1000
0100
0010
0100
1000
0001
0010
,
0100
1000
0100
0010
0001
0100
0010
1000
,
0001
1000
0010
0100
0001
1000
0001
0010
,
0100
1000
0100
0010
0001
1000
0010
1000
,
0001
0100
0001
1000
0010
1000
0001
1000
,
0100
0010
0100
1000
0001
0010
0001
1000
,
0010
1000
0001
0100
0001
1000
0001
0010
,
0100
0010
0001
0000
0000
0000
0000
0000
;

//---------------dance-single - C. Yakumo----------------
#NOTES:
     dance-single:
     C. Yakumo:
     Hard:
     12:
     1.000,0.816,0.000,0.062,1.000:
0000
0000
0000
0000
,
0000
0000
0000
0000
,
1000
0100
0010
0001
0010
0001
0100
0010
1000
0010
0100
0001
0020
0000
0000
0000
,
0031
1000
0100
0010
0001
0100
0001
1000
0010
0100
0001
1000
0200
0000
0000
0000
,
0310
0100
1000
0001
1000
0001
0010
0001
1000
0100
1000
0001
0200
0000
0000
0000
,
0310
1000
0010
0100
0010
1000
0001
0010
0100
0010
0001
1000
0200
0000
0000
0000
,
0310
0001
0100
0001
1000
0010
1000
0001
0100
0001
0010
0100
0020
0000
0000
0000
,
0031
0010
0001
1000
0010
0100
0010
1000
0001
1000
0010
1000
0002
0000
0000
0000
,
1003
0100
0010
0100
1000
0100
1000
0010
0100
0001
0100
0010
2000
0000
0000
0000
,
3001
1000
0100
0010
0100
1000
0001
1000
0100
0010
0001
0100
0020
0000
0000
0000
,
0130
0001
1000
0010
1000
0001
0010
0001
1000
0100
1000
0001
0400
0000
00M0
0000
,
1300
0010
0100
0001
1000
0001
1000
0100
0010
0100
1000
0001
0400
0000
00M0
0000
,
1300
0010
0100
0001
1000
0001
0100
0010
0100
0001
1000
0001
0040
0000
0M00
0000
,
1030
0100
0010
0100
1000
0001
0100
0001
1000
0010
1000
0001
0040
0000
0M00
0000
,
0130
0001
0010
0001
1000
0001
0100
0010
0100
0001
1000
0001
0400
0000
00M0
0000
,
1300
0001
0100
0010
1000
0001
1000
0100
0010
0001
0100
0010
0400
0000
000M
0000
,
0310
0001
1000
0010
1000
0001
0100
0001
0010
0100
0010
0001
0400
0000
00M0
0000
,
1300
0010
0100
0010
1000
0001
1000
0010
0100
0001
0100
0010
0400
0000
00M0
0000
,
1300
0001
0010
0001
0100
0010
1000
0010
0100
0001
0100
0010
0400
0000
000M
0000
,
0310
0001
0010
0100
1000
0100
0010
0001
1000
0010
0100
0001
0400
0000
000M
0000
,
1300
0010
1000
0100
0010
0100
1000
0001
1000
0100
1000
0010
0400
0000
M000
0000
,
0310
0001
1000
0100
0010
0100
1000
0001
1000
0100
1000
0010
0400
0000
00M0
0000
,
0310
0001
0100
0001
1000
0100
0010
0001
0010
0100
1000
0001
0040
0000
0M00
0000
,
1030
0001
0100
0001
1000
0010
1000
0100
0010
0001
1000
0100
0040
0000
000M
0000
,
0130
0001
1000
0010
0100
0001
0100
0010
1000
0001
0010
0100
0040
0000
M000
0000
,
0130
0010
1000
0001
0100
0001
1000
0010
0100
0010
1000
0100
0040
0000
000M
0000
,
1030
0100
1000
0010
0100
0010
1000
0001
1000
0010
0100
0010
0400
0000
000M
0000
,
0310
0100
0010
0001
1000
0100
1000
0001
0010
0001
0100
0010
0400
0000
000M
0000
,
1300
0010
0100
0001
1000
0001
0010
0100
0010
0001
1000
0100
0040
0000
000M
0000
,
0130
0010
1000
0001
0100
0001
1000
0001
0010
0100
0010
0001
0400
0000
00M0
0000
,
0310
0001
1000
0100
1000
0010
0100
0010
1000
0001
1000
0010
0400
0000
000M
0000
,
0310
0100
0010
0001
1000
0001
0010
0100
1000
0001
0100
0001
0040
0000
0M00
0000
,
0130
0001
1000
0100
1000
0001
0010
0001
1000
0100
1000
0001
0400
0000
00M0
0000
,
1300
0010
0100
0001
1000
0010
1000
0001
0100
0010
1000
0001
0040
0000
000M
0000
,
1030
0100
1000
0001
0100
0001
1000
0010
0100
0010
1000
0001
0400
0000
00M0
0000
,
0310
0001
1000
0001
0010
0100
1000
0010
0100
0001
0100
0010
0400
0000
000M
0000
,
0310
0100
1000
0100
0010
0001
0010
0100
1000
0010
1000
0001
0040
0000
0M00
0000
,
1030
0001
0100
0001
0010
0100
0010
0001
1000
0001
1000
0010
0400
0000
000M
0000
,
1300
0010
0100
0001
1000
0100
0010
0100
1000
0001
1000
0100
0040
0000
M000
0000
,
1030
0001
0100
0010
0100
0001
0010
0001
1000
0100
1000
0001
0400
0000
00M0
0000
,
1300
0010
1000
0001
1000
0010
0100
0010
1000
0001
0100
0001
0040
0000
000M
0000
,
1030
0100
1000
0001
0010
0001
1000
0010
0100
0001
0100
0010
4000
0000
0MMM
0000
,
3001
0010
0001
1000
0100
0010
0100
1000
0001
0100
0001
1000
0400
0000
00M0
0000
,
0301
1000
0010
1000
0100
0010
0100
1000
0001
1000
0100
1000
0040
0000
0M00
0000
,
0031
1000
0001
1000
0100
0010
0001
1000
0100
1000
0001
0010
0400
0000
00M0
0000
,
0301
1000
0010
0100
0010
1000
0001
1000
0001
0010
0100
1000
0400
0000
00M0
0000
,
0301
0010
0001
0100
0010
0100
0001
1000
0010
1000
0001
0100
0040
0000
0M00
0000
,
0031
1000
0100
1000
0001
0010
0001
0100
0010
1000
0010
0100
0040
0000
0M00
0000
,
0130
1000
0001
1000
0100
0010
0001
0010
0001
0100
0010
0100
0040
0000
M000
0000
,
0031
0010
0100
1000
0100
0010
0001
0010
0100
1000
0001
0100
0040
0000
M000
0000
,
0031
0100
0001
0010
0100
1000
0001
0010
0100
1000
0001
1000
0400
0000
00M0
0000
,
0301
0010
0001
1000
0010
1000
0001
0010
0001
1000
0100
1000
0040
0000
0M00
0000
,
0130
1000
0001
0100
0010
1000
0001
1000
0010
0100
0001
0010
0400
0000
M000
0000
,
0301
0010
0001
0100
0010
0100
0001
1000
0001
1000
0100
0010
0400
0000
M000
0000
,
0301
0010
0100
1000
0001
1000
0010
0100
0001
1000
0001
0100
0040
0000
0M00
0000
,
0031
1000
0100
0010
0001
1000
0100
1000
0001
1000
0010
0100
0040
0000
M000
0000
,
0031
1000
0100
0010
0001
0010
0100
1000
0001
0010
0001
1000
0040
0000
0M00
0000
,
0031
0100
0001
1000
0001
0010
0100
0010
0001
1000
0100
0010
0400
0000
M000
0000
,
0301
0100
0010
1000
0001
0100
0010
0100
0001
0010
0100
1000
0040
0000
0M00
0000
,
0031
1000
0001
0100
0010
1000
0010
0100
0001
0010
0001
1000
0400
0000
00M0
0000
,
0301
1000
0010
1000
0001
0100
0001
1000
0010
1000
0001
0010
0400
0000
M000
0000
,
0301
1000
0010
1000
0001
0100
0010
0100
0001
1000
0010
1000
0400
0000
00M0
0000
,
0310
1000
0001
0010
0001
1000
0100
1000
0010
0100
0001
1000
0040
0000
000M
0000
,
0130
1000
0001
0100
0001
0010
0100
0010
0001
1000
0100
1000
0040
0000
0M00
0000
,
0031
1000
0001
0100
0010
1000
0100
0010
0001
0010
0100
1000
0040
0000
M000
0000
,
0031
0100
0010
1000
0001
1000
0010
0100
0001
1000
0010
1000
0400
0000
00M0
0000
,
0301
1000
0100
0010
0001
0100
0001
1000
0010
0100
0001
0100
0040
0000
M000
0000
,
0130
1000
0001
1000
0100
0010
0001
0010
0001
0100
0010
0100
0040
0000
M000
0000
,
0031
0100
0001
0010
0100
0010
0001
1000
0100
1000
0001
0010
0400
0000
00M0
0000
,
0301
0010
0100
1000
0001
0100
0010
1000
0100
1000
0001
0010
0400
0000
M000
0000
,
0310
1000
0010
0100
0010
1000
0001
0100
0001
0010
0100
1000
0400
0000
000M
0000
,
0310
1000
0001
0100
0010
0100
0001
1000
0001
0100
0001
0010
0400
0000
M000
0000
,
0301
0010
0100
1000
0001
1000
0010
0100
0010
1000
0001
0100
0040
0000
M000
0000
,
0130
1000
0100
0010
0001
1000
0001
0010
0100
0010
0001
1000
0040
0000
0M00
0000
,
0130
1000
0001
0100
0010
1000
0100
0010
0001
1000
0001
0010
0400
0000
M000
0000
,
0310
1000
0001
1000
0000
0000
0000
0000
0000
0000
0000
0000
0000
0000
0000
0000
;

//---------------dance-single - C. Yakumo----------------
#NOTES:
     dance-single:
     C. Yakumo:
     Challenge:
     15:
     1.000,1.000,0.000,0.000,1.000:
0000
0000
0000
0000
,
0000
0000
0000
0000
,
1000
0000
0000
0001
0000
0000
1000
0000
0000
0010
0000
0000
1000
0000
0000
0100
0000
0000
1000
0000
0000
0010
0000
0000
1000
0000
0000
0001
0000
0000
1000
0000
0000
0100
0000
0000
1000
0000
0001
0000
1000
0000
0001
0000
1000
0000
0001
0000
,
1000
0000
0000
0100
0000
0000
1000
0000
0000
0001
0000
0000
0010
0000
0000
0001
0000
0000
1000
0000
0000
0001
0000
0000
0010
0000
0000
0100
0000
0000
1000
0000
0000
0001
0000
0000
1000
0000
0010
0000
0100
0000
0001
0000
0100
0000
0010
0000
,
1000
0000
0000
0100
0000
0000
0010
0000
0000
0100
0000
0000
1000
0000
0000
0001
0000
0000
1000
0000
0000
0100
0000
0000
0010
0000
0000
0100
0000
0000
1000
0000
0000
0001
0000
0000
1000
0000
0010
0000
1000
0000
0010
0000
1000
0000
0010
0000
,
1000
0000
0000
0001
0000
0000
0100
0000
0000
0001
0000
0000
1000
0000
0000
0010
0000
0000
0100
0000
0000
0010
0000
0000
1000
0000
0000
0001
0000
0000
1000
0000
0000
0100
0000
0000
0010
0000
0100
0000
1000
0000
0001
0000
0010
0000
0001
0000
,
0100
0000
0000
0010
0000
0000
1000
0000
0000
0010
0000
0000
0100
0000
0000
0001
0000
0000
1000
0000
0000
0001
0000
0000
0100
0000
0000
0010
0000
0000
1000
0000
0000
0010
0000
0000
0100
0000
0001
0000
0100
0000
0001
0000
0100
0000
0001
0000
,
0100
0000
0000
0010
0000
0000
1000
0000
0000
0001
0000
0000
1000
0000
0000
0100
0000
0000
0010
0000
0000
0001
0000
0000
1000
0000
0000
0010
0000
0000
0100
0000
0000
0010
0000
0000
1000
0000
0001
0000
1000
0000
0100
0000
0010
0000
0001
0000
,
1000
0000
0000
0010
0000
0000
1000
0000
0000
0001
0000
0000
0100
0000
0000
0001
0000
0000
0010
0000
0000
0100
0000
0000
1000
0000
0000
0001
0000
0000
0010
0000
0000
0001
0000
0000
1000
0000
0010
0000
1000
0000
0010
0000
1000
0000
0010
0000
,
1000
0000
0000
0001
0000
0000
1000
0000
0000
0100
0000
0000
0010
0000
0000
0001
0000
0000
0100
0000
0000
0010
0000
0000
1000
0000
0000
0001
0000
0000
0010
0000
0000
0100
0000
0000
0010
0000
0001
0000
1000
0000
0001
0000
0100
0000
0001
0000
,
0010
0000
0000
0100
0000
0000
1000
0000
0000
0001
0000
0000
0100
0000
0000
0010
0000
0000
1000
0000
0000
0001
0000
0000
1000
0000
0000
0010
0000
0000
0100
0000
0000
0001
0000
0000
1000
0000
0100
0000
1000
0000
0100
0000
1000
0000
0100
0000
,
1000
0000
0000
0001
0000
0000
0010
0000
0000
0001
0000
0000
0100
0000
0000
0001
0000
0000
1000
0000
0000
0010
0000
0000
1000
0000
0000
0100
0000
0000
1000
0000
0000
0001
0000
0000
0100
0000
0010
0000
1000
0000
0001
0000
1000
0000
0010
0000
,
0100
0000
0000
0001
0000
0000
1000
0000
0000
0001
0000
0000
0010
0000
0000
0100
0000
0000
1000
0000
0000
0001
0000
0000
0010
0000
0000
0001
0000
0000
0100
0000
0000
0001
0000
0000
1000
0000
0100
0000
1000
0000
0100
0000
1000
0000
0100
0000
,
1000
0000
0000
0001
0000
0000
0100
0000
0000
0001
0000
0000
0010
0000
0000
0100
0000
0000
1000
0000
0000
0001
0000
0000
1000
0000
0000
0100
0000
0000
1000
0000
0000
0010
0000
0000
0100
0000
0001
0000
0100
0000
0010
0000
1000
0000
0010
0000
,
0100
0000
0000
0001
0000
0000
1000
0000
0000
0001
0000
0000
0010
0000
0000
0100
0000
0000
1000
0000
0000
0001
0000
0000
1000
0000
0000
0100
0000
0000
0010
0000
0000
0001
0000
0000
1000
0000
0010
0000
1000
0000
0010
0000
1000
0000
0010
0000
,
1000
0000
0000
0001
0000
0000
0010
0000
0000
0001
0000
0000
0100
0000
0000
0001
0000
0000
0100
0000
0000
0010
0000
0000
1000
0000
0000
0001
0000
0000
1000
0000
0000
0100
0000
0000
0010
0000
0001
0000
0010
0000
0100
0000
1000
0000
0001
0000
,
0010
0000
0000
0100
0000
0000
0010
0000
0000
0001
0000
0000
1000
0000
0000
0010
0000
0000
0100
0000
0000
0010
0000
0000
1000
0000
0000
0100
0000
0000
0010
0000
0000
0001
0000
0000
0100
0000
0001
0000
0100
0000
0001
0000
0100
0000
0001
0000
,
0100
0000
0000
0010
0000
0000
1000
0000
0000
0001
0000
0000
0100
0000
0000
0001
0000
0000
0010
0000
0000
0100
0000
0000
1000
0000
0000
0001
0000
0000
0010
0000
0000
0001
0000
0000
0100
0000
0010
0000
1000
0000
0001
0000
0100
0000
0010
0000
,
0100
0000
0000
0001
0000
0000
1000
0000
0000
0001
0000
0000
0010
0000
0000
0100
0000
0000
1000
0000
0000
0001
0000
0000
0010
0000
0000
0001
0000
0000
1000
0000
0000
0100
0000
0000
1000
0000
0001
0000
0100
0000
0001
0000
1000
0000
0010
0000
,
0100
0000
0000
0001
0000
0000
0100
0000
0000
0001
0000
0000
1000
0000
0000
0010
0000
0000
1000
0000
0000
0001
0000
0000
0100
0000
0000
0010
0000
0000
0100
0000
0000
0001
0000
0000
1000
0000
0100
0000
1000
0000
0001
0000
0010
0000
0100
0000
,
1000
0000
0000
0001
0000
0000
0010
0000
0000
0001
0000
0000
1000
0000
0000
0001
0000
0000
1000
0000
0000
0100
0000
0000
0010
0000
0000
0001
0000
0000
1000
0000
0000
0001
0000
0000
0100
0000
0010
0000
0100
0000
0001
0000
1000
0000
0010
0000
,
0100
0000
0000
0001
0000
0000
0100
0000
0000
0010
0000
0000
1000
0000
0000
0001
0000
0000
0100
0000
0000
0010
0000
0000
0100
0000
0000
0001
0000
0000
1000
0000
0000
0001
0000
0000
0010
0000
0100
0000
1000
0000
0100
0000
0010
0000
0001
0000
,
1000
0000
0000
0100
0000
0000
1000
0000
0000
0001
0000
0000
1000
0000
0000
0100
0000
0000
0010
0000
0000
0001
0000
0000
0010
0000
0000
0100
0000
0000
0010
0000
0000
0001
0000
0000
1000
0000
0010
0000
0100
0000
0001
0000
1000
0000
0010
0000
,
0100
0000
0000
0001
0000
0000
0100
0000
0000
0010
0000
0000
1000
0000
0000
0001
0000
0000
1000
0000
0000
0010
0000
0000
1000
0000
0000
0001
0000
0000
0100
0000
0000
0010
0000
0000
1000
0000
0100
0000
0010
0000
0001
0000
1000
0000
0100
0000
,
0010
0000
0000
0100
0000
0000
1000
0000
0000
0001
0000
0000
0010
0000
0000
0001
0000
0000
1000
0000
0000
0001
0000
0000
0010
0000
0000
0100
0000
0000
1000
0000
0000
0001
0000
0000
0100
0000
0010
0000
0100
0000
0001
0000
1000
0000
0001
0000
,
0100
0000
0000
0010
0000
0000
0100
0000
0000
0001
0000
0000
1000
0000
0000
0010
0000
0000
0100
0000
0000
0010
0000
0000
1000
0000
0000
0001
0000
0000
1000
0000
0000
0001
0000
0000
0010
0000
0100
0000
1000
0000
0001
0000
1000
0000
0100
0000
,
0010
0000
0000
0001
0000
0000
0010
0000
0000
0001
0000
0000
1000
0000
0000
0001
0000
0000
0100
0000
0000
0010
0000
0000
0100
0000
0000
0001
0000
0000
0100
0000
0000
0001
0000
0000
0010
0000
0100
0000
1000
0000
0001
0000
1000
0000
0001
0000
,
0010
0000
0000
0100
0000
0000
0010
0000
0000
0001
0000
0000
1000
0000
0000
0001
0000
0000
0100
0000
0000
0010
0000
0000
0100
0000
0000
0001
0000
0000
1000
0000
0000
0010
0000
0000
0100
0000
0001
0000
0100
0000
0010
0000
1000
0000
0001
0000
,
0010
0000
0000
0100
0000
0000
1000
0000
0000
0001
0000
0000
0010
0000
0000
0100
0000
0000
0010
0000
0000
0001
0000
0000
1000
0000
0000
0100
0000
0000
0010
0000
0000
0001
0000
0000
1000
0000
0100
0000
1000
0000
0001
0000
1000
0000
0100
0000
,
0010
0000
0000
0001
0000
0000
0100
0000
0000
0010
0000
0000
0100
0000
0000
0001
0000
0000
1000
0000
0000
0010
0000
0000
0100
0000
0000
0010
0000
0000
1000
0000
0000
0001
0000
0000
0010
0000
0100
0000
1000
0000
0001
0000
0010
0000
0100
0000
,
1000
0000
0000
0001
0000
0000
0100
0000
0000
0001
0000
0000
1000
0000
0000
0010
0000
0000
0100
0000
0000
0001
0000
0000
0100
0000
0000
0010
0000
0000
1000
0000
0000
0001
0000
0000
1000
0000
0100
0000
1000
0000
0001
0000
0010
0000
0100
0000
,
1000
0000
0000
0100
0000
0000
0010
0000
0000
0001
0000
0000
0100
0000
0000
0001
0000
0000
1000
0000
0000
0100
0000
0000
1000
0000
0000
0001
0000
0000
0100
0000
0000
0001
0000
0000
0010
0000
0100
0000
1000
0000
0001
0000
1000
0000
0001
0000
,
0010
0000
0000
0100
0000
0000
1000
0000
0000
0001
0000
0000
0010
0000
0000
0001
0000
0000
0100
0000
0000
0010
0000
0000
1000
0000
0000
0001
0000
0000
0100
0000
0000
0010
0000
0000
0100
0000
0001
0000
1000
0000
0100
0000
0010
0000
0001
0000
,
0100
0000
0000
0010
0000
0000
1000
0000
0000
0001
0000
0000
0100
0000
0000
0001
0000
0000
0010
0000
0000
0100
0000
0000
1000
0000
0000
0001
0000
0000
0010
0000
0000
0001
0000
0000
0100
0000
0010
0000
0100
0000
0001
0000
0010
0000
0100
0000
,
1000
0000
0000
0010
0000
0000
0100
0000
0000
0010
0000
0000
1000
0000
0000
0001
0000
0000
0100
0000
0000
0010
0000
0000
0100
0000
0000
0001
0000
0000
1000
0000
0000
0010
0000
0000
0100
0000
0001
0000
0010
0000
0001
0000
1000
0000
0100
0000
,
0010
0000
0000
0001
0000
0000
0010
0000
0000
0100
0000
0000
1000
0000
0000
0001
0000
0000
1000
0000
0000
0010
0000
0000
0100
0000
0000
0010
0000
0000
1000
0000
0000
0001
0000
0000
1000
0000
0010
0000
0100
0000
0001
0000
0100
0000
0010
0000
,
1000
0000
0000
0100
0000
0000
0010
0000
0000
0001
0000
0000
0010
0000
0000
0100
0000
0000
1000
0000
0000
0100
0000
0000
0010
0000
0000
0001
0000
0000
1000
0000
0000
0010
0000
0000
0100
0000
0001
0000
1000
0000
0010
0000
0100
0000
0010
0000
,
1000
0000
0000
0001
0000
0000
0010
0000
0000
0001
0000
0000
1000
0000
0000
0100
0000
0000
1000
0000
0000
0001
0000
0000
0010
0000
0000
0100
0000
0000
1000
0000
0000
0001
0000
0000
1000
0000
0010
0000
0100
0000
0010
0000
1000
0000
0001
0000
,
0100
0000
0000
0001
0000
0000
1000
0000
0000
0010
0000
0000
1000
0000
0000
0001
0000
0000
1000
0000
0000
0100
0000
0000
0010
0000
0000
0100
0000
0000
1000
0000
0000
0001
0000
0000
1000
0000
0100
0000
0010
0000
0100
0000
1000
0000
0010
0000
,
1000
0000
0000
0001
0000
0000
0010
0000
0000
0100
0000
0000
1000
0000
0000
0001
0000
0000
0100
0000
0000
0001
0000
0000
1000
0000
0000
0010
0000
0000
0100
0000
0000
0001
0000
0000
0010
0000
0100
0000
1000
0000
0100
0000
0010
0000
0001
0000
,
1000
0000
0000
0010
0000
0000
1000
0000
0000
0001
0000
0000
0100
0000
0000
0010
0000
0000
0100
0000
0000
0001
0000
0000
1000
0000
0000
0001
0000
0000
0010
0000
0000
0100
0000
0000
1000
0000
0001
0000
0010
0000
0001
0000
1000
0000
0001
0000
,
0100
0000
0000
0010
0000
0000
1000
0000
0000
0001
0000
0000
0100
0000
0000
0010
0000
0000
1000
0000
0000
0001
0000
0000
0100
0000
0000
0001
0000
0000
1000
0000
0000
0100
0000
0000
1000
0000
0001
0000
0010
0000
0100
0000
1000
0000
0001
0000
,
1000
0000
0000
0100
0000
0000
0100
0000
0000
0010
0000
0000
0001
0000
0000
1000
0000
0000
0010
0000
0000
0100
0000
0000
0001
0000
0000
0010
0000
0000
0001
0000
0000
1000
0000
0000
0100
0000
0010
0000
0001
0000
1000
0000
0100
0000
1000
0000
,
0001
0000
0000
0010
0000
0000
0100
0000
0000
0010
0000
0000
0001
0000
0000
0100
0000
0000
0010
0000
0000
1000
0000
0000
0010
0000
0000
0100
0000
0000
0001
0000
0000
1000
0000
0000
0001
0000
0100
0000
0001
0000
0010
0000
0100
0000
1000
0000
,
0001
0000
0000
0010
0000
0000
0001
0000
0000
1000
0000
0000
0001
0000
0000
0100
0000
0000
0010
0000
0000
1000
0000
0000
0010
0000
0000
0100
0000
0000
0001
0000
0000
0100
0000
0000
0010
0000
1000
0000
0010
0000
1000
0000
0100
0000
0010
0000
,
0001
0000
0000
0010
0000
0000
0100
0000
0000
1000
0000
0000
0001
0000
0000
1000
0000
0000
0100
0000
0000
0010
0000
0000
0001
0000
0000
0100
0000
0000
0001
0000
0000
1000
0000
0000
0010
0000
1000
0000
0001
0000
0100
0000
0001
0000
0010
0000
,
0100
0000
0000
1000
0000
0000
0001
0000
0000
1000
0000
0000
0100
0000
0000
0010
0000
0000
0001
0000
0000
0010
0000
0000
0100
0000
0000
1000
0000
0000
0001
0000
0000
1000
0000
0000
0100
0000
0010
0000
0100
0000
1000
0000
0010
0000
0100
0000
,
0010
0000
0000
1000
0000
0000
0001
0000
0000
1000
0000
0000
0010
0000
0000
0100
0000
0000
0001
0000
0000
0010
0000
0000
0100
0000
0000
1000
0000
0000
0100
0000
0000
0010
0000
0000
0001
0000
0010
0000
0100
0000
1000
0000
0001
0000
1000
0000
,
0010
0000
0000
0100
0000
0000
0001
0000
0000
1000
0000
0000
0001
0000
0000
0100
0000
0000
0010
0000
0000
1000
0000
0000
0001
0000
0000
0100
0000
0000
0001
0000
0000
0010
0000
0000
0100
0000
1000
0000
0100
0000
0010
0000
0001
0000
1000
0000
,
0001
0000
0000
0010
0000
0000
0001
0000
0000
0100
0000
0000
0010
0000
0000
1000
0000
0000
0010
0000
0000
0100
0000
0000
0001
0000
0000
1000
0000
0000
0001
0000
0000
0010
0000
0000
0100
0000
1000
0000
0100
0000
0010
0000
0001
0000
0010
0000
,
0100
0000
0000
1000
0000
0000
0010
0000
0000
1000
0000
0000
0001
0000
0000
0100
0000
0000
0001
0000
0000
1000
0000
0000
0010
0000
0000
1000
0000
0000
0001
0000
0000
0010
0000
0000
0001
0000
1000
0000
0100
0000
0010
0000
0100
0000
1000
0000
,
0001
0000
0000
1000
0000
0000
0010
0000
0000
0100
0000
0000
0010
0000
0000
1000
0000
0000
0001
0000
0000
1000
0000
0000
0001
0000
0000
0010
0000
0000
0100
0000
0000
1000
0000
0000
0100
0000
0010
0000
0001
0000
0010
0000
0100
0000
1000
0000
,
0001
0000
0000
0100
0000
0000
0010
0000
0000
0100
0000
0000
0001
0000
0000
1000
0000
0000
0010
0000
0000
0100
0000
0000
0001
0000
0000
1000
0000
0000
0010
0000
0000
0100
0000
0000
0010
0000
1000
0000
0100
0000
1000
0000
0001
0000
0010
0000
,
0001
0000
0000
1000
0000
0000
0100
0000
0000
0010
0000
0000
0001
0000
0000
1000
0000
0000
0010
0000
0000
0100
0000
0000
0010
0000
0000
1000
0000
0000
0001
0000
0000
1000
0000
0000
0010
0000
0100
0000
0001
0000
1000
0000
0100
0000
1000
0000
,
0001
0000
0000
0010
0000
0000
0001
0000
0000
1000
0000
0000
0100
0000
0000
1000
0000
0000
0001
0000
0000
0100
0000
0000
0001
0000
0000
1000
0000
0000
0010
0000
0000
1000
0000
0000
0001
0000
0100
0000
0001
0000
1000
0000
0100
0000
0010
0000
,
0001
0000
0000
0010
0000
0000
0100
0000
0000
1000
0000
0000
0001
0000
0000
1000
0000
0000
0100
0000
0000
0010
0000
0000
0001
0000
0000
0100
0000
0000
0001
0000
0000
1000
0000
0000
0010
0000
1000
0000
0001
0000
0100
0000
0001
0000
0010
0000
,
0100
0000
0000
1000
0000
0000
0001
0000
0000
1000
0000
0000
0100
0000
0000
0010
0000
0000
0001
0000
0000
0010
0000
0000
0100
0000
0000
1000
0000
0000
0001
0000
0000
1000
0000
0000
0010
0000
0100
0000
0001
0000
1000
0000
0010
0000
0100
0000
,
0001
0000
0000
0010
0000
0000
0001
0000
0000
1000
0000
0000
0100
0000
0000
1000
0000
0000
0001
0000
0000
0010
0000
0000
0100
0000
0000
1000
0000
0000
0100
0000
0000
1000
0000
0000
0010
0000
0100
0000
0001
0000
0100
0000
0010
0000
1000
0000
,
0010
0000
0000
0100
0000
0000
0001
0000
0000
1000
0000
0000
0100
0000
0000
0010
0000
0000
0001
0000
0000
0010
0000
0000
0100
0000
0000
1000
0000
0000
0001
0000
0000
1000
0000
0000
0001
0000
0100
0000
0010
0000
0100
0000
0001
0000
1000
0000
,
0010
0000
0000
1000
0000
0000
0001
0000
0000
0100
0000
0000
0001
0000
0000
0010
0000
0000
0100
0000
0000
0010
0000
0000
0001
0000
0000
1000
0000
0000
0100
0000
0000
1000
0000
0000
0001
0000
0010
0000
0001
0000
1000
0000
0010
0000
1000
0000
,
0001
0000
0000
0100
0000
0000
0010
0000
0000
1000
0000
0000
0001
0000
0000
1000
0000
0000
0010
0000
0000
0100
0000
0000
0010
0000
0000
1000
0000
0000
0001
0000
0000
1000
0000
0000
0100
0000
1000
0000
0100
0000
0010
0000
0001
0000
1000
0000
,
0010
0000
0000
1000
0000
0000
0001
0000
0000
0100
0000
0000
0010
0000
0000
1000
0000
0000
0001
0000
0000
1000
0000
0000
0010
0000
0000
0100
0000
0000
0001
0000
0000
0010
0000
0000
0001
0000
1000
0000
0100
0000
1000
0000
0001
0000
0010
0000
,
0001
0000
0000
1000
0000
0000
0100
0000
0000
1000
0000
0000
0010
0000
0000
0100
0000
0000
0001
0000
0000
1000
0000
0000
0001
0000
0000
0100
0000
0000
0010
0000
0000
1000
0000
0000
0001
0000
1000
0000
0100
0000
0010
0000
0001
0000
0010
0000
,
0100
0000
0000
1000
0000
0000
0100
0000
0000
0010
0000
0000
0001
0000
0000
1000
0000
0000
0010
0000
0000
1000
0000
0000
0001
0000
0000
0100
0000
0000
0001
0000
0000
1000
0000
0000
0010
0000
1000
0000
0100
0000
0010
0000
0001
0000
0010
0000
,
0100
0000
0000
1000
0000
0000
0001
0000
0000
0010
0000
0000
0001
0000
0000
0100
0000
0000
0010
0000
0000
0100
0000
0000
0001
0000
0000
1000
0000
0000
0010
0000
0000
0100
0000
0000
0001
0000
1000
0000
0100
0000
1000
0000
0001
0000
0010
0000
,
0001
0000
0000
1000
0000
0000
0100
0000
0000
1000
0000
0000
0001
0000
0000
1000
0000
0000
0010
0000
0000
0100
0000
0000
0001
0000
0000
1000
0000
0000
0010
0000
0000
0100
0000
0000
0001
0000
1000
0000
0100
0000
0010
0000
0001
0000
1000
0000
,
0001
0000
0000
0010
0000
0000
0100
0000
0000
1000
0000
0000
0010
0000
0000
0100
0000
0000
0010
0000
0000
1000
0000
0000
0001
0000
0000
0100
0000
0000
0010
0000
0000
1000
0000
0000
0100
0000
0010
0000
0001
0000
1000
0000
0001
0000
0010
0000
,
0100
0000
0000
1000
0000
0000
0010
0000
0000
0100
0000
0000
0010
0000
0000
1000
0000
0000
0001
0000
0000
1000
0000
0000
0010
0000
0000
1000
0000
0000
0100
0000
0000
0010
0000
0000
0001
0000
1000
0000
0100
0000
1000
0000
0001
0000
0100
0000
,
0001
0000
0000
1000
0000
0000
0010
0000
0000
0100
0000
0000
0001
0000
0000
1000
0000
0000
0001
0000
0000
0010
0000
0000
0100
0000
0000
1000
0000
0000
0001
0000
0000
1000
0000
0000
0100
0000
1000
0000
0010
0000
0100
0000
0001
0000
1000
0000
,
0010
0000
0000
1000
0000
0000
0001
0000
0000
1000
0000
0000
0100
0000
0000
0010
0000
0000
0001
0000
0000
1000
0000
0000
0001
0000
0000
0010
0000
0000
0100
0000
0000
0010
0000
0000
0001
0000
1000
0000
0100
0000
1000
0000
0010
0000
0100
0000
,
0010
0000
0000
1000
0000
0000
0001
0000
0000
0100
0000
0000
0010
0000
0000
1000
0000
0000
0100
0000
0000
1000
0000
0000
0001
0000
0000
0010
0000
0000
0100
0000
0000
1000
0000
0000
0001
0000
0010
0000
0100
0000
1000
0000
0010
0000
0100
0000
,
0001
0000
0000
0100
0000
0000
0001
0000
0000
1000
0000
0000
0010
0000
0000
0100
0000
0000
0001
0000
0000
0010
0000
0000
0100
0000
0000
1000
0000
0000
0001
0000
0000
0010
0000
0000
0100
0000
0010
0000
0001
0000
1000
0000
0100
0000
1000
0000
,
0001
0000
0000
1000
0000
0000
0010
0000
0000
0100
0000
0000
0001
0000
0000
1000
0000
0000
0001
0000
0000
0100
0000
0000
0010
0000
0000
1000
0000
0000
0001
0000
0000
1000
0000
0000
0100
0000
0001
0000
0001
0000
0010
0000
0100
0000
0010
0000
,
0001
0000
0000
1000
0000
0000
0001
0000
0000
0100
0000
0000
0010
0000
0000
1000
0000
0000
0001
0000
0000
0100
0000
0000
0010
0000
0000
1000
0000
0000
0100
0000
0000
1000
0000
0000
0001
0000
0010
0000
0001
0000
1000
0000
0100
0000
0010
0000
,
0001
0000
0000
1000
0000
0000
0010
0000
0000
0100
0000
0000
0001
0000
0000
1000
0000
0000
0001
0000
0000
0100
0000
0000
0010
0000
0000
0100
0000
0000
0001
0000
0000
1000
0000
0000
0001
0000
0100
0000
0001
0000
1000
0000
0100
0000
0010
0000
,
0001
1000
0001
1000
0000
0000
0000
0000
0000
0000
0000
0000
0000
0000
0000
0000
;
