#VERSION:0.81;
#TITLE:I've Got That Tune;
#SUBTITLE:;
#ARTIST:Chinese Man;
#TITLETRANSLIT:;
#SUBTITLETRANSLIT:;
#ARTISTTRANSLIT:;
#GENRE:;
#ORIGIN:;
#CREDIT:;
#BANNER:[You Won't See This in DDR III] - I've Got That Tune.png;
#BACKGROUND:[You Won't See This in DDR III] - I've Got That Tune-bg.png;
#PREVIEWVID:;
#JACKET:[You Won't See This in DDR III] - I've Got That Tune-jacket.png;
#CDIMAGE:;
#DISCIMAGE:;
#LYRICSPATH:;
#CDTITLE:cdtitle.png;
#MUSIC:[You Won't See This in DDR III] - I've Got That Tune.ogg;
#OFFSET:-0.198;
#SAMPLESTART:42.848;
#SAMPLELENGTH:11.800;
#SELECTABLE:YES;
#DISPLAYBPM:90.000;
#BPMS:0.000=90.000,
213.000=270.000,
213.333=38.500,
213.500=90.000,
214.000=270.000,
214.333=38.500,
214.500=90.000;
#STOPS:;
#DELAYS:;
#WARPS:132.000=8.000,
144.000=8.000,
155.250=8.000,
168.000=8.000,
180.000=8.000,
192.000=8.000,
203.250=8.000;
#TIMESIGNATURES:0.000=4=4;
#TICKCOUNTS:0.000=4;
#COMBOS:0.000=1;
#SPEEDS:0.000=1.000=0.000=0;
#SCROLLS:0.000=1.000;
#FAKES:;
#LABELS:0.000=Song Start;
#BGCHANGES:;
#KEYSOUNDS:;
#ATTACKS:
;

//---------------dance-single - ----------------
#NOTEDATA:;
#CHARTNAME:;
#STEPSTYPE:dance-single;
#DESCRIPTION:;
#CHARTSTYLE:;
#DIFFICULTY:Hard;
#METER:6;
#RADARVALUES:0.288,0.346,0.094,0.060,0.000,218.000,11.000,7.000,0.000,0.000,0.000,0.000,56.000,0.288,0.346,0.094,0.060,0.000,218.000,11.000,7.000,0.000,0.000,0.000,0.000,56.000;
#CREDIT:;
#DISPLAYBPM:90.000;
#NOTES:
0000
0000
0000
0000
,
0000
0000
0000
0000
,
0000
0000
0000
0000
,
0000
0000
0000
0000
,
0001
0000
0101
0000
0010
1000
0001
0000
,
1000
0100
1000
0000
0001
0001
0100
0001
,
0010
0010
0200
0000
1300
1000
0001
1000
,
0010
0100
0010
1000
0002
0000
0003
0000
,
1000
1100
0001
0101
,
1000
0100
0010
0000
0010
0010
0001
0000
,
1000
0010
1000
0000
0001
0100
0001
0000
,
0010
0011
1001
0000
,
1000
1010
0001
0011
,
1000
0010
0100
0000
0100
0100
0001
0000
,
1000
0100
1000
0000
0001
0010
0001
0000
,
0100
0101
1001
0000
,
0001
0010
0100
0000
0100
0010
0001
1000
,
0001
0100
1000
0100
0001
1000
0001
0010
,
0100
0100
1000
0000
0010
0010
0100
0001
,
0010
0100
0010
0001
2000
0000
3000
0000
,
0001
0100
0010
0000
0010
0100
0001
0000
,
1000
0100
0010
0100
1000
0100
1000
0100
,
0010
0010
0001
0000
1000
1000
0010
1000
,
0001
0010
0100
0010
0002
0000
0003
0000
,
1000
0000
1000
0000
0010
0000
0010
0100
,
0001
0000
0001
0000
1000
0000
1000
0001
,
0010
0010
0100
0000
0100
0100
1000
0000
,
0010
0110
1001
2000
,
3001
0010
0001
0000
0010
0100
0010
0000
,
0100
1000
0100
1000
0001
0000
1000
0001
,
1000
0000
0010
1000
0001
0000
1000
0000
,
0001
0010
1000
0010
0001
1000
0001
0000
,
1000
0010
0100
0000
0100
0010
1000
0000
,
000M
00M0
0M00
00M0
0M00
M000
0M00
M000
,
000M
0000
0000
0000
,
0001
0010
0100
0010
0100
1000
0100
1000
,
000M
0M00
00M0
0000
00M0
0M00
000M
0000
,
0000
0000
0000
0000
,
0001
0100
0010
0000
0010
0100
0001
M000
,
0M00
00M0
0M00
000M
0M00
00M0
0M00
M000
,
000M
0000
0000
0000
0000
0000
0000
1000
,
0100
0010
0100
0001
0100
0010
0100
1000
,
000M
M000
00M0
0000
00M0
M000
000M
0000
,
0000
0000
0000
0000
,
0001
1000
0010
0000
0010
1000
0001
0000
,
00M0
0M00
M000
000M
M000
000M
M000
0000
,
0000
0000
0000
0000
,
0010
0100
1000
0001
1000
0001
1000
0000
,
00M0
0M00
000M
0000
000M
0M00
00M0
0000
,
0000
0000
0000
0000
,
0010
0100
0001
0000
0001
0100
0010
M000
,
0M00
00M0
0M00
MM00
000M
M00M
0M00
00M0
,
000M
0000
0000
0000
0000
0000
0000
1000
,
0100
0010
0200
1300
0002
1003
0100
0010
,
0001
0000
0000
0000
;

//---------------dance-single - ----------------
#NOTEDATA:;
#CHARTNAME:;
#STEPSTYPE:dance-single;
#DESCRIPTION:;
#CHARTSTYLE:;
#DIFFICULTY:Medium;
#METER:4;
#RADARVALUES:0.215,0.254,0.102,0.026,0.000,161.000,12.000,3.000,0.000,0.000,0.000,0.000,46.000,0.215,0.254,0.102,0.026,0.000,161.000,12.000,3.000,0.000,0.000,0.000,0.000,46.000;
#CREDIT:;
#DISPLAYBPM:90.000;
#NOTES:
0000
0000
0000
0000
,
0000
0000
0000
0000
,
0000
0000
0000
0000
,
0000
0000
0000
0000
,
1000
0000
0100
0000
1000
0001
1000
0000
,
0001
0000
0100
0000
0010
1000
0010
0000
,
1000
1100
0001
0101
,
0001
0010
0100
0000
,
1000
1000
0001
0100
,
0001
0001
0010
0100
,
1000
1010
0001
0011
,
0001
0100
0010
0000
,
1000
1000
0001
0010
,
0001
0001
0100
0010
,
1000
1100
0001
0101
,
0001
0010
0100
1000
,
0001
0000
0100
0000
0001
1000
0001
0000
,
0010
0000
0100
0000
1000
0001
1000
0000
,
0001
0100
0001
0010
,
0100
1000
1001
0000
,
0001
0000
0100
0000
0010
1000
0010
0000
,
1000
0000
0100
0000
0010
0001
0010
0001
,
1000
0010
1000
0100
,
0010
0001
1001
0000
,
1000
0010
1000
0010
,
0100
0001
0100
0001
,
1000
1100
1000
1001
,
0001
0100
0010
2000
,
3001
0010
1000
0010
,
0001
0100
1000
0100
,
0001
0010
0100
1000
,
0010
0100
0001
1000
,
0001
0000
0010
0000
0001
1000
0001
0000
,
M000
00M0
M000
0000
000M
0M00
000M
M000
,
000M
0000
0000
0000
,
1000
0010
1000
0000
0001
0100
0001
1000
,
000M
0000
00M0
0000
000M
M000
000M
0000
,
0000
0000
0000
0000
,
0001
0000
0010
0000
0001
1000
0001
M000
,
00M0
0000
0M00
00M0
0M00
0000
00M0
0M00
,
000M
0000
0000
0000
0000
0000
0000
1000
,
0010
0000
0100
0010
0100
0000
0010
0100
,
000M
0000
M000
0000
0M00
M000
0M00
0000
,
0000
0000
0000
0000
,
0001
0000
1000
0000
0100
1000
0100
0000
,
M000
M0M0
000M
0M0M
,
M000
0000
0000
0000
,
1000
1010
0001
0101
,
M000
0000
0M00
0000
00M0
000M
00M0
0000
,
0000
0000
0000
0000
,
1000
0000
0100
0000
0010
0001
0010
000M
,
0M00
00M0
0M00
0000
0M00
0000
00M0
0M00
,
000M
0000
0000
0000
0000
0000
0000
0001
,
0100
0010
0200
0300
0020
0030
0100
0010
,
1000
0000
0000
0000
;

//---------------dance-single - ----------------
#NOTEDATA:;
#CHARTNAME:;
#STEPSTYPE:dance-single;
#DESCRIPTION:;
#CHARTSTYLE:;
#DIFFICULTY:Challenge;
#METER:8;
#RADARVALUES:0.433,0.622,0.077,0.196,0.525,323.000,9.000,23.000,0.000,0.000,0.000,0.000,113.000,0.433,0.622,0.077,0.196,0.525,323.000,9.000,23.000,0.000,0.000,0.000,0.000,113.000;
#CREDIT:;
#DISPLAYBPM:90.000;
#NOTES:
// measure 0
0000
0000
0000
0000
,  // measure 1
0000
0000
0000
0000
,  // measure 2
0000
0000
0000
0000
,  // measure 3
0000
0000
0000
0000
,  // measure 4
0001
0000
0100
0000
0010
0000
0000
0000
1000
0001
1000
0001
0010
0000
0000
0000
,  // measure 5
0100
0000
1000
0001
1000
0000
0010
0000
0100
0000
0100
0000
0001
0000
1000
0100
,  // measure 6
1000
0000
0010
0000
0100
0000
0000
0000
0010
0000
0100
0000
0001
0000
1000
0100
,  // measure 7
1000
0000
0100
1000
0100
0000
1000
0000
0001
0000
1000
0010
0000
0010
1000
0000
,  // measure 8
0001
0010
0100
0000
0100
0010
0001
0000
,  // measure 9
1000
0010
0001
0010
0100
0100
0010
1000
,  // measure 10
0001
0001
0011
0000
1000
1000
1100
0100
,  // measure 11
0010
0000
0100
0000
1000
0000
0001
0000
1000
0000
0001
0100
0000
0100
0001
0000
,  // measure 12
1000
0100
0010
0000
0010
0100
1000
0000
,  // measure 13
0001
0100
1000
0100
0010
0010
0100
0001
,  // measure 14
1000
1000
1100
0000
0001
0001
0011
0010
,  // measure 15
0100
0000
0010
0000
0001
0000
1000
0000
0010
0000
0100
0001
0000
0001
1000
0000
,  // measure 16
0001
0000
0010
0100
0020
0000
0000
0000
0130
1000
0100
0010
0001
0000
1000
0010
,  // measure 17
1000
0000
0001
0000
1000
0100
1000
0000
1000
0000
1000
0001
1000
0000
0001
0000
,  // measure 18
0100
0010
1000
0000
0001
1000
0001
0000
0010
0000
0010
0000
0010
0000
0100
1000
,  // measure 19
0100
0000
1000
0100
1000
0000
0001
0000
1001
0000
1000
0010
0000
0010
0100
0000
,  // measure 20
0010
0000
1000
0001
2000
0000
0000
0000
3001
0010
0100
0010
0100
0000
1000
0000
,  // measure 21
0001
0000
0200
0310
0000
0200
0301
0000
0200
0310
0000
0200
0301
1000
0001
1000
,  // measure 22
0001
0000
0010
0000
0100
0000
0000
0000
0010
0000
0100
0000
1000
0000
0001
0100
,  // measure 23
0001
0000
0100
0001
0100
0000
0001
0000
1001
0000
1000
0100
0000
0100
0010
0000
,  // measure 24
0002
0000
0203
0000
0302
0000
1003
0001
,  // measure 25
2000
0000
3200
0000
2300
0000
3001
0100
,  // measure 26
0001
1000
0001
0000
0010
0000
0000
0000
0100
0000
1000
0000
0001
0000
1000
0000
,  // measure 27
0010
0000
0000
0000
0000
0000
0010
0000
0000
0000
0000
0000
0100
0000
0000
0000
0001
0000
0000
0000
0000
1000
0000
0000
0000
0000
0000
0000
0000
0000
0000
0000
0000
0002
0000
0000
0000
0000
0000
0000
0000
0000
0000
0000
0000
0000
0000
0000
,  // measure 28
1003
0100
0010
0000
0010
0100
1000
0000
,  // measure 29
0001
0100
1000
0100
0001
0100
0010
1000
,  // measure 30
0001
0000
0010
0100
1000
0000
1001
0000
,  // measure 31
0001
0100
0001
0010
0100
0010
0100
0000
,  // measure 32
1000
0001
0100
0001
0020
0000
0000
0000
0130
1000
0100
0010
0200
0000
0000
0000
,  // measure 33
M300
M000
M00M
0M00
00M0
0M00
M000
0M00
00M0
0M00
000M
00M0
M000
00M0
0M00
00M0
,  // measure 34
000M
0000
0000
0000
,  // measure 35
2000
0000
3001
0100
0010
0100
1000
0100
0010
0100
0001
0010
1000
0010
0100
0010
,  // measure 36
000M
0000
M000
00M0
M000
M000
M000
M000
M00M
0000
000M
0000
0M00
0000
0000
0000
,  // measure 37
0000
0000
0000
0000
,  // measure 38
0001
0000
1000
0010
2000
0000
0000
0000
3001
0000
0001
0000
0100
000M
00M0
M000
,  // measure 39
00M0
M000
00M0
0M00
00M0
000M
00M0
0M00
M000
00M0
0M00
00M0
0M00
000M
M000
000M
,  // measure 40
M000
0000
0000
0000
0000
0000
0000
0000
0000
0000
0000
0000
0000
0001
0010
1000
,  // measure 41
0010
1000
0010
0100
0010
0001
0010
0100
1000
0010
0100
0010
0100
0001
1000
0001
,  // measure 42
M000
0000
0M00
00M0
0M00
0M00
0M00
0M00
0MM0
000M
00M0
000M
M000
M000
M000
M000
,  // measure 43
M000
0000
0000
0000
,  // measure 44
1000
0000
0100
0010
0200
0000
0000
0000
0310
0001
0010
0001
2000
0000
0000
0000
,  // measure 45
300M
000M
0M0M
00M0
M000
00M0
0M00
000M
00M0
0M00
00M0
000M
00M0
0000
0000
0000
,  // measure 46
0000
0000
0000
0000
,  // measure 47
0002
0000
0103
0010
1000
0010
0100
0001
0010
0100
0010
0001
0010
0000
0000
0000
,  // measure 48
0M00
0000
M000
000M
M000
M000
M000
M000
M00M
0000
000M
0000
0M00
0000
0000
0000
,  // measure 49
0000
0000
0000
0000
,  // measure 50
0100
0000
1000
0001
2000
0000
0000
0000
3001
0000
0001
0000
0100
000M
M000
000M
,  // measure 51
00M0
0M00
00M0
0M00
MM00
M000
M00M
0000
MM00
M000
M00M
0000
M000
00M0
0M00
00M0
,  // measure 52
M000
0000
0000
0000
0000
0000
0000
0000
0000
0000
0000
0000
0000
0001
1000
0001
,  // measure 53
0010
0100
0010
0100
2100
0000
3001
0000
2100
0000
3001
0000
1000
0010
0100
0010
,  // measure 54
1000
0000
0000
0000
;

//---------------dance-single - ----------------
#NOTEDATA:;
#CHARTNAME:;
#STEPSTYPE:dance-single;
#DESCRIPTION:;
#CHARTSTYLE:;
#DIFFICULTY:Easy;
#METER:2;
#RADARVALUES:0.165,0.207,0.068,0.026,0.000,124.000,8.000,3.000,0.000,0.000,0.000,0.000,38.000,0.165,0.207,0.068,0.026,0.000,124.000,8.000,3.000,0.000,0.000,0.000,0.000,38.000;
#CREDIT:;
#DISPLAYBPM:90.000;
#NOTES:
0000
0000
0000
0000
,
0000
0000
0000
0000
,
0000
0000
0000
0000
,
0000
0000
0000
0000
,
1000
0001
0000
0001
,
1000
0010
0100
0001
,
0010
0000
0010
0000
,
0001
1000
1001
0000
,
0001
0000
0101
0000
,
0001
1000
0001
0000
,
1000
0000
1100
0000
,
1000
0001
1000
0000
,
0001
0000
0011
0000
,
0010
0100
0010
0001
,
1000
0000
1010
0000
,
0010
0100
0001
0000
,
1000
0100
0000
0100
,
0010
0001
0010
0100
,
1000
0001
0000
0001
,
1000
0010
1010
0000
,
1000
0001
0000
0001
,
0010
0100
0010
0001
,
0010
0100
0000
0100
,
1000
0001
1001
0000
,
0001
0100
0001
0100
,
0010
1000
0010
1000
,
0001
0000
0001
0010
,
0001
1000
1001
0002
,
1003
0000
0010
0000
,
1000
0100
0001
0010
,
1000
0000
0001
0000
,
1000
0010
0001
0100
,
1000
1000
0000
0001
,
M000
0000
00M0
0000
0M00
00M0
0M00
0000
,
000M
0000
0000
0000
,
1000
0000
0010
0000
0100
0010
0100
0000
,
000M
000M
M000
0M00
,
0000
0000
0000
0000
,
0001
0000
0001
0000
1000
0000
0100
00M0
,
0M00
0000
M000
0000
000M
0000
M000
000M
,
M000
0000
0000
0000
0000
0000
0000
0010
,
0100
0000
1000
0000
0001
0000
1000
0001
,
M000
M000
00M0
0M00
,
0000
0000
0000
0000
,
1000
1000
0010
0100
,
00M0
M000
00M0
0000
0M00
0000
000M
0000
,
M000
0000
0000
0000
,
0010
1000
0010
0000
0100
0000
0001
0000
,
M000
M000
000M
00M0
,
0000
0000
0000
0000
,
1000
0000
1000
0000
0001
0000
0010
0M00
,
00M0
0000
000M
0000
M000
0000
000M
M000
,
000M
0000
0000
0000
0000
0000
0000
0100
,
0010
0000
0002
0003
2000
3000
0001
1000
,
0001
0000
0000
0000
;
