#TITLE:F.u.c.k.i.n.g;
#SUBTITLE:;
#ARTIST:SRB;
#TITLETRANSLIT:;
#SUBTITLETRANSLIT:;
#ARTISTTRANSLIT:;
#GENRE:;
#CREDIT:;
#BANNER:;
#BACKGROUND:;
#LYRICSPATH:;
#CDTITLE:;
#MUSIC:fucking.ogg;
#OFFSET:-2.644;
#SAMPLESTART:39.500;
#SAMPLELENGTH:12.000;
#SELECTABLE:YES;
#BPMS:0.000=208.000
,32.000=208.200
;
#STOPS:
;
#BGCHANGES:;
#KEYSOUNDS:;
#ATTACKS:;

//---------------dance-single - ----------------
#NOTES:
     dance-single:
     :
     Hard:
     9:
     0.740,0.667,0.181,0.251,0.052,549.000,21.000,29.000,22.000,0.000,14.000,0.740,0.667,0.181,0.251,0.052,549.000,21.000,29.000,22.000,0.000,14.000:
0010
1000
0100
0001
0100
1000
0010
0000
,
0010
0001
0100
1000
0100
0001
0010
0000
,
0200
0000
2300
0000
3001
0100
0020
0000
,
0130
0000
0001
0000
1000
0100
0010
0000
,
0010
0001
0100
1000
0100
0001
0010
0000
,
0010
1000
0100
0001
0100
1000
0010
0000
,
0010
0000
0000
0100
0000
0000
0001
0000
0001
0010
0000
0000
,
0100
1000
0001
0100
,
0110
0000
0000
0000
,
0000
0000
0000
0000
,
0000
0000
0000
0000
,
0000
0000
0000
0000
,
0000
0000
0000
0000
,
0000
0000
0000
0000
,
0000
0000
0000
0000
,
0000
0000
0000
0000
,
0001
0100
0001
0100
0010
1000
0010
1000
,
0001
0010
0001
0010
0100
1000
0100
1000
,
0001
0100
0001
0100
0001
0010
0001
0010
,
0100
1000
0100
1000
0010
1000
0010
1000
,
0010
0001
0010
0001
1000
0100
1000
0100
,
0001
0100
0001
0100
0010
0100
0010
0100
,
0010
1000
0010
1000
0001
1000
0001
1000
,
0001
0010
0001
0010
0100
1000
0001
0000
,
0001
0100
1000
0100
0001
0010
0100
0010
,
0001
1000
0010
0100
1000
0100
0001
0010
,
0100
1000
0010
0100
0001
0010
0100
1000
,
0010
1000
0001
0010
0100
1000
0001
0100
,
0010
0100
0001
1000
0100
0010
0100
1000
,
0010
0100
1000
0100
0001
0010
1000
0001
,
1000
1000
0100
0100
,
0020
0032
0203
0310
,
0010
1000
0100
1000
0010
0100
0001
0100
,
0010
1000
0001
1000
0100
0000
0000
0000
,
0010
0001
0100
0001
0010
0100
1000
0100
,
0010
0001
1000
0001
0010
0000
0000
0000
,
0100
1000
0010
1000
0100
0001
0100
0010
,
0100
1000
0001
1000
0010
0000
0000
0000
,
0100
0001
0100
1000
0100
0010
0100
0010
,
0001
0010
1000
0001
0010
0000
0100
0000
,
2000
3002
2003
3002
,
0203
0320
0230
0300
,
0004
0043
0430
4300
,
3040
0430
0304
0003
,
1000
0000
0000
10M0
0000
0000
0001
0000
0M00
0000
0000
000M
,
0000
0000
00M0
0000
0M00
0000
0000
M000
0000
0000
00MM
00MM
,
00MM
0000
0000
MM00
0000
0000
0MM0
0000
M00M
M00M
M00M
0000
,
2000
3020
0230
0301
,
0010
0001
0100
0010
0100
0001
1000
0100
,
1000
0010
0100
1000
0100
0001
0010
0000
,
0010
0001
0100
0010
1000
0001
1000
0100
,
0010
0001
1000
0010
0100
0001
1000
0000
,
0001
0100
0010
0100
0001
1000
0100
1000
,
0010
0100
1000
0100
0001
0010
0001
0000
,
0001
1000
0100
0001
0100
0010
0001
1000
,
0010
0100
0001
0100
0010
1000
0001
0000
,
0010
0100
0010
0100
1000
0010
1000
0010
,
0100
0001
0100
2001
0000
0000
0000
3000
,
0100
1000
0010
0100
0001
0010
0001
0100
,
0010
1000
1100
0000
0110
0000
0110
0000
,
0010
0001
0100
1000
0100
0001
1000
0100
,
0001
0100
1000
0010
0200
0000
0300
0000
,
0001
0010
1000
0010
0100
1000
0010
0100
,
0011
0110
0011
1100
,
0100
0001
0010
0100
1000
0010
0100
0001
,
0100
0010
1000
0001
0010
0100
1000
0000
,
1000
0001
0100
0010
0100
0001
0010
0100
,
1000
0001
0100
0000
0110
0000
0010
0000
,
1000
0100
1000
0001
0100
0010
0100
0001
,
0010
0100
1000
0001
0100
0010
1000
0000
,
1000
0001
0010
0100
1000
0010
0100
0001
,
0010
0100
1000
0000
1100
0000
1000
0000
,
0001
0100
0010
0100
0001
0100
1000
0100
,
0001
0010
0100
1000
0010
0100
0001
0000
,
0001
0100
1000
0100
0001
0010
1000
0010
,
0001
0100
0010
0000
0110
0000
1001
0000
,
0100
0010
0001
0100
0010
1000
0100
1000
,
0001
0100
1000
0100
0001
0010
0100
0000
,
0100
1000
0010
0001
1000
0100
0001
0010
,
0100
1000
0001
0000
0001
1000
0100
0000
,
0100
0010
0100
0010
0001
0100
0001
0100
,
0010
1000
0010
1000
0002
0000
0000
0000
,
1003
0100
1000
0100
0010
0001
0010
0001
,
0010
0100
1100
0000
0110
0000
0110
0000
,
0010
0001
0010
0001
0100
0010
0100
0010
,
1000
0100
0010
0001
0020
0000
0000
0000
,
0130
1000
0100
1000
0001
0100
0010
0001
,
0011
0110
0011
1100
,
0200
0302
0023
2030
,
3002
0203
2300
3000
,
0001
0000
0100
0000
0010
1000
0100
0000
,
0010
0000
0001
0000
0100
0010
1000
0000
,
0004
0043
4030
3004
,
0403
4300
3040
0030
,
0100
0000
0000
0001
0000
0000
1000
0000
0100
0010
0000
0000
,
0001
0000
0000
0000
0000
0000
1000
0000
0000
0010
0000
0000
0000
0000
0000
0000
0100
0000
0000
0000
0000
0000
0000
0000
,
2002
0000
3003
0000
;

//---------------dance-single - ----------------
#NOTES:
     dance-single:
     :
     Challenge:
     12:
     0.889,0.996,0.251,0.216,0.363,662.000,29.000,25.000,67.000,8.000,2.000,0.889,0.996,0.251,0.216,0.363,662.000,29.000,25.000,67.000,8.000,2.000:
0010
0000
1000
0000
0100
0000
1000
0001
1000
0001
0100
0000
0010
0000
1000
0000
,
0001
0000
0010
0000
0100
0000
1000
0001
1000
0001
0100
0000
0010
0000
1000
0000
,
0001
0010
0100
1000
0001
0100
0010
0100
,
1000
0100
0001
0010
0100
0010
0001
1000
,
0010
0000
0100
0000
0101
0000
0001
1000
0001
1000
0100
0000
0010
0000
0100
0000
,
1000
0000
0010
0000
0110
0000
0100
0001
0100
0001
1000
0000
0100
0000
0010
0001
,
1000
0000
0000
0010
0000
0000
0100
0000
0100
0001
0000
0000
,
0010
0100
2000
0002
,
3013
0000
0000
0000
0000
0000
0000
0000
0000
0000
0000
0MMM
,
0000
0000
0000
0000
0000
0000
0000
0000
0000
0000
0000
0000
0000
0000
0000
0000
0000
0000
0000
0000
MMM0
0000
0000
0000
0000
0000
0000
0000
0000
0000
0000
0000
0000
0000
0000
0000
0000
0000
0000
0000
0000
0000
0000
0000
0000
M00M
0000
0000
,
0000
0000
0000
00M0
0000
0000
0MM0
0000
0000
0000
0000
0000
MMM0
0000
0000
0000
,
0000
0000
0000
0000
000M
0000
0000
0000
0000
0000
00MM
0000
0000
0000
0000
0000
0M00
0000
0000
0000
0000
0000
0000
0000
0000
MMMM
0000
0000
0000
0000
0000
0000
,
0000
0000
0000
0000
0000
0000
0000
0000
0000
M000
0000
0M00
0000
00M0
0000
0000
,
0000
000M
0000
0M00
0000
00M0
0000
0000
0000
M000
0000
0M00
0000
00M0
0000
0000
,
0000
0M00
0000
000M
0000
00M0
0000
0000
00MM
0000
0000
MM00
0000
0000
0M0M
0000
,
0000
0000
0MM0
0000
0000
0000
MMMM
MMMM
MMMM
MMMM
MMMM
0000
0000
0000
0000
0000
,
1000
0100
0001
0100
1000
0100
0001
0100
,
1000
0010
0001
0010
1000
0010
0001
0010
,
0100
0001
0100
0010
0100
0001
0100
0010
,
0100
0001
1000
0100
1000
0001
0100
0001
,
1000
0010
1000
0100
1000
0010
1000
0100
,
1000
0010
1000
0001
0010
0001
1000
0010
,
1000
0100
1000
0010
1000
0100
1000
0010
,
0100
0001
0100
0010
0100
0001
1000
0000
,
1000
0100
1000
0100
0010
0001
1000
0010
,
0100
0001
0100
0010
1000
0001
0010
0100
,
1000
0001
0100
0010
0100
0001
0010
0100
,
1000
0001
0100
1000
0100
0010
1000
0001
,
0010
0100
0001
1000
0010
0001
0010
0100
,
0001
0100
1000
0001
0010
0100
1000
0010
,
0100
0200
0001
0002
,
20M0
0300
0003
3M0M
,
0100
0001
0010
0100
0010
0001
0100
1000
,
0100
0001
0010
0100
1000
0010
0100
0001
,
0100
0010
1000
0100
0001
0100
0010
1000
,
0010
0001
0100
0010
1000
0100
0001
0100
,
0010
0001
0100
0010
1000
0001
0100
1000
,
0100
0010
0001
0010
1000
0100
0001
0100
,
1000
0010
0001
0010
1000
0100
0001
0100
,
0010
0001
1000
0010
0100
0001
0010
0000
,
0110
1100
1001
0101
,
0110
1010
2002
3003
,
0010
0010
0010
0100
0100
0100
1000
1000
1000
0100
0100
0100
,
0001
0001
0001
0010
0010
0010
0400
0000
0000
0000
0000
0000
,
0310
0000
0000
0000
0000
0000
0100
0000
0000
0000
0000
0000
0000
0000
0000
1001
0000
0000
0000
0000
0000
0000
0100
0000
,
0000
0000
0010
0000
0001
0000
0000
1000
0000
0000
0020
0000
,
0000
0000
0030
0100
0000
0000
0001
0000
0000
2000
0000
0000
,
3002
0200
0020
1333
,
0010
0100
0001
1000
0100
0010
0001
0100
,
0010
0100
0001
1000
0100
0001
0100
0010
,
0001
0100
0010
1000
0100
1000
0001
0100
,
0010
0000
1000
0000
0100
0000
1000
0001
1000
0001
0100
0000
0010
0000
1000
0000
,
0100
1000
0001
0100
0010
0100
0001
0010
,
0100
1000
0010
0100
0001
0010
0100
0010
,
0001
0100
0010
0100
1000
0100
0001
0010
,
0100
0000
1000
0000
0001
0000
0100
0010
0100
0010
1000
0000
0001
0000
0000
0000
,
0001
0010
0100
1000
0001
0100
0010
1000
,
0001
0010
1000
0010
0002
0000
1000
0000
,
0013
0001
0100
1000
0100
0001
0010
0100
,
1000
0001
0100
0000
0110
0000
0110
0000
,
0010
1000
0010
1000
0100
0001
0100
0001
,
1000
0010
1000
0010
0002
0000
0100
0000
,
0103
0010
0100
0010
1000
0001
1000
0000
,
1101
0011
1011
0100
,
0001
0010
0100
1000
0001
0100
0010
0100
,
0001
0000
0010
0000
0100
0000
1000
0100
0001
0100
1000
0000
0010
0000
0100
0000
,
0001
0010
0100
1000
0001
0100
0010
0100
,
0001
0000
1000
0000
0100
0000
0010
0001
0100
0001
0010
0000
0100
0000
1000
0000
,
0001
0100
0010
0100
1000
0100
0001
0100
,
0010
0000
1000
0000
0100
0000
1000
0010
0100
0001
0010
0000
0100
0000
1000
0000
,
0010
0100
1000
0100
0001
0010
0100
0001
,
0100
0000
1000
0000
0010
0000
0100
0001
0100
0001
1000
0000
0100
0000
0010
0000
,
0001
0100
0010
0100
1000
0100
0001
0010
,
0100
0000
1000
0000
0001
0000
0010
0100
1000
0100
0010
0000
0001
0000
0100
0000
,
0010
1000
0100
1000
0001
0100
0010
0100
,
0001
0000
0010
0000
0011
0000
1000
0100
0001
0100
1000
0000
0010
0000
0100
0000
,
0001
0010
0100
0010
1000
0010
0001
0100
,
0010
0000
1000
0000
1100
0000
1000
0001
1000
0001
0100
0000
0010
0000
1000
0000
,
0100
0001
0100
0010
0100
1000
0001
0100
,
0110
1000
0100
0000
0011
0001
1000
0000
,
0010
0100
0010
0100
0001
1000
0001
1000
,
0100
0001
0100
1000
0020
0000
0100
0000
,
0031
0010
1000
0100
0001
0100
0010
0001
,
1000
0010
0100
0000
1001
0000
1001
0000
,
0100
0001
0100
1000
0010
0100
0001
0010
,
0100
1000
0001
0100
0020
0000
1000
0000
,
0130
0001
0010
0100
0010
0001
1000
0000
,
1110
0101
0111
1000
,
0001
0000
0010
0000
1100
0000
0001
0100
1000
0100
0001
0000
0011
0000
0100
0000
,
1000
0000
0010
0000
0110
0000
0100
0001
1000
0001
0100
0000
1010
0000
1000
0000
,
0002
0000
0000
0023
0000
0000
0230
0000
0000
1300
0000
1000
,
0020
0000
0000
0230
0000
0000
0304
0000
0000
1003
0000
1000
,
0001
0000
0000
0000
0010
0000
0000
0000
0001
0000
0000
0000
1000
0000
0000
0000
0000
0000
0010
0000
0000
0100
0000
0000
0010
0000
0000
0100
0000
0000
0001
0000
0000
0000
0000
0000
1000
0000
0000
0000
0000
0000
0100
0000
0000
0010
0000
0000
,
0100
0000
0000
0000
1000
0000
0000
0000
0100
0000
0000
0000
1000
0000
0000
0000
0000
0000
0001
0000
0000
0100
0000
0000
0001
0000
0000
0100
0000
0000
0010
0000
0000
0000
0000
0000
1000
0000
0000
0000
0000
0000
0001
0000
0000
0100
0000
0000
,
0002
0000
0000
0203
0000
0000
0310
0000
0010
2000
0000
0000
,
3002
0000
0000
0000
0000
0000
0103
0000
0000
0010
0000
0000
0000
0000
0000
0000
1000
0000
0000
0000
0000
0000
0000
0000
,
1MM1
0000
0000
0000
;

//---------------dance-single - ----------------
#NOTES:
     dance-single:
     :
     Medium:
     8:
     0.489,0.581,0.095,0.233,0.004,358.000,11.000,27.000,0.000,0.000,0.000,0.489,0.581,0.095,0.233,0.004,358.000,11.000,27.000,0.000,0.000,0.000:
0010
1000
0100
0100
,
1000
0001
0100
0100
,
0010
2000
3001
0010
,
0100
1000
0002
0103
,
0010
1000
0001
0001
,
0010
0100
1000
1000
,
0001
0000
0100
0000
0010
1000
0010
0000
,
0100
0001
0010
0100
,
1001
0000
0000
0000
,
0000
0000
0000
0000
,
0000
0000
0000
0000
,
0000
0000
0000
0000
,
0000
0000
0000
0000
,
0000
0000
0000
0000
,
0000
0000
0000
0000
,
0000
0000
0000
0000
,
0010
1000
0100
1000
,
0001
0000
0100
0000
0010
1000
0100
0000
,
0010
0001
0100
0010
,
0100
0000
0001
0000
1000
0100
0010
0000
,
0001
0100
0010
0100
,
1000
0000
0100
0000
0010
0100
0001
0000
,
0010
0100
1000
0001
,
0100
0010
0100
0000
,
0010
1000
0100
0010
,
0100
0000
1000
0000
0001
0100
1000
0000
,
0100
0001
0010
0100
,
1000
0000
0010
0000
0100
0001
0010
0000
,
0100
1000
0001
1000
,
0100
0000
0010
0000
0001
1000
0010
0000
,
1000
1000
0100
0100
,
0020
0000
0000
0030
,
0001
0100
1000
0100
,
0010
1000
0001
0000
0011
0000
0100
0000
,
1000
0010
0100
0001
,
1000
0100
0001
0000
0101
0000
0100
0000
,
0010
0001
1000
0010
,
0100
0001
0010
0000
1100
0000
0010
0000
,
0100
0001
0100
0010
,
1000
0001
0010
0000
0110
0000
0001
0000
,
2000
3002
2003
3002
,
2003
3002
2003
3000
,
0002
0000
0023
0000
,
0230
0000
2300
0000
,
3001
0001
0001
0000
,
0000
0000
0000
0000
,
0000
0000
0000
0000
,
0000
0000
0000
0000
,
1000
0010
0100
0001
,
1000
0100
1000
0000
1100
0000
0000
0000
,
1000
0010
0100
0001
,
0010
0100
0010
0000
0110
0000
0000
0000
,
0010
0001
0100
1000
,
0001
0010
0001
0000
1010
0000
0000
0000
,
1000
0100
0010
0001
,
0100
0010
0100
0000
1001
0000
0000
0000
,
0001
0000
0010
0000
0100
0000
1000
0001
,
1000
0001
0100
0000
0010
0000
0000
0000
,
1000
0100
0010
0001
,
1000
0001
1000
0000
0100
0000
0100
0000
,
0010
0001
0100
1000
,
0100
0010
0100
0010
2000
0000
0000
0000
,
3001
0010
0100
1000
,
0020
0230
0320
2030
,
3001
0000
0010
0000
0100
0000
1000
0001
,
1000
0001
0100
0000
0010
0000
0100
0000
,
0001
0000
0010
0000
0100
0000
1000
0010
,
1000
0010
1000
0000
0001
0000
0010
0000
,
0100
0000
1000
0000
0010
0000
0100
0001
,
0100
0001
0010
0000
0100
0000
1000
0000
,
0001
0000
0100
0000
0010
0000
0100
0001
,
0100
0001
0100
0000
0010
0000
0000
0000
,
1000
0000
0100
0000
1000
0000
0001
1000
,
0001
1000
0100
0000
0010
0000
0001
0000
,
0100
0000
0010
0000
0100
0000
0001
0010
,
0001
0010
0001
0000
1000
0000
0100
0000
,
1000
0000
0010
0000
0100
0000
1000
0100
,
1000
0100
0001
0000
0010
0000
0100
0000
,
1000
0000
0010
0000
0100
0000
0001
0010
,
0001
0010
0100
0000
0100
1000
0001
0000
,
0100
0010
1000
0100
,
0010
0001
1001
0000
,
0010
0100
0001
0010
,
0100
2000
3100
0200
,
0310
0001
0100
0010
,
0100
1000
0100
0000
,
0001
1000
0100
1000
,
0020
0230
0320
2030
,
3001
0010
0100
1000
,
0010
0100
0001
0000
,
0010
0100
1000
0001
,
1000
0010
0100
0001
,
0100
1000
0200
0001
,
0320
1000
0130
0001
,
0010
0000
0000
0100
0000
0000
1000
0000
0001
1000
0000
0000
,
0010
0100
0000
0000
,
0110
0000
0000
0000
;

//---------------dance-single - ----------------
#NOTES:
     dance-single:
     :
     Easy:
     5:
     0.317,0.332,0.035,0.190,0.000,231.000,4.000,22.000,0.000,0.000,0.000,0.317,0.332,0.035,0.190,0.000,231.000,4.000,22.000,0.000,0.000,0.000:
0010
1000
0100
0000
,
1000
0001
0100
0000
,
0020
0030
2000
3000
,
0002
0003
0020
0030
,
0100
1000
0001
0000
,
0010
0100
1000
0000
,
0020
0030
0200
0300
,
0002
0003
2000
3000
,
1001
0000
0000
0000
,
0000
0000
0000
0000
,
0000
0000
0000
0000
,
0000
0000
0000
0000
,
0000
0000
0000
0000
,
0000
0000
0000
0000
,
0000
0000
0000
0000
,
0000
0000
0000
0000
,
0010
0000
1000
0000
,
0100
1000
0001
0000
,
0100
0000
0010
0000
,
1000
0001
0010
0000
,
0100
0000
1000
0000
,
0001
0100
0010
0000
,
0100
0000
1000
0000
,
0100
0001
1000
0000
,
1100
0000
0100
0000
,
0010
0001
0100
0000
,
0010
0000
0100
0000
,
0001
1000
0100
0000
,
0010
0000
0100
0000
,
0010
0001
0100
0000
,
2000
3000
0200
0300
,
0020
0000
0000
0030
,
1000
0100
0010
0001
,
0010
0100
1000
0000
,
0010
0100
0001
1000
,
0100
0010
0001
0000
,
0100
0010
1000
0001
,
1000
0100
0010
0000
,
0001
0100
1000
0100
,
0010
1000
0001
0000
,
1001
0000
0000
0000
,
0000
0000
0000
0000
,
0020
0000
0000
0000
,
0000
0000
0030
0000
,
0100
0100
0100
0000
,
0000
0000
0000
0000
,
0000
0000
0000
0000
,
0001
0010
0100
1000
,
0001
0100
0010
0100
,
0001
1000
0100
0000
,
0010
0001
0100
1000
,
0100
0001
0010
0000
,
0100
1000
0001
0100
,
0010
1000
0001
0000
,
0010
0100
1000
0001
,
0100
0010
1000
0000
,
0010
0100
0001
1000
,
0100
0010
0001
0000
,
0010
0001
0100
0001
,
0010
1000
0200
0300
,
0001
0000
0010
0000
,
0100
0000
1000
0000
,
0010
0000
0100
0000
,
0010
0100
0010
1000
,
0001
0000
0010
0000
,
0100
1000
0001
0000
,
0100
0000
0010
0000
,
0100
0001
1000
0000
,
0100
0000
0010
0000
,
0001
1000
0010
0000
,
0100
0000
1000
0000
,
0100
0001
0010
0000
,
0010
0000
0100
0000
,
1000
0001
0100
0000
,
0010
0000
0100
0000
,
0001
1000
0100
0000
,
0010
0000
0001
0000
,
1000
0010
0100
0000
,
0001
0000
0010
0000
,
0200
0300
0020
0030
,
0001
0000
0100
0000
,
0010
1000
0001
0000
,
0010
0000
0001
0000
,
0100
1000
0100
0100
,
0001
0000
0010
0000
,
0100
1000
0001
0000
,
0100
0000
0001
0000
,
0010
0100
0010
1000
,
0010
0001
0100
1000
,
0100
0001
0010
0000
,
0200
0300
2000
3000
,
0002
0003
0020
0030
,
0001
0100
1000
0100
,
0010
1000
0001
0000
,
0020
0030
0200
0300
,
2000
3000
0000
0000
,
1001
0000
0000
0000
;

//---------------dance-single - ----------------
#NOTES:
     dance-single:
     :
     Beginner:
     1:
     0.091,0.083,0.026,0.009,0.000,70.000,3.000,1.000,0.000,0.000,0.000,0.091,0.083,0.026,0.009,0.000,70.000,3.000,1.000,0.000,0.000,0.000: // measure 0
0010
0000
0000
0000
,  // measure 1
0100
0000
0000
0000
,  // measure 2
0000
0000
0000
0000
,  // measure 3
0000
0000
0000
0000
,  // measure 4
0001
0000
0000
0000
,  // measure 5
1000
0000
0000
0000
,  // measure 6
0000
0000
0000
0000
,  // measure 7
0000
0000
0000
0000
,  // measure 8
1001
0000
0000
0000
,  // measure 9
0000
0000
0000
0000
,  // measure 10
0000
0000
0000
0000
,  // measure 11
0000
0000
0000
0000
,  // measure 12
0000
0000
0000
0000
,  // measure 13
0000
0000
0000
0000
,  // measure 14
0000
0000
0000
0000
,  // measure 15
0000
0000
0000
0000
,  // measure 16
0001
0000
0000
0000
,  // measure 17
0001
0000
0000
0000
,  // measure 18
0001
0000
0000
0000
,  // measure 19
0001
0000
0000
0000
,  // measure 20
1000
0000
0000
0000
,  // measure 21
1000
0000
0000
0000
,  // measure 22
1000
0000
0000
0000
,  // measure 23
1000
0000
0000
0000
,  // measure 24
0010
0000
0000
0000
,  // measure 25
0010
0000
0000
0000
,  // measure 26
0010
0000
0000
0000
,  // measure 27
0010
0000
0000
0000
,  // measure 28
0100
0000
0000
0000
,  // measure 29
0100
0000
0000
0000
,  // measure 30
0000
0000
0000
0000
,  // measure 31
0000
0000
0000
0000
,  // measure 32
0001
0000
0000
0000
,  // measure 33
0010
0000
0000
0000
,  // measure 34
0001
0000
0000
0000
,  // measure 35
0010
0000
0000
0000
,  // measure 36
0100
0000
0000
0000
,  // measure 37
1000
0000
0000
0000
,  // measure 38
0100
0000
0000
0000
,  // measure 39
1000
0000
0000
0000
,  // measure 40
1001
0000
0000
0000
,  // measure 41
0000
0000
0000
0000
,  // measure 42
0000
0000
0000
0000
,  // measure 43
0000
0000
0000
0000
,  // measure 44
0020
0000
0030
0000
,  // measure 45
0000
0000
0000
0000
,  // measure 46
0000
0000
0000
0000
,  // measure 47
0000
0000
0000
0000
,  // measure 48
0100
0000
0000
0000
,  // measure 49
0001
0000
0000
0000
,  // measure 50
0100
0000
0000
0000
,  // measure 51
0001
0000
0000
0000
,  // measure 52
1000
0000
0000
0000
,  // measure 53
0010
0000
0000
0000
,  // measure 54
1000
0000
0000
0000
,  // measure 55
0010
0000
0000
0000
,  // measure 56
0100
0000
0000
0000
,  // measure 57
0001
0000
0000
0000
,  // measure 58
1000
0000
0000
0000
,  // measure 59
0000
0000
0000
0000
,  // measure 60
0100
0000
0000
0000
,  // measure 61
0010
0000
0000
0000
,  // measure 62
0100
0000
0000
0000
,  // measure 63
0000
0000
0000
0000
,  // measure 64
1000
0000
0000
0000
,  // measure 65
0001
0000
0000
0000
,  // measure 66
0100
0000
0000
0000
,  // measure 67
0010
0000
0000
0000
,  // measure 68
0100
0000
0000
0000
,  // measure 69
0001
0000
0000
0000
,  // measure 70
1000
0000
0000
0000
,  // measure 71
0100
0000
0000
0000
,  // measure 72
0010
0000
0000
0000
,  // measure 73
0001
0000
0000
0000
,  // measure 74
0100
0000
0000
0000
,  // measure 75
1000
0000
0000
0000
,  // measure 76
0100
0000
0000
0000
,  // measure 77
0001
0000
0000
0000
,  // measure 78
0010
0000
0000
0000
,  // measure 79
0100
0000
0000
0000
,  // measure 80
1000
0000
0000
0000
,  // measure 81
0001
0000
0000
0000
,  // measure 82
0100
0000
0000
0000
,  // measure 83
0000
0000
0000
0000
,  // measure 84
0010
0000
0000
0000
,  // measure 85
1000
0000
0000
0000
,  // measure 86
0001
0000
0000
0000
,  // measure 87
0000
0000
0000
0000
,  // measure 88
0010
0000
0000
0000
,  // measure 89
0000
0000
0000
0000
,  // measure 90
0100
0000
0000
0000
,  // measure 91
0000
0000
0000
0000
,  // measure 92
1000
0000
0000
0000
,  // measure 93
0000
0000
0000
0000
,  // measure 94
0001
0000
0000
0000
,  // measure 95
0000
0000
0000
0000
,  // measure 96
1001
0000
0000
0000
;
