#TITLE:Don't Drop That Thun Thun;
#SUBTITLE:;
#ARTIST:Finatticz;
#TITLETRANSLIT:;
#SUBTITLETRANSLIT:;
#ARTISTTRANSLIT:;
#GENRE:;
#CREDIT:;
#BANNER:[You Won't See This in DDR III] - Don't Drop That Thun Thun.png;
#BACKGROUND:[You Won't See This in DDR III] - Don't Drop That Thun Thun-bg.png;
#LYRICSPATH:;
#CDTITLE:cdtitle.png;
#MUSIC:[You Won't See This in DDR III] - Don't Drop That Thun Thun.ogg;
#OFFSET:0.000;
#SAMPLESTART:2.448;
#SAMPLELENGTH:14.694;
#SELECTABLE:YES;
#BPMS:0.000=98.000
;
#STOPS:33.500=1.224,
48.750=0.612
;
#BGCHANGES:;
#KEYSOUNDS:;
#ATTACKS:;

//---------------dance-single - xRGTMx-9----------------
#NOTES:
     dance-single:
     xRGTMx-9:
     Hard:
     7:
     0.436,0.394,0.127,0.296,0.127,249.000,12.000,28.000,0.000,0.000,0.000,0.436,0.394,0.127,0.296,0.127,249.000,12.000,28.000,0.000,0.000,0.000:
0000
0000
0000
0000
,
0010
0000
0100
0001
0000
0010
0010
0100
,
1000
0000
0000
0000
0001
0000
0100
0000
0000
0010
0100
0000
0002
0000
0010
0000
,
0013
0000
0100
1000
0000
0010
0010
0100
,
0001
0000
0000
0000
1000
0100
1000
0000
0000
0000
0010
0000
2000
0000
0000
0000
,
3001
0100
1000
1000
1000
0100
0001
0001
,
1000
0000
0100
0000
0001
0000
0001
0000
0000
0100
1000
0000
0001
0000
1000
0000
,
1000
0010
0001
0001
0001
0010
1000
1000
,
0001
0000
0010
0000
1000
0010
0002
0000
0023
0000
0030
0000
0010
0000
0020
0000
,
0030
0020
0130
1000
2000
3000
0010
0020
,
0030
0200
0301
0000
2000
3000
0001
2000
,
3000
0020
1030
0000
2000
3000
0001
0020
,
0030
0000
0200
0300
1002
0000
0003
0000
1000
0000
0010
0000
0000
0000
0100
0000
,
0010
0000
0200
0000
0301
0000
0000
0000
0010
0000
0100
0000
0000
0100
1000
0000
,
0101
0001
1000
0000
0100
0100
0000
0010
,
1000
0000
0010
0000
0001
0000
0000
0000
0100
0010
0100
0000
0000
0000
0001
0000
,
1000
0001
1000
0001
2000
0000
3000
0000
1001
0000
0010
0000
0000
0000
1000
0000
,
0110
0000
0002
0000
1003
0000
0000
0000
0110
0000
0001
0000
0000
0001
1000
0000
,
1001
0001
0100
0000
1010
0100
0000
1000
,
0011
0000
0100
0000
1000
0000
0000
0000
0010
0100
0010
0000
1000
0000
0001
0100
,
0001
0100
0001
0000
2000
0000
0000
0000
3100
0000
1000
0000
0000
0000
0001
0000
,
0100
0000
0020
0000
0130
0000
0000
0000
1000
0000
0100
0000
0000
0001
1000
0000
,
0001
0100
0002
0000
0013
0001
0000
1000
,
0010
0000
0200
0000
0310
0000
0000
0000
1000
0001
1000
0000
0000
0000
0100
0000
,
0010
0100
0010
0100
0010
0000
0000
0000
0100
0000
1000
0000
0000
0000
0010
0000
,
0010
0000
0100
0000
0001
0000
0000
0000
1000
0000
0100
0000
0000
0010
0100
0000
,
2000
0010
3010
0000
0100
0001
0000
0010
,
0010
0000
0100
0000
1000
0000
0000
0000
0001
0100
0001
0000
0000
0000
0010
0000
,
0002
0000
1003
0100
0001
1000
0001
0100
,
1000
0000
0001
0000
1000
0000
0100
0000
0001
0000
1000
0000
0000
0001
0100
0000
,
1000
0001
1000
0010
0001
1000
0001
0010
,
1000
0000
0001
0000
1000
0000
0010
0000
0100
0001
0010
0000
0000
0000
0100
0000
,
0100
0000
2001
0000
3010
0010
0000
0010
,
0010
0000
1002
0000
0013
0000
0000
0000
0010
0000
0010
0000
0000
0100
0010
0000
,
0110
0100
1000
0000
0001
0001
0000
0001
,
0110
0000
0001
0000
1000
0000
0000
0000
0000
0010
0100
0000
0000
0000
0010
0000
,
1000
0001
1000
0001
2000
0000
0000
0000
3010
0000
0100
0000
0000
0000
0010
0000
,
0100
0010
0010
0000
0000
0000
0000
0000
;

//---------------dance-single - xRGTMx-5----------------
#NOTES:
     dance-single:
     xRGTMx-5:
     Medium:
     4:
     0.233,0.196,0.011,0.063,0.000,147.000,1.000,6.000,0.000,0.000,0.000,0.233,0.196,0.011,0.063,0.000,147.000,1.000,6.000,0.000,0.000,0.000: // measure 0
0000
0000
0000
0000
,  // measure 1
1000
0000
0000
0010
0000
0100
0100
0000
,  // measure 2
0001
0000
0000
0010
0000
0100
0100
1000
,  // measure 3
0001
0000
0000
0100
0000
0010
0010
0000
,  // measure 4
1000
0000
0000
0100
0000
0010
0010
0000
,  // measure 5
0001
0100
1000
0010
,  // measure 6
0001
0100
0010
0010
,  // measure 7
1000
0100
0001
0010
,  // measure 8
1000
0001
2000
3010
,  // measure 9
0000
0100
0002
0013
,  // measure 10
0000
0100
2000
3001
,  // measure 11
0000
0100
0002
1003
,  // measure 12
0001
0001
0010
0010
,  // measure 13
0001
1000
0010
0010
,  // measure 14
1000
0001
0010
0001
,  // measure 15
1000
1000
0010
1000
,  // measure 16
1001
0100
0010
0010
,  // measure 17
0001
0100
0010
0010
,  // measure 18
0100
0001
0010
0010
,  // measure 19
0100
0000
1000
0000
0001
0000
1000
0001
,  // measure 20
1000
0010
0001
0100
,  // measure 21
1000
0010
1000
0100
,  // measure 22
0001
0010
1000
0100
,  // measure 23
0001
0010
0001
0100
,  // measure 24
1000
0000
0001
0000
0000
0100
0000
0010
,  // measure 25
0010
0000
1000
0000
0000
0100
0000
0010
,  // measure 26
0010
0001
1000
0000
0000
0010
0000
0100
,  // measure 27
0100
0000
0001
0000
0000
0010
0000
0100
,  // measure 28
0100
1000
0010
0001
,  // measure 29
0100
1000
0010
0100
,  // measure 30
0100
0001
0010
1000
,  // measure 31
0100
0000
0001
0000
1000
0000
0000
0001
,  // measure 32
0001
0020
0130
0100
,  // measure 33
0010
0100
0010
0000
0100
0000
0100
0000
,  // measure 34
0010
0001
1000
1000
,  // measure 35
0001
1000
0001
0000
0000
1000
0000
0000
,  // measure 36
0020
0000
0130
0000
0010
0100
0000
0100
,  // measure 37
0010
0000
0000
0000
;

//---------------dance-single - xRGTMx-1----------------
#NOTES:
     dance-single:
     xRGTMx-1:
     Easy:
     1:
     0.044,0.038,0.000,0.000,0.000,29.000,0.000,0.000,0.000,0.000,0.000,0.044,0.038,0.000,0.000,0.000,29.000,0.000,0.000,0.000,0.000,0.000: // measure 0
0000
0000
0000
0000
,  // measure 1
0010
0000
0000
0000
,  // measure 2
0000
0000
0000
0000
,  // measure 3
0010
0000
0000
0000
,  // measure 4
0000
0000
0000
0000
,  // measure 5
1000
0000
0000
0000
,  // measure 6
0001
0000
0000
0000
,  // measure 7
1000
0000
0000
0000
,  // measure 8
0001
0000
0100
0000
,  // measure 9
0000
0000
0000
0000
,  // measure 10
0000
0000
0010
0000
,  // measure 11
0000
0000
0000
0000
,  // measure 12
0000
1000
0000
0000
,  // measure 13
0000
1000
0000
0000
,  // measure 14
0000
0001
0000
0000
,  // measure 15
0000
0001
0000
0000
,  // measure 16
0000
1000
0000
0000
,  // measure 17
0000
1000
0000
0000
,  // measure 18
0000
0001
0000
0000
,  // measure 19
0000
0001
0000
0000
,  // measure 20
0000
1000
0000
0000
,  // measure 21
0000
1000
0000
0000
,  // measure 22
0000
0001
0000
0000
,  // measure 23
0000
0001
0000
0000
,  // measure 24
0000
0010
0000
0000
,  // measure 25
0000
0000
0000
0000
,  // measure 26
0000
0010
0000
0000
,  // measure 27
0000
0000
0000
0000
,  // measure 28
0000
0001
0000
0000
,  // measure 29
0000
1000
0000
0000
,  // measure 30
0000
0001
0000
0000
,  // measure 31
0000
1000
0000
0000
,  // measure 32
0000
0010
0000
0000
,  // measure 33
0000
0000
0000
0000
,  // measure 34
0000
0010
0000
0000
,  // measure 35
0000
0000
0000
0000
,  // measure 36
0000
0100
0000
0000
;
