#TITLE:Dog of Flanders;
#SUBTITLE:;
#ARTIST:nicovideo;
#TITLETRANSLIT:;
#SUBTITLETRANSLIT:;
#ARTISTTRANSLIT:;
#CREDIT:;
#BANNER:banner.png;
#BACKGROUND:background.png;
#LYRICSPATH:;
#CDTITLE:;
#MUSIC:DOF.mp3;
#OFFSET:0.960;
#SAMPLESTART:55.930;
#SAMPLELENGTH:8.000;
#SELECTABLE:YES;
#BPMS:0.000=115.000,12.000=127.000,43.000=121.000,46.000=125.000,51.000=130.000,60.000=127.000,68.000=128.000,72.000=129.000,84.000=131.000,108.000=127.000,119.000=105.000,120.000=120.000,124.000=123.000,132.000=98.000,132.500=90.000,133.000=80.000,134.000=42.000,135.000=86.000;
#STOPS:;
#BGCHANGES:;

//---------------dance-single - ----------------
#NOTES:
     dance-single:
     :
     Hard:
     9:
     0.842,0.910,1.000,1.000,0.416: // measure 1
0000
0000
0000
0000
,  // measure 2
0002
2003
3020
0230
,  // measure 3
0302
0000
2003
0000
3100
0100
0100
0100
,  // measure 4
1001
0110
2002
3003
0110
1001
0220
0330
,  // measure 5
1001
0000
0001
0010
0100
0000
1100
0000
2002
0000
3003
0000
0110
0000
1001
0000
,  // measure 6
1010
0101
2020
3030
0101
1010
0202
0303
,  // measure 7
1010
0000
1000
0001
0010
0000
0011
0000
1001
0000
0101
0000
0110
0000
1001
0000
,  // measure 8
1100
0011
2200
3300
0011
1100
0022
0033
,  // measure 9
1100
0000
1000
0010
0100
0000
0101
0000
1001
0000
1100
0000
0011
0000
1100
0000
,  // measure 10
1001
0110
2002
3003
0110
1001
0220
0330
,  // measure 11
1001
0000
0001
1000
0100
0000
0110
0000
0011
0000
0011
0000
0011
0000
0000
0000
,  // measure 12
1000
0000
0000
0000
0002
0003
0000
0000
1000
0000
0000
0000
0002
0003
0000
0000
,  // measure 13
1000
0000
0000
0000
0000
0000
0000
0000
0000
0000
0000
0000
0002
0000
0000
0003
0000
0000
0000
0000
0000
0000
0000
0000
0001
0000
1000
0000
0001
0000
1000
0000
0001
0000
1000
0000
0002
0000
0000
0003
0000
0000
0000
0000
0000
0000
0000
0000
,  // measure 14
1000
0000
0000
0000
0002
0003
0000
0000
1000
0000
0000
0000
0002
0003
0000
0000
,  // measure 15
1000
0000
0000
0000
1002
0003
1000
0000
0100
0000
0010
0000
0010
0001
0010
0001
,  // measure 16
1000
0000
0100
0000
2100
3000
0001
0000
0100
0000
0010
0000
0210
0300
0001
0000
,  // measure 17
1000
0000
0010
0000
2010
3000
0001
0000
0010
0000
0100
0000
2100
3000
0001
0000
,  // measure 18
1000
0000
0001
0000
0021
0030
0100
0000
1000
0000
0001
0000
0201
0300
0010
0000
,  // measure 19
1000
0000
0001
0000
0021
0030
0100
0000
1000
0000
0010
0000
2010
3000
0001
0000
,  // measure 20
0100
0000
0010
0000
0210
0300
0010
0000
2002
0000
3003
0000
0001
0000
0100
0010
,  // measure 21
1000
0000
0000
0001
0000
0000
0000
0000
0000
0011
0000
0000
0000
0000
0000
1100
0000
0000
0000
0000
0000
1000
0000
0000
0100
0000
0000
0010
0000
0000
0001
0000
0000
1000
0000
0000
0001
0000
1000
0000
0001
0000
1000
0000
0001
0000
1000
0000
,  // measure 22
0002
0000
0203
0000
0310
1000
0001
0100
0002
0000
0013
0100
1000
0001
1000
0001
,  // measure 23
1000
0000
0100
0000
0010
0000
0001
0000
1000
0000
0000
0000
0010
0000
0000
0000
2MM2
0MM0
0MM0
0MM0
3MM3
0000
0000
0000
M22M
M00M
M00M
M00M
M33M
0000
0000
0000
,  // measure 24
2000
0000
3200
0000
0310
0001
0010
0100
2000
0000
3001
0100
0010
1000
0010
1000
,  // measure 25
0010
0100
0001
1000
0100
0000
0010
0000
1001
0000
0100
0000
0011
0000
0100
0000
,  // measure 26
2000
0000
3002
0000
0103
0010
1000
0001
2000
0000
3002
0000
0203
0000
0310
1000
,  // measure 27
0001
0000
0000
0000
0001
0000
0010
0000
0100
0000
0000
0000
1000
0000
0000
0000
M22M
M00M
M00M
M00M
M33M
0000
0000
0000
2MM2
0MM0
0MM0
0MM0
3MM3
0000
0000
0000
,  // measure 28
0002
0000
0203
0000
0310
1000
0010
0100
0002
0000
2003
0000
3200
0000
0310
0001
,  // measure 29
1000
0000
1000
0001
0100
0000
0010
0000
1001
0000
0100
0000
0011
0000
0100
0000
,  // measure 30
1001
0000
0000
0000
0110
0000
0000
0000
0000
0000
0000
0000
2002
0000
0000
0000
3003
0000
0000
0000
0001
0000
1000
0000
0001
0000
0000
0100
0000
0000
0000
0000
,  // measure 31
0002
0003
2000
3000
0020
0000
0030
0000
0200
0300
0002
0003
2000
0000
3000
0000
,  // measure 32
0200
0300
0020
0032
2003
3000
0020
0030
2002
0000
3003
0000
0220
0000
0330
0000
,  // measure 33
2000
3000
0200
0300
0020
0000
0030
0000
0002
0003
0200
0300
0020
0000
0030
0000
,  // measure 34
2000
0000
0000
3000
0000
0000
0200
0000
0000
0320
0000
0000
0032
0000
0000
0003
0000
0000
2000
0000
0000
3000
0000
0000
1001
0000
0000
0110
0000
0000
0000
1001
0000
0000
0000
0000
2200
0000
0000
3300
0000
0000
0220
0000
0000
0330
0000
0000
,  // measure 35
0022
0000
0000
0000
0000
0000
0000
0000
0000
0000
0000
MM00
0000
0000
0000
0000
0000
0000
0000
0000
MM00
0000
0000
0000
0000
0000
0000
0000
0000
0000
0000
0000
,  // measure 36
0000
0000
0000
MM00
0000
0000
0000
0000
0000
0000
0000
0000
0000
0000
0000
0000
,  // measure 37
0000
0033
0000
0000
;

//---------------dance-single - ----------------
#NOTES:
     dance-single:
     :
     Medium:
     7:
     0.593,0.599,0.502,0.661,0.192:
0000
0000
0000
0000
,
0002
0023
0230
2300
,
3002
0000
0203
0000
0310
0010
0010
0010
,
1001
1001
0110
0110
,
0001
0000
1000
0100
1000
0000
0001
0000
2000
0000
3000
0000
0002
0000
0003
0000
,
1100
1100
0011
0011
,
1000
0000
0001
0100
0001
0000
1000
0000
0001
0000
0100
0000
1001
0000
0000
0000
,
1010
1010
0101
0101
,
0001
0000
0010
0100
0010
0000
0001
0000
2000
0000
3000
0000
0020
0000
0030
0000
,
0101
0101
1010
1010
,
1000
0000
0001
1000
0001
0000
0100
0000
1001
0000
1001
0000
1001
0000
0000
0000
,
1000
0000
0000
0000
0002
0003
0000
0000
1000
0000
0000
0000
0002
0003
0000
0000
,
1000
0000
0000
0000
0002
0003
0000
0000
1001
0000
0000
0000
1002
0003
0000
0000
,
1000
0000
0000
0000
0002
0003
0000
0000
1000
0000
0000
0000
0002
0003
0000
0000
,
1000
0000
0000
0000
1002
0003
1000
0000
0000
0000
0001
0000
1000
0001
1000
0001
,
1000
0000
0010
0000
0200
0300
0001
0000
1000
0000
0100
0000
0020
0030
0001
0000
,
1000
0000
0010
0000
0200
0300
0001
0000
1000
0000
0100
0000
0020
0030
0001
0000
,
0100
0000
0010
0000
2000
3000
0001
0000
0010
0000
0100
0000
2000
3000
0001
0000
,
0100
0000
0010
0000
2000
3000
0001
0000
0010
0000
0100
0000
2000
3000
0001
0000
,
0100
0000
0001
0000
0020
0030
0100
0000
2002
0000
3003
0000
0001
0000
1000
0001
,
1000
0001
0000
1000
0000
0001
0000
1000
0001
1000
0001
1000
0002
0000
0000
0000
,
1003
0000
0010
0000
0100
0001
0100
0001
0100
0000
0010
0000
1000
0001
1000
0001
,
1000
0010
0100
0001
2002
3003
2002
3003
,
1000
0000
0100
0000
0010
0001
0010
0001
0010
0000
0100
0000
1000
0001
1000
0001
,
1000
0100
0010
0001
0022
0033
0022
0033
,
1000
0000
0001
0000
0100
0010
0100
0010
0100
0000
0001
0000
1000
0000
0001
1000
,
0001
0100
0010
0100
0220
0330
0220
0330
,
0002
0000
0103
0000
0010
1000
0010
1000
0010
0000
0100
0000
0001
0000
1000
0001
,
1000
0010
0100
0001
2002
3003
2002
3003
,
1001
1001
0000
0000
0000
0000
0000
0000
,
0001
1000
0100
0000
1000
0001
0100
0000
,
0001
0000
1000
0010
0100
0000
0001
0000
2000
0000
3000
0000
0002
0000
0003
0000
,
1000
0100
0010
0000
0001
0100
0010
0000
,
1000
0000
0010
0100
0001
0000
1000
0000
1001
0000
0000
0000
1100
0000
0110
0000
,
0022
0000
0000
0000
,
0000
0000
0000
0000
,
0000
0033
0000
0000
;

//---------------dance-single - ----------------
#NOTES:
     dance-single:
     :
     Easy:
     3:
     0.362,0.431,0.634,0.476,0.000:
0000
0000
0000
0000
,
0001
0001
1000
1000
,
0001
0001
1001
1001
,
2002
3003
0220
0330
,
1001
1001
2002
3003
,
0220
0330
2002
3003
,
0110
0110
0220
0330
,
2020
3030
0202
0303
,
1010
1010
2020
3030
,
0202
0303
2020
3030
,
0101
0101
0202
0303
,
1000
0001
1000
0001
,
1000
0001
0200
0300
,
0001
1000
0001
1000
,
0001
1000
0020
0030
,
1000
1000
1000
1000
,
0001
0001
0001
0001
,
0100
0100
0100
0100
,
0010
0010
0010
0010
,
1000
1000
0001
0001
,
1001
1001
0110
0110
,
1001
1001
1001
1001
,
1000
1000
2002
3003
,
0110
0110
0110
0110
,
0100
0100
0220
0330
,
1001
1001
1001
1001
,
1000
1000
2002
3003
,
0110
0110
0110
0110
,
0010
0010
0220
0330
,
1001
0000
0000
0000
,
1000
0000
1000
0000
,
0001
0000
0001
0000
,
0100
0100
0010
0010
,
1000
0001
1000
0010
,
2002
0000
0000
0000
,
0000
0000
0000
0000
,
0000
3003
0000
0000
;
