#TITLE:コネクト;
#SUBTITLE:-KURO HACO Remix-;
#ARTIST:kuroburger;
#TITLETRANSLIT:Connect;
#SUBTITLETRANSLIT:;
#ARTISTTRANSLIT:;
#GENRE:;
#CREDIT:;
#BANNER:Connect.png;
#BACKGROUND:Connect-bg.png;
#LYRICSPATH:;
#CDTITLE:;
#MUSIC:コネクト ‐KURO HACO remix‐.mp3;
#OFFSET:0.560;
#SAMPLESTART:73.813;
#SAMPLELENGTH:14.700;
#SELECTABLE:YES;
#BPMS:0.000=182.000
;
#STOPS:
;
#BGCHANGES:;
#KEYSOUNDS:;
#ATTACKS:;

//---------------dance-single - ----------------
#NOTES:
     dance-single:
     :
     Hard:
     9:
     0.592,0.632,0.236,0.298,0.057,412.000,27.000,34.000,0.000,1.000,0.000,0.592,0.632,0.236,0.298,0.057,412.000,27.000,34.000,0.000,1.000,0.000: // measure 0
0000
0000
0000
0000
,  // measure 1
0000
0000
0000
0000
,  // measure 2
0000
0000
0000
0000
,  // measure 3
0000
0000
0000
0000
,  // measure 4
0000
0000
0000
0000
,  // measure 5
0001
0000
0000
0100
0000
0000
0010
0000
,  // measure 6
0000
1000
0000
0000
1001
0000
1001
0000
,  // measure 7
1000
0000
0000
0010
0000
0000
0100
0000
,  // measure 8
0000
0001
0000
0000
1000
0100
0001
0100
,  // measure 9
0010
0000
0000
0001
0100
1000
0000
0100
,  // measure 10
0001
0010
0000
0110
0000
1001
0000
0110
,  // measure 11
0000
0000
0000
0010
1000
0100
0000
0010
,  // measure 12
0001
0100
1000
0100
0000
0010
1000
0100
,  // measure 13
0001
0000
0000
0100
1000
0010
0000
0100
,  // measure 14
0001
0010
0000
0200
0000
2300
0000
0002
,  // measure 15
0000
0000
3003
0000
0000
1000
0001
1000
,  // measure 16
0001
0100
0010
1000
,  // measure 17
0001
0000
0010
0000
0100
0000
0010
0000
0001
0000
0000
0100
0000
0000
0010
0000
,  // measure 18
1000
0000
0100
0000
0001
0000
0100
0000
1000
0000
0000
0010
0000
0000
0100
0000
,  // measure 19
0001
0010
0100
0000
0010
0100
1000
0000
,  // measure 20
0001
0100
0010
1000
0001
0010
0100
1000
,  // measure 21
0001
0000
0100
0000
1000
0000
0100
0000
0001
0000
0000
0010
0000
0000
0100
0000
,  // measure 22
1000
0000
0010
0000
0100
0000
0010
0000
1000
0000
0000
0100
0000
0000
0010
0000
,  // measure 23
0001
0100
0010
0000
0100
0010
1000
0000
,  // measure 24
0001
0010
0100
1000
0001
0100
0010
1000
,  // measure 25
1001
0000
1000
0000
0010
0020
0000
0130
,  // measure 26
0000
0000
0001
0010
0000
1000
0000
0001
,  // measure 27
0000
0000
0100
0000
1000
2000
0000
3001
,  // measure 28
0000
0000
0000
0000
0000
0001
0000
0100
,  // measure 29
0200
0000
0310
0000
1000
0100
0000
0001
,  // measure 30
0000
0100
1000
0002
0000
0103
0000
0010
,  // measure 31
2000
0000
3200
0000
,  // measure 32
0302
0000
0023
0000
,  // measure 33
1030
0000
0001
0000
0010
0020
0000
0130
,  // measure 34
0000
0000
1000
0010
0000
0001
0000
1000
,  // measure 35
0000
0000
0100
0000
0001
0002
0000
1003
,  // measure 36
0000
0000
0000
0000
0000
1000
0000
0010
,  // measure 37
0020
0000
0130
0000
0001
0010
0000
1000
,  // measure 38
0000
0010
0001
1000
0010
0100
0001
0000
,  // measure 39
1002
0000
0000
2000
0000
0000
0020
0000
,  // measure 40
0000
3033
0000
0000
0000
0000
1000
0100
,  // measure 41
0001
0000
0000
0100
0100
0000
1000
1010
,  // measure 42
0000
0110
0000
0101
0000
0100
0001
0100
,  // measure 43
0001
0000
0000
0100
0100
0000
0001
0101
,  // measure 44
0000
0110
0000
1010
0000
0000
1000
0100
,  // measure 45
0002
0000
0000
0023
0000
0000
2030
0000
,  // measure 46
0000
3002
0000
0000
1003
0000
0001
0010
,  // measure 47
1000
0000
0000
0010
0010
0000
0001
0101
,  // measure 48
0000
0110
0000
1010
0000
1000
0100
0010
,  // measure 49
0001
0100
0010
0000
0010
0100
0001
0000
,  // measure 50
1000
0100
0010
0000
0010
0100
1000
0000
,  // measure 51
0001
0100
1000
0000
1000
0100
0001
0000
,  // measure 52
1000
0100
0001
0000
0001
0100
1000
0000
,  // measure 53
0001
0100
0010
1000
0100
0010
0001
0000
,  // measure 54
1000
0100
0010
0001
0100
0010
1000
0000
,  // measure 55
0001
0010
0100
1000
0001
0100
0010
1000
,  // measure 56
1001
0000
0000
1001
0000
0000
1001
0000
0001
0000
0100
0000
1000
0000
0100
0000
,  // measure 57
0010
0000
0000
1000
0100
0001
0000
0100
,  // measure 58
1000
0010
0000
0110
0000
1001
0000
0110
,  // measure 59
0000
0000
0000
0010
0001
0100
0000
0010
,  // measure 60
1000
0100
0001
0100
0000
0010
0001
0100
,  // measure 61
1000
0000
0000
0100
0001
0010
0000
0100
,  // measure 62
1000
0010
0000
0200
0000
0302
0000
2000
,  // measure 63
0000
0000
3003
0000
0000
0001
1000
0001
,  // measure 64
0000
0000
0000
0000
1000
0100
0001
0100
,  // measure 65
0010
0000
0000
0001
0100
1000
0000
0100
,  // measure 66
0001
0010
0000
0110
0000
1001
0000
0110
,  // measure 67
0000
0000
0000
0010
1000
0100
0000
0010
,  // measure 68
0001
0100
1000
0200
0000
0302
0000
2000
,  // measure 69
0000
3003
0001
0010
,  // measure 70
0100
0000
1000
1000
0000
1002
0000
2000
,  // measure 71
0000
0000
3003
2000
,  // measure 72
3020
0000
0230
0000
,  // measure 73
0301
0000
0010
0000
0100
0000
0010
0000
0001
0000
0000
0100
0000
0000
0010
0000
,  // measure 74
1000
0000
0100
0000
0001
0000
0100
0000
1000
0000
0000
0010
0000
0000
0100
0000
,  // measure 75
0001
0010
0100
0010
0001
0100
0010
0100
,  // measure 76
0001
0010
0100
1000
0001
0100
0010
0010
,  // measure 77
1000
0000
0100
0000
0001
0000
0100
0000
1000
0000
0000
0010
0000
0000
0100
0000
,  // measure 78
0001
0000
0010
0000
0100
0000
0010
0000
0001
0000
0000
0100
0000
0000
0010
0000
,  // measure 79
1000
0100
0001
0100
1000
0010
0001
0010
,  // measure 80
1000
0100
0010
0001
1000
0010
0100
0100
,  // measure 81
0001
0000
0010
0000
0100
0000
0010
0000
0001
0000
0100
0010
0000
0100
0010
0000
,  // measure 82
1000
0000
0100
0000
0001
0000
0100
0000
1000
0000
0010
0100
0000
0010
0100
0000
,  // measure 83
0001
0010
0100
1000
0001
0100
0010
1000
,  // measure 84
2002
0000
0000
0000
,  // measure 85
3003
0000
0000
0000
;

//---------------dance-single - ----------------
#NOTES:
     dance-single:
     :
     Medium:
     7:
     0.505,0.558,0.131,0.228,0.004,363.000,15.000,26.000,0.000,0.000,0.000,0.505,0.558,0.131,0.228,0.004,363.000,15.000,26.000,0.000,0.000,0.000:
0000
0000
0000
0000
,
0000
0000
0000
0000
,
0000
0000
0000
0000
,
0000
0000
0000
0000
,
0000
0000
0000
0000
,
1000
0000
0000
0010
0000
0000
0100
0000
,
0000
0001
0000
0000
1001
0000
1001
0000
,
0001
0000
0000
0010
0000
0000
0100
0000
,
0000
1000
0000
0000
1001
0000
1001
0000
,
0001
0000
0100
0000
,
0010
0000
1000
0001
,
1000
0000
0010
0000
,
0100
0000
0001
1000
,
0001
0000
0010
0000
,
0100
0000
1000
0001
,
2000
0000
0000
0000
,
3001
0010
0100
1000
,
0001
1000
0001
0000
0010
0000
0100
0000
,
1000
0001
1000
0000
0010
0000
0100
0000
,
0001
0100
0001
0000
0100
0001
0100
0000
,
0001
0010
0100
1000
0001
0010
0100
1000
,
0001
1000
0001
0000
0010
0000
0100
0000
,
1000
0001
1000
0000
0010
0000
0100
0000
,
0001
0100
0001
0000
0100
0001
0100
0000
,
0001
0010
0100
1000
0001
0010
0100
1000
,
1001
0000
0001
0000
0100
0200
0000
0310
,
0000
0000
1000
0100
0000
0001
0000
1000
,
0000
0000
0010
0000
0001
0002
0000
1003
,
0000
0000
0000
0000
0000
1000
0000
0010
,
0020
0000
0130
0000
0001
0010
0000
1000
,
0000
0010
0001
1000
0000
0010
0000
0100
,
0002
0000
0023
0000
,
2030
0000
3200
0000
,
0301
0000
1000
0000
0010
0020
0000
0130
,
0000
0000
0001
0010
0000
1000
0000
0001
,
0000
0000
0100
0000
1000
2000
0000
3001
,
0000
0000
0000
0000
0000
0001
0000
0100
,
0200
0000
0310
0000
1000
0100
0000
0001
,
0000
0100
1000
0010
0100
0000
0002
0000
,
0000
0000
0000
2003
0000
0000
3001
0000
,
0000
0000
0000
0000
0000
0000
1000
0100
,
0001
0000
0000
0100
0100
0000
1000
0010
,
0000
0100
0000
0001
0000
0000
0100
0010
,
1000
0000
0000
0001
0001
0000
0010
0100
,
0000
1000
0000
1001
0000
0000
0001
0100
,
1000
0000
0000
0100
0100
0000
0001
0010
,
0000
0100
0000
1000
0000
0000
0100
0010
,
0001
0000
0000
1000
1000
0000
0010
0100
,
0000
0001
0000
1001
0000
1000
0010
0100
,
0001
0100
1000
0000
1000
0100
0001
0000
,
1000
0100
0001
0000
0001
0100
1000
0000
,
0001
0010
0100
0000
0100
0010
0001
0000
,
1000
0010
0100
0000
0100
0010
1000
0000
,
0001
0010
0100
1000
0010
0100
0001
0000
,
1000
0010
0100
0001
0010
0100
1000
0000
,
0001
0100
0010
1000
0001
0010
0100
1000
,
0001
0000
0000
1000
0000
0000
0001
0000
1000
0000
0100
0000
0001
0000
0100
0000
,
0010
0000
0000
0001
0100
1000
0000
0100
,
0001
0010
0000
0110
0000
1001
0000
0110
,
0000
0000
0000
0010
1000
0100
0000
0010
,
0001
0100
1000
0100
0000
0010
1000
0100
,
0001
0000
0000
0100
1000
0010
0000
0100
,
0001
0010
0000
0200
0000
2300
0000
0002
,
0000
0000
3003
0000
0000
1000
0001
1000
,
0000
0000
0000
0000
0001
0100
1000
0100
,
0010
0000
0000
1000
0100
0001
0000
0100
,
1000
0010
0000
0110
0000
1001
0000
0110
,
0000
0000
0000
0010
0001
0100
0000
0010
,
1000
0100
0001
0200
0000
2300
0000
0002
,
0000
3003
1000
0010
,
0100
0000
0001
0001
0000
2001
0000
0002
,
0000
0000
3003
2000
,
3020
0000
0230
0000
,
0301
0010
0100
0000
0010
0000
0100
0000
,
1000
0010
0100
0000
0010
0000
0100
0000
,
0001
0010
0100
0000
0010
0100
1000
0000
,
0001
0100
0010
1000
0001
0010
0100
1000
,
0001
0100
1000
0000
0100
0000
0001
0000
,
1000
0100
0001
0000
0100
0000
1000
0000
,
0001
0010
0100
0000
0010
0100
1000
0000
,
0001
0100
0010
1000
0001
0010
0100
1000
,
0001
1000
0001
0000
0010
0000
0100
0000
,
1000
0001
1000
0000
0010
0000
0100
0000
,
0001
0010
0100
1000
0001
0100
0010
1000
,
2002
0000
0000
0000
,
3003
0000
0000
0000
;

//---------------dance-single - ----------------
#NOTES:
     dance-single:
     :
     Easy:
     4:
     0.309,0.446,0.228,0.018,0.000,219.000,26.000,2.000,0.000,0.000,0.000,0.309,0.446,0.228,0.018,0.000,219.000,26.000,2.000,0.000,0.000,0.000:
0000
0000
0000
0000
,
0000
0000
0000
0000
,
0000
0000
0000
0000
,
0000
0000
0000
0000
,
0000
0000
0000
0000
,
0001
0000
0000
0100
0000
0000
0010
0000
,
0000
1000
0000
0000
1001
0000
1001
0000
,
1000
0000
0000
0010
0000
0000
0100
0000
,
0000
0001
0000
0000
1001
0000
1001
0000
,
1000
0000
0010
0000
,
0100
0000
0001
0000
,
1000
0000
0100
0000
,
0010
0000
0000
0000
,
0001
0000
0100
0000
,
0010
0000
1000
0000
,
0001
0000
0010
0000
,
0100
0000
1000
0000
,
0001
0100
0010
0000
,
1000
0100
0010
0000
,
0001
0100
0010
1000
,
0001
0010
0100
1000
,
0001
0100
0010
0000
,
1000
0100
0010
0000
,
0001
0100
0010
1000
,
0001
0010
0100
1000
,
0001
0000
0001
0000
,
0100
0000
0100
0000
,
0010
0000
0010
0000
,
1000
0000
0000
0000
,
1000
0000
1000
0000
,
0010
0000
0010
0000
,
0100
0000
0100
0000
,
0001
0000
0001
0000
,
0001
0100
1000
0100
,
0001
1000
0100
0001
,
0100
1000
0001
0100
,
0010
1000
0001
0010
,
0100
1000
0100
0001
,
0100
1000
0010
0001
,
0010
1000
0100
0010
,
0001
0100
0010
1000
,
1001
0000
0000
0000
,
0101
0000
0000
0000
,
1001
0000
0000
0000
,
1100
0000
0000
0000
,
1001
0000
0000
0000
,
0011
0000
0000
0000
,
1001
0000
0000
0000
,
1010
0000
0000
0000
,
1001
0001
1001
1000
,
1001
0001
0101
0001
,
1001
1000
1100
1000
,
1001
0001
0101
0001
,
1001
0001
0100
0010
,
1001
0100
0010
0001
,
1001
1000
1001
0001
,
1001
0000
0001
0100
,
0010
0000
0100
0000
,
0001
0000
0010
0100
,
1000
0000
0100
0000
,
0010
0001
0100
0010
,
1000
0000
0100
0000
,
0001
0000
0100
1000
,
0010
0000
0000
0000
,
0100
0000
0001
0010
,
0100
0000
0010
0000
,
0001
0000
0100
0010
,
1000
0000
0010
0000
,
0100
0001
0010
0100
,
1000
0000
0001
0000
,
0100
0000
0010
0000
,
1000
0000
0001
0000
,
1000
0000
0010
0000
,
0100
0001
0010
0000
,
0100
1000
0010
0000
,
0100
0001
0010
0100
,
1000
0010
0100
0001
,
0010
0100
1000
0000
,
0001
0010
0100
0000
,
0010
0100
1000
0001
,
0010
0100
1000
0001
,
0010
0100
1000
0000
,
0010
0100
0001
0000
,
1000
0010
0100
0001
,
2002
0000
0000
0000
,
3003
0000
0000
0000
;
