#VERSION:0.81;
#TITLE:ちゃんみおビーツ;
#SUBTITLE:(Remix);
#ARTIST:RYONS;
#TITLETRANSLIT:Chan-Mio Beats (Remix);
#SUBTITLETRANSLIT:;
#ARTISTTRANSLIT:;
#GENRE:;
#ORIGIN:;
#CREDIT:;
#BANNER:[You Won't See This in DDR III] - Chan-Mio Beats (Remix).png;
#BACKGROUND:[You Won't See This in DDR III] - Chan-Mio Beats (Remix)-bg.png;
#PREVIEWVID:;
#JACKET:[You Won't See This in DDR III] - Chan-Mio Beats (Remix)-jacket.png;
#CDIMAGE:;
#DISCIMAGE:;
#LYRICSPATH:;
#CDTITLE:cdtitle.png;
#MUSIC:[You Won't See This in DDR III] - Chan-Mio Beats (Remix).ogg;
#OFFSET:-0.022;
#SAMPLESTART:13.734;
#SAMPLELENGTH:12.000;
#SELECTABLE:YES;
#DISPLAYBPM:140.000;
#BPMS:0.000=140.000,
128.000=70.000,
130.000=140.000;
#STOPS:;
#DELAYS:;
#WARPS:;
#TIMESIGNATURES:0.000=4=4;
#TICKCOUNTS:0.000=4;
#COMBOS:0.000=1;
#SPEEDS:0.000=1.000=0.000=0;
#SCROLLS:0.000=1.000;
#FAKES:;
#LABELS:0.000=Song Start;
#BGCHANGES:;
#KEYSOUNDS:;
#ATTACKS:
;

//---------------dance-single - ----------------
#NOTEDATA:;
#CHARTNAME:;
#STEPSTYPE:dance-single;
#DESCRIPTION:;
#CHARTSTYLE:;
#DIFFICULTY:Hard;
#METER:8;
#RADARVALUES:0.447,0.550,0.076,0.101,0.160,350.000,9.000,12.000,258.000,0.000,20.000,0.000,0.000,0.447,0.550,0.076,0.101,0.160,350.000,9.000,12.000,258.000,0.000,20.000,0.000,0.000;
#CREDIT:;
#DISPLAYBPM:140.000;
#NOTES:
// measure 0
0000
0000
0000
0000
,  // measure 1
0000
0000
0000
0000
,  // measure 2
0000
0000
0000
0000
,  // measure 3
0000
0000
0000
0000
,  // measure 4
00M4
M100
00M0
1M00
00M0
M010
0M00
1000
,  // measure 5
0M03
0000
4M00
0010
00M0
0001
30M0
0000
,  // measure 6
0M01
M010
0100
10M0
0001
M010
0100
40M0
,  // measure 7
0M04
0M00
0M00
0M00
30M3
0000
1MM1
0000
,  // measure 8
100M
0010
010M
0000
001M
1000
0M01
0010
,  // measure 9
M100
11MM
100M
M1M1
,  // measure 10
M001
0M10
100M
0M10
M001
0M10
01M0
100M
,  // measure 11
00M1
M100
0010
100M
1M00
0M01
10M0
0M01
,  // measure 12
M010
010M
10M0
000M
M010
0100
0001
0000
,  // measure 13
100M
01M0
M001
01M0
100M
01M0
M010
0M01
,  // measure 14
10M0
0000
001M
0000
0000
1M00
0001
0000
M001
0010
0000
0M10
0100
0000
010M
1000
,  // measure 15
0000
0000
10M0
0001
0000
M001
0100
0000
010M
0010
0000
0M10
1000
0000
00M1
1000
,  // measure 16
0M01
0010
M100
0000
M010
0001
1M00
0010
,  // measure 17
010M
M1M1
M001
11MM
,  // measure 18
100M
0M10
M001
0M10
100M
0M10
01M0
0001
,  // measure 19
10M0
010M
M010
0M01
0M01
10M0
0M01
10M0
,  // measure 20
001M
0M00
001M
0M00
010M
M000
010M
M000
,  // measure 21
00M1
M000
00M1
M000
10M0
0M00
10M0
0M00
,  // measure 22
M001
0M10
M001
0M10
010M
10M0
010M
10M0
,  // measure 23
0M02
0000
0M00
M000
0M00
M000
0M00
00M0
,  // measure 24
2003
0000
0000
00M0
0000
0000
0000
0000
0000
00M0
0000
0000
3001
0000
0000
00M0
0001
0000
0000
0000
0100
00M0
0000
0000
,  // measure 25
0001
0000
0001
0000
0010
0000
0100
0000
0100
0000
1000
0000
,  // measure 26
0002
0000
0000
0000
0000
0000
0000
0000
1003
0000
0000
0010
0000
0000
0100
0000
,  // measure 27
0001
0010
0100
1000
0010
0100
00M1
1000
,  // measure 28
02M0
0000
0000
000M
0000
0000
031M
0000
0010
M000
0001
0000
,  // measure 29
0010
0000
0010
0000
0100
0000
1000
0000
1000
000M
0010
0000
,  // measure 30
M20M
0000
0000
0000
M000
0000
0000
0000
03M1
0000
0000
1000
00M0
0000
0001
0000
,  // measure 31
M100
1000
01M0
0001
M010
010M
10M0
0M01
,  // measure 32
20M0
0000
0MM0
0000
3M02
0000
0MM0
0000
10M3
0000
0000
0000
001M
0000
0100
0001
,  // measure 33
M100
0000
0001
0010
M000
0010
0100
0000
1000
0000
0000
0001
0000
0001
0100
0000
,  // measure 34
001M
0000
0000
1000
0M00
1000
0001
0000
0M10
0000
0000
0010
0M00
0000
0100
0000
,  // measure 35
1000
0000
0001
0100
0001
0000
1000
0100
1000
0000
0010
0000
0001
0000
0010
0000
,  // measure 36
1000
0001
0100
1000
0100
0001
0100
0001
,  // measure 37
0010
0001
0010
0100
1000
0010
1000
0001
,  // measure 38
0010
0000
1000
0000
0010
0000
0100
0000
2000
0000
0000
0001
0000
0000
3001
0000
,  // measure 39
01M1
0000
00M0
0000
1M10
0000
0M00
0000
00M1
0000
00M0
1000
00M0
1000
01M0
0000
,  // measure 40
M010
0000
M000
0001
M000
0001
M100
0000
0010
0000
1000
0000
0100
0000
0010
0000
,  // measure 41
0M01
10M0
0M01
10M0
0M10
M000
01M0
M001
,  // measure 42
0M10
0000
00M1
0100
10M0
0100
00M1
M100
,  // measure 43
001M
M100
00M1
M010
0100
M001
0100
M010
,  // measure 44
0001
1M00
0010
M100
0001
0010
0001
0010
,  // measure 45
0100
1000
0001
0000
1000
0010
1000
0001
,  // measure 46
0010
0100
1000
0010
020M
0000
M00M
0000
,  // measure 47
M020
0000
M30M
0000
4M30
0001
00M0
0100
,  // measure 48
00M0
0001
3M00
0010
0M00
0000
1000
0004
,  // measure 49
0100
0000
0M10
0003
4MM0
0001
0M00
0010
,  // measure 50
0M00
0001
30M0
0100
000M
0000
10M0
0004
,  // measure 51
0100
0003
0010
0000
M001
0400
M010
0000
,  // measure 52
M001
0300
0M10
1000
0M00
0000
0M04
0010
,  // measure 53
0000
1000
0003
0000
1000
0040
0100
0000
,  // measure 54
1000
0030
0100
0001
0000
0000
4000
0100
,  // measure 55
0000
0001
3000
0000
00M4
0100
00M0
1000
,  // measure 56
0M00
0010
0M00
1000
0M03
0000
4M00
0010
,  // measure 57
000M
0100
300M
0000
M004
0010
0M00
1000
,  // measure 58
00M0
0100
00M0
1000
0003
0000
4000
0100
,  // measure 59
0000
0001
3000
0000
M040
010M
M000
0M01
,  // measure 60
M000
100M
0M00
0100
M030
0000
M400
0001
,  // measure 61
000M
0010
030M
0000
M001
0M10
0100
10M0
,  // measure 62
0001
0M10
0100
40M0
004M
0M00
000M
0M00
,  // measure 63
303M
M11M
2MM2
0000
,  // measure 64
0000
0000
0000
0000
,  // measure 65
0000
3003
0000
0000
;

//---------------dance-single - ----------------
#NOTEDATA:;
#CHARTNAME:;
#STEPSTYPE:dance-single;
#DESCRIPTION:;
#CHARTSTYLE:;
#DIFFICULTY:Medium;
#METER:5;
#RADARVALUES:0.360,0.358,0.084,0.127,0.042,274.000,10.000,15.000,139.000,0.000,4.000,0.000,0.000,0.360,0.358,0.084,0.127,0.042,274.000,10.000,15.000,139.000,0.000,4.000,0.000,0.000;
#CREDIT:;
#DISPLAYBPM:140.000;
#NOTES:
0000
0000
0000
0000
,
0000
0000
0000
0000
,
0000
0000
0000
0000
,
0000
0000
0000
0000
,
00M1
00M1
00M1
1M00
,
1M00
1M00
001M
001M
,
4M00
00M4
0000
00M0
0000
00M0
0000
3M00
,
M013
010M
M010
010M
M010
0000
0110
0000
,
1M01
0001
10M0
0010
,
100M
0100
0010
0000
M001
0000
M100
0000
,
001M
0100
0001
0000
M010
0100
1000
0000
,
00M1
0100
M001
0010
M100
0010
M100
0000
,
M010
0001
1M00
0001
,
100M
0010
100M
0000
001M
0100
001M
0100
,
M001
0000
0001
0000
1M00
0010
1000
0000
,
0001
0000
0001
0000
1000
0100
1000
0000
,
101M
0000
M101
00M1
,
10M0
010M
001M
010M
,
10M0
0001
1000
0000
00M1
1000
0001
0000
,
0M10
0000
010M
1000
00M1
0100
00M1
0100
,
M010
M010
100M
100M
,
0M01
0M01
M010
M010
,
010M
1000
0100
0000
M010
0001
0010
0001
,
2M00
00M0
00M0
30M0
,
0002
0000
0000
0000
0000
0000
0103
0000
0010
0000
1000
0000
,
0001
0000
0010
0000
0100
1000
0001
0000
,
2000
0000
3010
0100
,
0001
0010
0001
0000
0010
0001
0M10
0000
,
0M02
0000
0000
0M00
0000
0000
1M03
0000
0010
0M00
1000
0000
,
0001
0000
0010
0000
0100
0000
1000
0000
0010
M000
0100
0000
,
00M2
0000
0000
00M0
0000
0000
10M3
0000
0100
00M0
1000
0000
,
0M01
0000
0100
0000
0M10
1000
0001
0000
,
20M0
3M02
1003
0000
,
1100
0000
1000
0001
1000
0000
0001
0000
,
M100
0000
0001
0000
M010
0100
1000
0000
,
0001
0010
0100
0000
0010
0000
0000
0000
,
0011
0000
0001
0000
0100
0010
1000
0000
,
0001
0100
0010
0000
1000
0100
1000
0000
,
0001
1000
0001
0000
2000
0000
0000
0000
,
302M
0M00
103M
000M
,
110M
0000
1000
0000
0001
0100
0001
0000
,
1M00
0010
1M00
0000
0M02
0000
0M00
0000
,
0M13
0001
10M0
0M10
,
1M00
0001
1M00
0000
00M1
0000
00M0
0000
,
01M1
0000
0001
0000
1000
0100
0010
0000
,
0010
0100
1000
0000
2000
0000
0000
0000
,
3001
0000
0100
0010
020M
0000
0000
0000
,
M320
0000
1030
0100
,
1000
0100
1000
0100
0000
0000
1000
0000
,
0001
1000
00M1
0000
1M00
0000
0M10
0000
,
1M00
0010
1M00
0010
0M00
0000
1000
0001
,
0100
0001
0100
0000
M001
0000
M010
0000
,
M001
0010
M001
0010
M000
0000
0001
0000
,
1000
0001
1000
0000
0001
0000
0100
0000
,
0001
0100
0001
0100
0000
0000
0001
1000
,
0010
1000
0010
0000
100M
0000
100M
0000
,
M100
M100
M100
M100
,
10M0
10M0
10M0
10M0
,
00M1
0000
0100
0000
0010
0000
1000
0001
,
1000
0001
1000
0000
0M01
0000
0M01
0000
,
0M01
10M0
10M0
10M0
,
001M
0000
001M
0000
4M00
0004
00M0
0000
,
00M0
0000
00M0
3M00
M013
010M
M010
010M
,
M010
0110
2002
0000
,
0000
0000
0000
0000
,
0000
3003
0000
0000
;

//---------------dance-single - ----------------
#NOTEDATA:;
#CHARTNAME:;
#STEPSTYPE:dance-single;
#DESCRIPTION:;
#CHARTSTYLE:;
#DIFFICULTY:Easy;
#METER:3;
#RADARVALUES:0.258,0.275,0.127,0.093,0.000,188.000,15.000,11.000,84.000,0.000,0.000,0.000,0.000,0.258,0.275,0.127,0.093,0.000,188.000,15.000,11.000,84.000,0.000,0.000,0.000,0.000;
#CREDIT:;
#DISPLAYBPM:140.000;
#NOTES:
0000
0000
0000
0000
,
0000
0000
0000
0000
,
0000
0000
0000
0000
,
0000
0000
0000
0000
,
00M1
0001
0001
1M00
,
1000
0M00
00M1
0001
,
M010
010M
M010
010M
,
M020
0000
0031
1000
,
1001
0000
0001
M100
,
0001
0000
1000
010M
,
100M
1000
0000
1000
,
00M1
1000
001M
001M
,
M100
0000
0100
0001
,
10M0
0M01
10M0
0M01
,
0010
M000
0010
0100
,
1000
000M
1000
0001
,
1000
00M0
1000
001M
,
0100
00M0
0100
0001
,
1M00
1000
0000
0001
,
M100
00M1
1M00
00M1
,
1M00
1000
1000
1000
,
0001
0001
0001
0001
,
M100
001M
M100
001M
,
M200
00M0
0000
03M0
,
M001
0000
M101
0000
,
1000
0000
1100
0000
,
0001
0000
0101
0100
,
0001
1000
1001
0M00
,
0001
0M00
0011
0000
,
1000
0000
1010
000M
,
0M01
0000
0M11
0010
,
0M01
1000
001M
0010
,
2M00
30M2
1003
0000
,
1100
0100
1000
0000
,
10M1
0001
01M0
0000
,
0010
0100
0001
0000
,
0011
0000
0010
0001
,
1000
0000
0010
0000
,
1010
0000
2000
0M00
,
30M2
0000
10M3
0100
,
10M0
0000
0001
0100
,
M001
0100
M001
0000
,
1001
10M0
0100
001M
,
0100
M010
0M01
0000
,
1M01
0000
0001
0100
,
0001
0000
1000
0010
,
1000
0001
2M00
0000
,
30M2
0000
10M3
1000
,
0100
0100
0000
0100
,
0010
M001
0001
M001
,
0001
M001
0000
0001
,
0100
0100
001M
0010
,
100M
1000
0000
1000
,
0001
0001
0001
0001
,
0010
0010
0000
0010
,
0100
0100
10M0
1000
,
0M01
0001
0000
0100
,
M010
0010
M000
0100
,
M001
0001
0000
1000
,
0001
1000
00M1
0001
,
0001
1M00
1000
0M00
,
00M1
0001
M010
010M
,
M010
010M
M020
0000
,
0031
1000
2002
0000
,
0000
0000
0000
0000
,
0000
3003
0000
0000
;
