#VERSION:0.81;
#TITLE:1989;
#SUBTITLE:;
#ARTIST:Mindless Self Indulgence;
#TITLETRANSLIT:;
#SUBTITLETRANSLIT:;
#ARTISTTRANSLIT:;
#GENRE:;
#ORIGIN:;
#CREDIT:;
#BANNER:;
#BACKGROUND:;
#PREVIEWVID:;
#JACKET:;
#CDIMAGE:;
#DISCIMAGE:;
#LYRICSPATH:;
#CDTITLE:;
#MUSIC:1989.ogg;
#OFFSET:-7.980;
#SAMPLESTART:25.935;
#SAMPLELENGTH:15.652;
#SELECTABLE:YES;
#DISPLAYBPM:184.000;
#BPMS:0.000=184.000,
152.000=368.000,
156.000=184.000;
#STOPS:;
#DELAYS:;
#WARPS:;
#TIMESIGNATURES:0.000=4=4;
#TICKCOUNTS:0.000=4;
#COMBOS:0.000=1;
#SPEEDS:0.000=1.000=0.000=0;
#SCROLLS:0.000=1.000;
#FAKES:;
#LABELS:0.000=Song Start;
#BGCHANGES:;
#KEYSOUNDS:;
#ATTACKS:
;

//---------------dance-single - ----------------
#NOTEDATA:;
#CHARTNAME:;
#STEPSTYPE:dance-single;
#DESCRIPTION:;
#CHARTSTYLE:;
#DIFFICULTY:Easy;
#METER:4;
#RADARVALUES:0.297,0.335,0.253,0.076,0.000,138.000,20.000,6.000,0.000,0.000,0.000,0.000,0.000,0.297,0.335,0.253,0.076,0.000,138.000,20.000,6.000,0.000,0.000,0.000,0.000,0.000;
#CREDIT:;
#OFFSET:-7.980;
#BPMS:0.000=184.000
;
#STOPS:;
#DELAYS:;
#WARPS:;
#TIMESIGNATURES:0.000=4=4
;
#TICKCOUNTS:0.000=4
;
#COMBOS:0.000=1
;
#SPEEDS:0.000=1.000=0.000=0
;
#SCROLLS:0.000=1.000
;
#FAKES:;
#LABELS:0.000=Song Start
;
#DISPLAYBPM:184.000;
#NOTES:
0010
0000
1000
0000
,
0001
0010
0100
0000
,
0110
0000
0000
0000
,
1001
0000
0000
0000
,
0010
0100
0001
1000
,
0100
0010
0001
1000
,
1001
0000
0010
0000
,
0200
0000
0000
0300
,
0001
0010
0100
1000
,
0001
0100
0010
1000
,
0001
0001
0010
0010
,
0100
0100
1000
0001
,
1000
0010
0100
1000
,
0100
0001
0010
0100
,
1000
1000
0001
0001
,
0100
0100
0010
0010
,
0110
0000
1001
0000
,
0011
0000
1100
0000
,
0001
0000
0001
0000
,
1000
0000
1000
0000
,
0010
0000
0100
0000
,
0101
0000
1010
0000
,
1001
0000
0100
0000
,
0010
0000
0001
0000
,
1001
0000
0010
0000
,
0200
0000
0000
0300
,
0001
0000
0000
1000
0000
0000
0001
0000
,
0010
0100
1000
0020
,
0000
0000
0030
0100
,
0000
0001
0000
1000
,
0000
0100
0000
0010
,
0000
0001
0000
1000
,
0000
0010
0000
0200
,
0000
0000
0300
0001
,
0000
1000
0000
0000
0001
0000
0010
0000
,
0100
1000
0002
0000
,
0000
0003
0100
0100
,
0010
0010
2000
0000
,
3000
0000
0000
0000
,
0001
0000
0100
0000
,
0010
0000
1000
0000
,
0001
0010
0001
1000
,
0010
0100
0110
0110
,
0010
1000
0100
0100
,
1000
0001
0010
0010
,
0001
0100
1000
0100
,
0010
1000
0001
0010
,
0110
0000
1001
0000
,
0101
0000
1010
0000
,
0010
0000
0100
0000
,
0001
0000
1000
0000
,
0100
0000
0010
0000
,
0011
0000
1100
0000
,
1001
0000
0000
0000
;

//---------------dance-single - ----------------
#NOTEDATA:;
#CHARTNAME:;
#STEPSTYPE:dance-single;
#DESCRIPTION:;
#CHARTSTYLE:;
#DIFFICULTY:Medium;
#METER:6;
#RADARVALUES:0.420,0.403,0.557,0.190,0.000,173.000,44.000,15.000,0.000,0.000,0.000,0.000,0.000,0.420,0.403,0.557,0.190,0.000,173.000,44.000,15.000,0.000,0.000,0.000,0.000,0.000;
#CREDIT:;
#OFFSET:-2.800;
#BPMS:0.000=184.000
;
#STOPS:;
#DELAYS:;
#WARPS:;
#TIMESIGNATURES:0.000=4=4
;
#TICKCOUNTS:0.000=4
;
#COMBOS:0.000=1
;
#SPEEDS:0.000=1.000=0.000=0
;
#SCROLLS:0.000=1.000
;
#FAKES:;
#LABELS:0.000=Song Start
;
#DISPLAYBPM:184.000;
#NOTES:
0010
1000
0001
0010
,
0100
0000
0000
1000
0000
0000
0001
0000
,
0100
0010
0100
0001
,
0010
0000
0000
0100
0000
1000
0000
0000
,
1100
0001
0101
1000
,
1100
0001
0011
1000
,
1020
0000
0130
0000
,
0002
0000
0000
0000
,
1003
0100
1000
0010
,
0100
0000
0000
0001
0000
0000
0100
0000
,
0010
1000
0001
0010
,
0100
1000
1100
0011
,
0100
0010
0001
1000
,
0010
0000
0000
0100
0000
0000
0010
0000
,
1000
1100
0001
0101
,
1000
1010
0001
0011
,
0110
0100
1000
0001
,
0200
0000
0320
0000
,
0130
0000
0000
0110
0000
0000
1001
0000
,
0100
0000
0000
0011
0000
0000
1100
0000
,
0001
0100
1000
0100
,
0020
0000
0000
0000
1000
1000
0030
0000
,
1001
0000
0000
1001
0000
0000
1001
0000
,
0110
0000
0000
0110
0000
0000
0110
0000
,
1010
0000
0000
0101
0000
0000
0011
0000
,
2200
0000
3300
0000
,
1000
0000
0000
0001
0000
0000
1000
0010
,
0100
0001
0010
0200
,
0000
0000
0300
1000
,
0100
1000
0001
0100
,
0000
0010
0000
0000
0110
0000
0001
0000
,
0000
1000
0000
0000
1001
0000
0100
0000
,
0000
0010
0000
0000
0110
0000
2002
0000
,
0000
0000
3003
0011
,
0000
1100
0000
0000
0001
0100
0010
0000
,
1000
0100
0020
0000
,
0000
0000
0030
0000
0001
0100
0001
0100
,
0010
1000
0010
1000
0002
0000
0000
0000
,
0003
0000
0000
0000
,
1000
0010
0100
0001
,
0010
0000
0000
0100
0000
0000
0010
0000
,
0001
1000
0010
0100
,
0001
0010
0011
1100
,
0001
0100
0010
0100
,
0001
0000
0000
1000
0000
0000
0100
0000
,
0010
0110
0001
0011
,
1000
1100
0001
0101
,
0110
1000
0001
0010
,
0200
0000
2300
0000
,
3001
0000
0000
0011
0000
0000
1100
0000
,
1000
0000
0000
1010
0000
0000
0101
0000
,
0001
0010
0100
1000
,
0020
0000
0000
0000
0100
0100
0030
0000
,
1001
0000
0000
0000
;

//---------------dance-single - ----------------
#NOTEDATA:;
#CHARTNAME:;
#STEPSTYPE:dance-single;
#DESCRIPTION:;
#CHARTSTYLE:;
#DIFFICULTY:Hard;
#METER:8;
#RADARVALUES:0.533,0.537,0.835,0.190,0.000,214.000,66.000,15.000,0.000,0.000,0.000,0.000,0.000,0.533,0.537,0.835,0.190,0.000,214.000,66.000,15.000,0.000,0.000,0.000,0.000,0.000;
#CREDIT:;
#OFFSET:-8.000;
#BPMS:0.000=184.000
,152.000=368.000
,156.000=184.000
;
#STOPS:;
#DELAYS:;
#WARPS:;
#TIMESIGNATURES:0.000=4=4
;
#TICKCOUNTS:0.000=4
;
#COMBOS:0.000=1
;
#SPEEDS:0.000=1.000=0.000=0
;
#SCROLLS:0.000=1.000
;
#FAKES:;
#LABELS:0.000=Song Start
;
#DISPLAYBPM:184.000;
#NOTES:
1010
0100
0011
0100
,
1100
1000
0000
0001
0000
0100
0010
0000
,
0100
0100
0110
1000
,
0001
0010
0000
0100
0000
1000
0000
0000
,
1100
0011
1100
1001
,
0101
0110
0101
1010
,
1001
0000
0100
0000
,
0020
0000
0000
0000
,
0031
0100
1000
0100
,
0010
1000
0000
1001
0000
0000
0001
0010
,
0100
1000
0000
0001
0000
0100
0010
0100
,
0001
1000
0100
0010
0011
0000
0011
0000
,
0010
0000
0100
0000
1000
0000
0001
0100
,
0010
1000
0000
0001
0000
0001
0010
0100
,
1000
0001
0000
0100
0000
0010
0100
0001
,
1000
0100
0010
0001
1000
0010
0100
0001
,
1000
0100
0020
0001
,
0230
0000
1300
0001
,
0011
0000
0000
1100
0000
0000
1001
0000
,
0101
0000
0000
0110
0000
0000
1010
0000
,
0001
0010
0100
1000
,
0020
0000
0000
0000
0100
0100
0030
0000
,
0110
0000
0000
1001
0000
0000
0011
0000
,
1100
0000
0000
1001
0000
0000
0101
0000
,
0110
0000
0000
1010
0000
0000
1001
0000
,
0220
0000
0000
0330
,
1001
0000
0000
0110
0000
0010
0100
1000
,
0001
0100
0010
0220
,
0000
0000
0000
0000
0330
0000
0010
0100
,
0010
0100
0001
1000
0001
1000
1100
0000
,
0000
1001
0000
0000
0101
0000
0011
0000
,
0000
1100
0000
0000
1001
0000
0101
0000
,
0000
0110
0000
0000
1010
0000
2002
0000
,
0000
0000
3003
1100
,
0000
0011
0000
0001
0100
1000
0100
0000
,
0010
1000
0002
0000
,
0000
0000
0003
0000
0010
0100
0010
0100
,
1000
0001
1000
0001
0200
0000
0000
0000
,
0300
0000
0000
0000
,
0110
1001
0011
1100
,
0001
0100
0000
0110
0000
0000
0010
1000
,
0001
0010
0000
0011
0000
0010
0100
1000
,
0001
0100
0010
0100
0101
0000
1001
0000
,
1000
0000
1100
0000
1001
0000
0001
0100
,
0010
1000
0000
1010
0000
0000
0010
1000
,
0001
0010
0000
0011
0000
0100
1000
0001
,
0100
0010
0100
0001
0010
1000
0010
0100
,
1000
0001
0020
0001
,
0230
0000
1000
0300
,
1100
0000
0000
0101
0000
0000
1100
0000
,
0011
0000
0000
1010
0000
0000
0011
0000
,
0001
0100
0010
1000
,
0002
0000
0000
0000
1000
1000
0003
0000
,
1001
0000
0000
0000
;

//---------------dance-single - ----------------
#NOTEDATA:;
#CHARTNAME:;
#STEPSTYPE:dance-single;
#DESCRIPTION:;
#CHARTSTYLE:;
#DIFFICULTY:Beginner;
#METER:1;
#RADARVALUES:0.127,0.134,0.139,0.063,0.000,54.000,11.000,5.000,0.000,0.000,0.000,0.000,0.000,0.127,0.134,0.139,0.063,0.000,54.000,11.000,5.000,0.000,0.000,0.000,0.000,0.000;
#CREDIT:;
#DISPLAYBPM:184.000;
#NOTES:
// measure 0
0001
0000
0000
0000
,  // measure 1
0001
0000
0000
0000
,  // measure 2
1001
0000
0000
0000
,  // measure 3
0110
0000
0000
0000
,  // measure 4
0010
0000
0010
0000
,  // measure 5
0010
0000
0010
0000
,  // measure 6
0020
0000
0030
0000
,  // measure 7
0000
0000
0000
0000
,  // measure 8
0100
0000
0000
0000
,  // measure 9
0100
0000
0000
0000
,  // measure 10
0001
0000
0000
0000
,  // measure 11
0001
0000
0000
0000
,  // measure 12
1000
0000
0000
0000
,  // measure 13
1000
0000
0000
0000
,  // measure 14
0100
0000
0000
0000
,  // measure 15
0100
0000
0000
0000
,  // measure 16
0110
0000
0000
0000
,  // measure 17
1001
0000
0000
0000
,  // measure 18
0010
0000
0000
0000
,  // measure 19
0100
0000
0000
0000
,  // measure 20
0110
0000
0000
0000
,  // measure 21
1001
0000
0000
0000
,  // measure 22
0001
0000
0000
0000
,  // measure 23
1000
0000
0000
0000
,  // measure 24
0001
0000
0000
0000
,  // measure 25
2000
0000
3000
0000
,  // measure 26
1000
0000
0000
0000
,  // measure 27
0001
0000
0000
0002
,  // measure 28
0000
0003
0000
0001
,  // measure 29
0000
0000
0000
0001
,  // measure 30
0000
0000
0000
1000
,  // measure 31
0000
0000
0000
0001
,  // measure 32
0000
0000
0000
2000
,  // measure 33
0000
3000
0000
1000
,  // measure 34
0000
0000
0000
0001
,  // measure 35
0000
0000
0002
0000
,  // measure 36
0003
0000
0010
0000
,  // measure 37
0000
0000
0010
0000
,  // measure 38
0000
0000
0000
0000
,  // measure 39
0000
0000
0000
0000
,  // measure 40
0100
0000
0000
0000
,  // measure 41
1000
0000
0000
0000
,  // measure 42
0001
0000
0000
0000
,  // measure 43
0100
0000
0000
0000
,  // measure 44
0010
0000
0000
0000
,  // measure 45
1000
0000
0000
0000
,  // measure 46
0001
0000
0000
0000
,  // measure 47
1001
0000
0000
0000
,  // measure 48
0110
0000
0000
0000
,  // measure 49
0010
0000
0000
0000
,  // measure 50
0100
0000
0000
0000
,  // measure 51
0110
0000
0000
0000
,  // measure 52
1001
0000
0000
0000
,  // measure 53
0110
0000
0000
0000
;
