#TITLE:otome;
#SUBTITLE:;
#ARTIST:suzumetune;
#TITLETRANSLIT:;
#SUBTITLETRANSLIT:;
#ARTISTTRANSLIT:;
#CREDIT:Akane;
#BANNER:otome.png;
#BACKGROUND:otome-bg.png;
#LYRICSPATH:;
#CDTITLE:;
#MUSIC:otome.mp3;
#OFFSET:-0.109;
#SAMPLESTART:61.660;
#SAMPLELENGTH:17.220;
#SELECTABLE:YES;
#BPMS:0.000=147.000;
#STOPS:;
#BGCHANGES:;

//---------------dance-single - ----------------
#NOTES:
     dance-single:
     :
     Hard:
     8:
     0.637,0.671,0.344,0.579,0.110: // measure 1
0000
0000
0000
0000
,  // measure 2
0000
0000
0000
0000
,  // measure 3
0000
0000
0000
0000
,  // measure 4
0000
0000
0000
0000
,  // measure 5
1002
0000
0103
0000
0001
0100
0010
2000
,  // measure 6
0000
0000
0100
0000
3100
0000
0002
0000
0000
0000
0100
0000
0103
0000
1000
0001
,  // measure 7
2000
0000
3001
0000
1000
0100
0010
0002
,  // measure 8
0000
0000
0100
0000
0103
0000
2000
0000
0000
0000
0100
0000
3100
0001
1000
0000
,  // measure 9
0002
0000
0103
0000
0001
0010
0100
2000
,  // measure 10
0000
0000
0010
0000
3010
0000
0002
0000
0000
0000
0010
0000
0013
0000
1000
0001
,  // measure 11
2000
0000
3001
0000
1000
0010
0100
0002
,  // measure 12
0000
0000
0010
0000
0013
0000
2000
0000
0000
0000
0010
0000
3010
0001
1000
0000
,  // measure 13
0101
0000
1100
0000
0001
0010
0100
2000
,  // measure 14
0000
3010
0000
0002
0000
0013
0100
0001
,  // measure 15
1000
0000
0001
0100
0010
0000
0100
0002
,  // measure 16
0000
0103
1000
0100
0010
1000
0001
0100
,  // measure 17
1010
0000
0011
0000
1000
0100
0010
0002
,  // measure 18
0000
0103
0000
2000
0000
3100
0010
1000
,  // measure 19
0001
0000
1000
0100
0001
0100
0010
0002
,  // measure 20
0000
0000
1003
0000
0010
0000
0100
0000
0001
0000
0001
0000
1000
0001
0100
0000
,  // measure 21
1010
0000
0011
0000
1000
0100
0010
0002
,  // measure 22
0000
0103
0000
2000
0000
3100
0010
1000
,  // measure 23
0001
0000
1000
0010
0100
0010
1000
0002
,  // measure 24
0000
0013
0001
0010
0100
1000
0010
0100
,  // measure 25
0101
0000
1100
0000
0001
0010
0100
2000
,  // measure 26
0000
3010
0000
0002
0000
0013
0100
0001
,  // measure 27
1000
0001
1000
0100
0001
0100
0010
0002
,  // measure 28
0000
0000
0100
0000
0100
0000
0103
0000
0001
0000
1000
0000
0100
0010
0001
0000
,  // measure 29
1100
0000
0101
0000
1000
0001
1000
0000
,  // measure 30
1010
1010
0000
0012
0000
1003
0010
0100
,  // measure 31
0002
1000
0010
0103
,  // measure 32
2000
0001
0100
3010
,  // measure 33
0101
0000
1100
0000
0001
1000
0001
0000
,  // measure 34
0011
0011
0000
2010
0000
3001
0010
0100
,  // measure 35
2000
0001
0100
3010
,  // measure 36
0002
1000
0010
0103
,  // measure 37
2001
0001
0010
3100
,  // measure 38
1000
0100
0001
0010
1000
0000
0101
0000
,  // measure 39
2100
0000
0000
0000
3001
0000
1000
0010
1000
0000
0001
0000
1000
0000
0200
0000
,  // measure 40
0000
0010
0310
0002
0000
1000
1003
0000
,  // measure 41
0102
0000
0000
0000
1003
0000
0001
0010
0001
0000
1000
0000
0001
0000
0200
0000
,  // measure 42
0000
0010
0310
2000
0000
0001
3001
0000
,  // measure 43
0012
0000
0000
0000
1003
0000
0001
0100
0001
0000
1000
0000
0001
0000
0020
0000
,  // measure 44
0000
0100
0130
2000
0000
0001
3001
0000
,  // measure 45
2010
0000
0000
0000
3001
0000
1000
0100
1000
0000
0001
0000
1000
0000
0020
0000
,  // measure 46
0000
0000
0100
0000
0130
0000
0001
0100
0001
0000
1000
0000
0100
1000
0100
0000
,  // measure 47
1002
0000
0103
0000
0001
0100
0010
2000
,  // measure 48
0000
0000
0100
0000
3100
0000
0002
0000
0000
0000
0100
0000
0103
0000
1000
0001
,  // measure 49
2000
0000
3001
0000
1000
0100
0010
0002
,  // measure 50
0000
0000
0100
0000
0103
0000
2000
0000
0000
0000
0100
0000
3100
0001
1000
0000
,  // measure 51
0002
0000
0103
0000
0001
0010
0100
2000
,  // measure 52
0000
0000
0010
0000
3010
0000
0002
0000
0000
0000
0010
0000
0013
0000
1000
0001
,  // measure 53
2000
0000
3001
0000
1000
0010
0100
0002
,  // measure 54
0000
0000
0010
0000
0013
0000
2000
0000
0000
0000
0010
0000
3010
0001
1000
0000
,  // measure 55
0101
0000
0000
0000
0000
1100
0000
1001
,  // measure 56
0000
0000
0000
0000
0000
0000
0010
0000
0000
0100
0000
0000
0010
0000
0000
0000
0000
0000
0000
0000
0000
0000
0000
0000
1001
0000
0000
0000
0000
0000
0100
0000
0010
0000
0100
0000
0010
0000
0000
0000
0000
0000
1000
0000
0000
0000
0000
0000
,  // measure 57
0001
0001
0010
0010
0100
0100
1000
1000
,  // measure 58
0001
0100
1000
0100
0010
1000
0001
1001
,  // measure 59
0000
0000
0000
0000
0101
0000
0000
0000
2100
0000
0000
0000
3001
0000
1000
0010
,  // measure 60
1000
0001
1000
0200
0000
0010
0310
0002
,  // measure 61
0000
0000
1000
0000
1003
0000
0000
0000
0102
0000
0000
0000
1003
0000
0001
0010
,  // measure 62
0001
1000
0001
0200
0000
0010
0310
2000
,  // measure 63
0000
0000
0001
0000
3001
0000
0000
0000
0012
0000
0000
0000
1003
0000
0001
0100
,  // measure 64
0001
1000
0001
0020
0000
0100
0130
2000
,  // measure 65
0000
0000
0001
0000
3001
0000
0000
0000
2010
0000
0000
0000
3001
0000
1000
0100
,  // measure 66
1000
0000
0001
0000
1000
0000
0020
0000
0000
0000
0100
0000
0130
0000
0001
0100
,  // measure 67
0001
0000
1000
0000
0100
1000
0100
0000
1002
0000
0000
0000
0103
0000
0000
0000
,  // measure 68
0001
0010
1000
0020
0000
0130
1000
0001
,  // measure 69
0100
1000
0100
0010
2000
0000
3001
0100
,  // measure 70
0010
0001
0000
0020
0000
0130
0010
1000
,  // measure 71
0100
0000
0010
0000
0011
0000
0000
0000
2001
0000
0000
0000
3100
0000
1000
0010
,  // measure 72
1000
0010
0100
0002
0100
0000
1000
0000
,  // measure 73
0013
0001
0010
0100
1100
0000
0101
0000
,  // measure 74
1000
0100
0010
0002
0000
0103
0100
1000
,  // measure 75
0100
0000
0010
1000
0001
1000
0001
0000
0101
0000
0000
0000
0000
0000
0000
0000
,  // measure 76
0000
1100
0000
2002
0000
0000
0000
0000
,  // measure 77
0000
0000
0000
0000
,  // measure 78
0000
0000
0000
0000
,  // measure 79
3003
0000
0000
0000
;

//---------------dance-single - ----------------
#NOTES:
     dance-single:
     :
     Easy:
     4:
     0.286,0.275,0.000,0.016,0.000: // measure 1
0000
0000
0000
0000
,  // measure 2
0000
0000
0000
0000
,  // measure 3
0000
0000
0000
0000
,  // measure 4
0000
0000
0000
0000
,  // measure 5
1000
0010
1000
0100
,  // measure 6
1000
0001
1000
1000
,  // measure 7
0001
0010
0001
0100
,  // measure 8
0001
1000
0001
0001
,  // measure 9
1000
0010
0001
0010
,  // measure 10
0100
0001
1000
1000
,  // measure 11
0001
0010
1000
0010
,  // measure 12
0100
1000
0001
0001
,  // measure 13
1000
0000
0010
0000
,  // measure 14
0100
0001
0010
0001
,  // measure 15
0100
0000
0010
0000
,  // measure 16
1000
0100
1000
0010
,  // measure 17
1000
0000
0001
0000
,  // measure 18
1000
0100
0001
0100
,  // measure 19
0010
0000
0001
0000
,  // measure 20
1000
0010
0001
0000
,  // measure 21
0010
0000
0100
0000
,  // measure 22
0001
0100
1000
0100
,  // measure 23
0010
0000
1000
0000
,  // measure 24
0001
0010
1000
0010
,  // measure 25
0100
0000
1000
0000
,  // measure 26
0001
0100
1000
0100
,  // measure 27
0010
0000
1000
0000
,  // measure 28
0001
0010
0100
0000
,  // measure 29
1000
0010
0100
0001
,  // measure 30
1000
1000
0100
0010
,  // measure 31
0001
0001
0010
0010
,  // measure 32
0100
0100
1000
1000
,  // measure 33
0001
0100
0010
1000
,  // measure 34
0010
0010
0100
0001
,  // measure 35
1000
1000
0100
0100
,  // measure 36
0010
0010
0001
0001
,  // measure 37
1000
0010
0100
0001
,  // measure 38
1000
1000
0001
0000
,  // measure 39
1000
0010
0100
1000
,  // measure 40
0100
0010
1000
0000
,  // measure 41
0001
0010
0100
0010
,  // measure 42
0001
0100
0010
0000
,  // measure 43
0001
0100
1000
0100
,  // measure 44
0010
1000
0001
0000
,  // measure 45
1000
0100
0001
0100
,  // measure 46
0010
0001
1000
0000
,  // measure 47
0001
0100
0010
1000
,  // measure 48
0010
0100
0001
0001
,  // measure 49
1000
0100
0010
0001
,  // measure 50
0010
0100
1000
1000
,  // measure 51
0001
0100
1000
0100
,  // measure 52
0010
1000
0001
0001
,  // measure 53
1000
0100
0001
0100
,  // measure 54
0010
0001
1000
1000
,  // measure 55
0010
0000
0000
0000
0000
0100
0000
0001
,  // measure 56
0000
0000
0000
2000
0000
0000
3001
0000
,  // measure 57
1000
0010
0100
0001
,  // measure 58
0100
0000
0010
0000
1000
0000
0001
0001
,  // measure 59
0000
0000
1000
0010
,  // measure 60
0100
0010
1000
0001
,  // measure 61
0100
0000
0001
0010
,  // measure 62
0100
0010
0001
1000
,  // measure 63
0010
0000
1000
0010
,  // measure 64
0100
1000
0100
0001
,  // measure 65
0100
0000
0010
1000
,  // measure 66
0100
0001
0100
0010
,  // measure 67
0001
0000
1000
0010
,  // measure 68
0001
0010
0100
0001
,  // measure 69
1000
1000
0001
0010
,  // measure 70
1000
0010
0100
1000
,  // measure 71
0001
0001
1000
0010
,  // measure 72
0001
0010
0100
0001
,  // measure 73
1000
1000
0010
0100
,  // measure 74
1000
0100
0010
1000
,  // measure 75
0001
0001
0010
0000
,  // measure 76
0000
0100
0000
2000
0000
0000
0000
0000
,  // measure 77
0000
0000
0000
0000
,  // measure 78
0000
0000
0000
0000
,  // measure 79
3000
0000
0000
0000
;

//---------------dance-single - ----------------
#NOTES:
     dance-single:
     :
     Medium:
     6:
     0.490,0.519,0.196,0.485,0.000: // measure 1
0000
0000
0000
0000
,  // measure 2
0000
0000
0000
0000
,  // measure 3
0000
0000
0000
0000
,  // measure 4
0000
0000
0000
0000
,  // measure 5
1000
0000
0100
0000
0010
0001
0010
0001
,  // measure 6
0000
0100
0001
0000
1000
0000
1001
0000
,  // measure 7
1000
0000
0010
0000
0100
0001
0100
0001
,  // measure 8
0000
1000
0001
0000
1000
0000
1001
0000
,  // measure 9
0001
0000
0010
0000
0100
1000
0100
1000
,  // measure 10
0000
0100
0010
0000
0001
0000
1001
0000
,  // measure 11
1000
0000
0010
0000
0100
0001
0100
0001
,  // measure 12
0000
0010
0100
0000
1000
0000
1001
0000
,  // measure 13
0002
0000
0023
0000
0230
0000
1300
0002
,  // measure 14
0000
0203
0000
0320
0000
1000
1030
0000
,  // measure 15
0001
0000
0010
0000
0100
0000
1000
0001
,  // measure 16
0000
0100
0010
0000
1000
0001
1000
0000
,  // measure 17
0002
0000
0023
0000
0230
0000
1300
0002
,  // measure 18
0000
0203
0000
0320
0000
1000
1030
0000
,  // measure 19
0001
0000
1000
0000
0100
0000
0010
0001
,  // measure 20
0000
0100
0010
1000
0000
0010
0100
0000
,  // measure 21
0002
0000
0023
0000
2030
0000
3010
0200
,  // measure 22
0000
2300
0000
3002
0000
0100
0103
0000
,  // measure 23
0001
0000
0010
0000
0100
0000
1000
0010
,  // measure 24
0000
0100
0001
0000
1000
0100
0010
0000
,  // measure 25
0002
0000
0023
0000
0230
0000
1300
0020
,  // measure 26
0000
0230
0000
0302
0000
1000
1003
0000
,  // measure 27
0001
0000
1000
0000
0100
0000
0010
0100
,  // measure 28
0000
1000
0001
0000
0100
0010
0100
0000
,  // measure 29
0002
0203
0320
2030
,  // measure 30
3001
1000
0000
1001
0000
1000
0001
0000
,  // measure 31
2000
3020
0230
0320
,  // measure 32
2030
3200
0320
0230
,  // measure 33
1300
0010
0100
0001
,  // measure 34
1000
0001
0000
0100
0000
0001
1000
0000
,  // measure 35
0002
0023
0230
0320
,  // measure 36
0032
0203
0320
0230
,  // measure 37
0302
0023
0230
2300
,  // measure 38
3001
1000
0000
0010
0100
0000
0101
0000
,  // measure 39
1000
0010
1000
0000
1000
0001
1000
0000
,  // measure 40
1000
0100
1000
0000
0001
0000
1001
0000
,  // measure 41
0001
0010
0001
0000
0001
1000
0001
0000
,  // measure 42
0001
0100
0001
0000
1000
0000
1001
0000
,  // measure 43
1000
0010
0001
0000
0001
0010
1000
0000
,  // measure 44
1000
0100
0001
0000
0100
0000
1001
0000
,  // measure 45
1000
0010
0001
0000
1000
0100
0001
0000
,  // measure 46
1000
0100
0010
0001
0010
0100
1000
0000
,  // measure 47
1001
0000
0010
0000
0100
1000
0100
1000
,  // measure 48
0000
0010
1000
0000
0001
0000
1001
0000
,  // measure 49
0001
0000
0100
0000
0010
1000
0010
1000
,  // measure 50
0000
0001
1000
0000
0001
0000
1001
0000
,  // measure 51
1000
0000
0100
0000
0010
0001
0010
0001
,  // measure 52
0000
0010
0100
0000
1000
0000
1001
0000
,  // measure 53
0001
0000
0100
0000
0010
1000
0010
1000
,  // measure 54
0000
0100
0010
0000
0001
0000
1001
0000
,  // measure 55
0101
0000
0000
0000
0000
1100
0000
0101
,  // measure 56
0000
1000
1000
0000
0000
0001
0001
0000
,  // measure 57
1000
0010
1000
0000
0010
0001
0010
0000
,  // measure 58
0001
0100
0001
0000
0100
1000
0001
1000
,  // measure 59
0000
0000
0101
0000
1000
0010
1000
0000
,  // measure 60
1000
0001
1000
0000
1000
0100
1000
0000
,  // measure 61
0001
0000
1001
0000
0001
0010
0001
0000
,  // measure 62
0001
1000
0001
0000
0001
0100
0001
0000
,  // measure 63
1000
0000
1001
0000
1000
0010
0001
0000
,  // measure 64
0001
0010
1000
0000
1000
0100
0001
0000
,  // measure 65
0100
0000
1001
0000
1000
0010
0001
0000
,  // measure 66
1000
0100
0001
0000
1000
0100
0010
0001
,  // measure 67
0010
0100
1000
0000
2001
0000
3010
0000
,  // measure 68
0002
0013
2000
3100
,  // measure 69
0010
0100
0010
0000
0002
0000
0103
0000
,  // measure 70
2000
3100
0002
0013
,  // measure 71
0100
0010
0100
0000
2000
0000
3010
0000
,  // measure 72
0200
1300
0002
0013
,  // measure 73
0100
0001
1000
0000
0002
0000
0013
0000
,  // measure 74
2000
3001
0200
1300
,  // measure 75
0001
0100
0010
0000
1010
0000
0000
0000
,  // measure 76
0000
0011
0000
2002
0000
0000
0000
0000
,  // measure 77
0000
0000
0000
0000
,  // measure 78
0000
0000
0000
0000
,  // measure 79
3003
0000
0000
0000
;
