#TITLE:Y2Z;
#SUBTITLE:;
#ARTIST:Affinity;
#TITLETRANSLIT:;
#SUBTITLETRANSLIT:;
#ARTISTTRANSLIT:;
#GENRE:;
#CREDIT:;
#BANNER:[High Speed] - Y2Z.png;
#BACKGROUND:[High Speed] - Y2Z-bg.png;
#LYRICSPATH:;
#CDTITLE:;
#MUSIC:[High Speed] - Y2Z.mp3;
#OFFSET:-5.890000;
#SAMPLESTART:29.593702;
#SAMPLELENGTH:11.666666;
#SELECTABLE:YES;
#BPMS:0.000000=162.000000
;
#STOPS:
;
#BGCHANGES:;
#KEYSOUNDS:;
#ATTACKS:;

//---------------dance-single - ----------------
#NOTES:
     dance-single:
     :
     Easy:
     4:
     0.239048,0.215584,0.112925,0.112925,0.000000,141.000000,11.000000,11.000000,0.000000,0.000000,0.000000,0.239048,0.215584,0.112925,0.112925,0.000000,141.000000,11.000000,11.000000,0.000000,0.000000,0.000000:
// measure 0
0010
0000
0010
0000
,  // measure 1
1000
0000
1000
0000
,  // measure 2
0001
0000
0001
0000
,  // measure 3
0100
0000
0100
0000
,  // measure 4
0001
0000
0001
0000
,  // measure 5
0010
0000
0010
0000
,  // measure 6
0100
0000
0100
0000
,  // measure 7
2000
0000
3000
0000
,  // measure 8
0001
0001
0100
0100
,  // measure 9
0010
0010
0010
0000
,  // measure 10
1000
1000
0100
0100
,  // measure 11
0010
0010
0010
0000
,  // measure 12
0001
0000
1000
0000
,  // measure 13
0010
0000
0100
0100
,  // measure 14
0001
0000
1000
0000
,  // measure 15
1001
0000
0000
0000
,  // measure 16
0100
0100
0010
0010
,  // measure 17
0001
0001
0001
0000
,  // measure 18
1000
1000
0010
0010
,  // measure 19
0100
0100
0100
0000
,  // measure 20
1000
0100
0001
0000
,  // measure 21
0001
0010
0100
0000
,  // measure 22
1000
0000
0010
0000
,  // measure 23
0100
0000
0000
0000
,  // measure 24
2002
0000
3003
0000
,  // measure 25
0200
0000
0300
0000
,  // measure 26
0020
0000
0030
0000
,  // measure 27
0002
0000
0003
0000
,  // measure 28
2001
0000
3000
0000
,  // measure 29
0020
0000
0030
0000
,  // measure 30
0200
0000
0300
0000
,  // measure 31
0002
0003
2000
3000
,  // measure 32
0001
0000
0001
1000
,  // measure 33
0001
0000
0010
0100
,  // measure 34
0010
0000
0100
0100
,  // measure 35
1000
0000
0010
0100
,  // measure 36
1001
0000
0100
0010
,  // measure 37
0100
0000
1000
0001
,  // measure 38
0100
0000
0010
0000
,  // measure 39
1000
0001
0000
0001
,  // measure 40
0010
0000
0100
0000
,  // measure 41
1000
0000
0001
0000
,  // measure 42
0100
0000
0010
0000
,  // measure 43
1000
0000
0001
0000
,  // measure 44
1001
0000
0000
0000
,  // measure 45
0110
0000
0000
0000
0000
1001
0000
0000
,  // measure 46
0110
0000
1001
0000
,  // measure 47
0110
0000
0000
0000
,  // measure 48
0010
0010
0001
0001
,  // measure 49
1000
1000
1000
0000
,  // measure 50
0010
0010
0100
0100
,  // measure 51
0001
0001
0001
0000
,  // measure 52
0010
0001
1000
0000
,  // measure 53
0010
0100
0001
0000
,  // measure 54
1000
0000
0100
0000
,  // measure 55
0010
0000
0000
0000
,  // measure 56
0001
0001
1000
0000
,  // measure 57
0010
0010
0100
0000
,  // measure 58
0001
0001
1000
0000
,  // measure 59
0100
0000
0010
0000
,  // measure 60
1001
0000
0000
0000
;

//---------------dance-single - ----------------
#NOTES:
     dance-single:
     :
     Medium:
     6:
     0.393037,0.369572,0.236115,0.225849,0.000000,223.000000,23.000000,22.000000,0.000000,0.000000,0.000000,0.393037,0.369572,0.236115,0.225849,0.000000,223.000000,23.000000,22.000000,0.000000,0.000000,0.000000:
// measure 0
0010
1000
0001
0010
,  // measure 1
0100
0000
1000
0000
0001
0010
0001
0000
,  // measure 2
0100
0010
0100
0001
,  // measure 3
0010
0000
0100
0000
1000
0001
1000
0000
,  // measure 4
0100
0010
0001
0100
,  // measure 5
0010
0000
0100
0000
0001
1000
0100
0000
,  // measure 6
1000
0010
0100
0001
,  // measure 7
2002
0000
3003
0000
,  // measure 8
0100
1001
0100
1001
,  // measure 9
0010
0100
0001
0010
,  // measure 10
0100
0110
0100
0110
,  // measure 11
0100
1000
0010
0100
,  // measure 12
0001
0100
0001
0100
0001
0000
1000
0000
,  // measure 13
0100
0010
0100
0010
0100
0000
1000
0000
,  // measure 14
0010
0100
0001
1000
,  // measure 15
2002
0000
0000
3003
,  // measure 16
0001
0011
1000
1010
,  // measure 17
0001
0100
1000
0100
0001
0000
0000
0000
,  // measure 18
0001
0101
1000
1100
,  // measure 19
0001
0100
1000
0100
0001
0000
0000
0000
,  // measure 20
0010
0000
0011
0000
0010
0001
0000
0001
,  // measure 21
0010
0000
0110
0000
0100
1000
0100
0000
,  // measure 22
1000
0010
0100
0001
,  // measure 23
2002
0000
3003
0000
,  // measure 24
0020
0000
0000
0130
,  // measure 25
0002
0000
0000
1003
,  // measure 26
2000
0000
3100
0010
,  // measure 27
0001
0000
1000
0010
,  // measure 28
0020
0000
0000
0130
,  // measure 29
2000
0000
0000
3100
,  // measure 30
0002
0000
0013
0100
,  // measure 31
1000
0001
0100
0010
,  // measure 32
0100
0100
0001
0001
,  // measure 33
1000
0000
1000
0000
0100
0000
0100
1000
,  // measure 34
0010
0100
1000
0100
,  // measure 35
0001
0000
0010
0000
0100
0000
1000
0001
,  // measure 36
0100
0010
0100
0001
,  // measure 37
0010
0000
0100
0000
1000
0000
0001
0100
,  // measure 38
0010
0100
0001
1000
,  // measure 39
0100
0000
0010
0001
0000
0001
1000
0000
,  // measure 40
0020
0030
0200
0300
,  // measure 41
0002
0003
2000
3000
,  // measure 42
0200
0300
0020
0030
,  // measure 43
0002
0003
2000
3000
,  // measure 44
1010
0000
0000
0000
,  // measure 45
0101
0000
0000
0000
0000
0110
0000
0000
,  // measure 46
1001
0000
0000
0000
0110
0000
0000
0010
,  // measure 47
0020
0000
0000
0030
,  // measure 48
0010
0011
1000
1010
,  // measure 49
0001
0100
1000
0100
0001
0000
0010
0000
,  // measure 50
0100
1100
0001
0101
,  // measure 51
0001
0100
1000
0100
0001
0000
0010
0000
,  // measure 52
0100
0000
0100
0000
1000
0010
0100
0000
,  // measure 53
1000
0000
1000
0000
0100
0001
0010
0000
,  // measure 54
0100
1000
0001
0100
,  // measure 55
0020
0000
0000
0030
,  // measure 56
1000
0100
0010
0001
,  // measure 57
1000
0000
0010
0000
0100
0001
0010
0000
,  // measure 58
0100
1000
0010
0100
,  // measure 59
0001
1000
0000
0100
0000
0010
0000
0000
,  // measure 60
0110
0000
0000
0000
;

//---------------dance-single - ----------------
#NOTES:
     dance-single:
     :
     Hard:
     8:
     0.542625,0.563597,0.133457,0.328508,0.195052,325.000000,13.000000,32.000000,0.000000,0.000000,0.000000,0.542625,0.563597,0.133457,0.328508,0.195052,325.000000,13.000000,32.000000,0.000000,0.000000,0.000000:
// measure 0
0010
1000
0100
0000
0100
1000
0010
0000
,  // measure 1
0010
0100
0001
0000
0001
0100
0010
0000
,  // measure 2
0010
1000
0001
0000
0001
1000
0010
0000
,  // measure 3
0010
0100
0001
0000
0001
0100
0010
0000
,  // measure 4
1000
0100
0010
0000
0010
0100
1000
0000
,  // measure 5
1000
0001
0100
0000
0100
0001
1000
0000
,  // measure 6
0100
0010
0001
0000
0001
0010
0100
0000
,  // measure 7
2000
0000
0000
0000
,  // measure 8
3001
0000
0000
0001
0000
0000
0001
0000
0100
0000
0000
0100
0000
0000
0100
0000
,  // measure 9
0010
0000
1000
0000
0010
0000
1000
0010
0000
0000
0000
0000
0000
0000
0000
0000
,  // measure 10
1000
0000
0000
1000
0000
0000
1000
0000
0100
0000
0000
0100
0000
0000
0100
0000
,  // measure 11
0010
0000
0001
0000
0010
0000
0001
0010
0000
0000
0000
0000
0000
0000
0000
0000
,  // measure 12
0010
0001
0010
0001
1000
0100
1000
0000
,  // measure 13
1000
0010
1000
0010
0100
0001
0100
0000
,  // measure 14
0010
0000
1000
0000
0001
0100
0010
0000
,  // measure 15
0220
0000
0000
0330
,  // measure 16
0110
0000
0000
0001
0000
0000
0000
0000
1001
0000
0000
1000
0000
0000
1000
0000
,  // measure 17
0010
0000
0100
0000
0001
0000
0100
0010
0000
0000
0000
0000
0000
0000
0000
0000
,  // measure 18
1010
0000
0000
0001
0000
0000
0000
0000
0011
0000
0000
0100
0000
0000
0100
0000
,  // measure 19
1000
0000
0010
0000
0100
0000
0001
0100
0000
0000
0000
0000
0000
0000
0000
0000
,  // measure 20
0010
1000
0000
0000
1000
0001
0000
0000
0001
0000
0010
0000
0100
0000
1000
0000
,  // measure 21
0001
0100
0000
0000
0100
0010
0000
0000
0010
0000
1000
0000
0000
0001
0000
0000
,  // measure 22
1000
0010
0100
0000
0001
0100
0010
0000
,  // measure 23
2000
0000
3001
0200
,  // measure 24
0320
0000
0000
0000
0000
0000
0000
0000
0000
0000
0000
0000
1030
0000
0000
1000
,  // measure 25
0002
0000
0000
0000
0000
0000
0000
0000
0000
0000
0000
0000
0013
0001
0010
0001
,  // measure 26
0020
0000
0230
2300
,  // measure 27
3002
0000
0203
0310
,  // measure 28
2001
0000
0000
0000
0000
0000
0000
0000
0000
0000
0000
0000
3100
0000
0000
0100
,  // measure 29
0020
0000
0000
0000
0000
0000
0000
0000
0000
0000
0000
0000
0031
0000
0000
0001
,  // measure 30
2000
0000
3020
0230
,  // measure 31
0302
2003
3200
0320
,  // measure 32
0031
0000
0100
0000
0010
0000
0100
0000
0001
0000
1000
0000
0100
0000
0000
0100
,  // measure 33
1000
0000
0010
0000
0100
0000
0001
0000
0100
0000
0010
0000
1000
0001
1000
0001
,  // measure 34
1000
0001
0010
0100
1000
0010
0100
1000
,  // measure 35
0100
0000
0001
0000
0010
0000
0100
0000
1000
0000
0001
0000
0100
0010
0100
0010
,  // measure 36
0100
0000
0001
0000
0010
0000
0100
0000
1000
0000
0010
0000
0100
0000
0000
0100
,  // measure 37
0001
0000
0010
0000
0100
0000
1000
0000
0010
0000
0100
0000
0001
0000
0000
0001
,  // measure 38
1000
0100
0010
0001
1000
0010
0100
0001
,  // measure 39
1000
0100
0010
0001
0000
0001
1000
0000
,  // measure 40
0002
0000
0023
0000
,  // measure 41
0230
0000
2300
0000
,  // measure 42
3020
0000
0230
0000
,  // measure 43
0302
0000
1003
0000
,  // measure 44
1100
0000
0000
0000
,  // measure 45
0110
0000
0000
0000
0000
0011
0000
0000
,  // measure 46
0101
0000
0000
0000
1010
0000
0000
1000
,  // measure 47
2002
0000
3003
0000
,  // measure 48
0010
0000
0000
0010
1000
0000
0000
1000
0001
0000
0000
0001
0010
0000
0000
0010
,  // measure 49
0100
0000
1000
0000
0010
0000
0100
0010
0000
0000
0100
0000
0001
0000
1000
0000
,  // measure 50
1000
0000
0000
1000
0001
0000
0000
0001
0010
0000
0000
0010
0100
0000
0100
0000
,  // measure 51
1000
0000
0001
0000
0100
0000
0010
1000
0000
0000
1000
0000
0001
0000
0010
0000
,  // measure 52
0100
1000
0001
0100
0010
0100
0001
0010
,  // measure 53
0100
1000
0010
0100
1000
0100
0001
0010
,  // measure 54
0001
1000
0010
0000
0100
0001
0010
0000
,  // measure 55
0100
1000
0001
0100
,  // measure 56
0010
1000
0010
1000
0001
0010
0001
0010
,  // measure 57
0100
1000
0100
1000
0001
0100
0001
0100
,  // measure 58
1000
0100
0010
1000
0001
0010
0100
1000
,  // measure 59
0001
0100
0000
0010
0000
1000
0001
0000
,  // measure 60
2002
0000
0000
0000
,  // measure 61
3003
0000
0000
0000
;
