#TITLE:Vajuranda;
#SUBTITLE:;
#ARTIST:Lightning;
#TITLETRANSLIT:;
#SUBTITLETRANSLIT:;
#ARTISTTRANSLIT:;
#GENRE:;
#CREDIT:Meseki;
#MENUCOLOR:0.8,0.2,0.7,1.0;
#BANNER:Vajuranda-bn.png;
#BACKGROUND:Vajuranda-bg.png;
#LYRICSPATH:;
#CDTITLE:cdtitle.png;
#MUSIC:Vajuranda.ogg;
#OFFSET:-0.947;
#SAMPLESTART:21.158;
#SAMPLELENGTH:20.211;
#SELECTABLE:YES;
#LISTSORT:;
#BPMS:0.000=95.000,32.000=190.000,96.000=95.000,112.000=190.000,144.000=95.000,160.000=190.000;
#STOPS:;
#TICKCOUNT:0.000=2;
#BGCHANGES:;
#KEYSOUNDS:;
#ATTACKS:;

//---------------dance-single - ----------------
#NOTES:
     dance-single:
     :
     Medium:
     6:
     0.343,0.386,0.041,0.230,0.000: // measure 1
0000
0000
0000
0000
,  // measure 2
0000
0000
0000
0000
,  // measure 3
0000
0000
0000
0000
,  // measure 4
0000
0000
0000
0000
,  // measure 5
0001
0000
0000
0001
0000
0000
0100
0000
,  // measure 6
0010
0000
0000
0010
0000
0000
1000
0000
,  // measure 7
0001
0000
0000
0001
0000
0000
0010
0000
,  // measure 8
0100
0000
0000
0100
1000
0000
0001
0000
,  // measure 9
2000
0000
0000
3010
0000
0000
0100
0001
,  // measure 10
0100
0010
1000
0001
,  // measure 11
2000
0000
0000
3100
0000
0000
0010
0001
,  // measure 12
0010
0000
0100
0000
,  // measure 13
0020
0000
0000
0031
0000
0000
1000
0010
,  // measure 14
1000
0100
0001
0100
,  // measure 15
1000
0000
0001
0000
,  // measure 16
0100
0000
0010
0000
1000
0001
1000
0000
,  // measure 17
0200
0000
0000
0310
0000
0000
0001
0000
,  // measure 18
0100
0000
0000
0010
1000
0000
0001
0000
,  // measure 19
0010
0000
0000
0001
0000
1000
0000
0000
,  // measure 20
0100
0001
0100
1000
,  // measure 21
0010
0000
0000
0100
0000
0001
0000
1000
,  // measure 22
0100
0000
0000
0010
0000
0001
0000
1000
,  // measure 23
0010
0100
0001
0010
,  // measure 24
0200
0000
0000
0300
,  // measure 25
1000
0000
0000
1000
0000
0000
0100
0020
,  // measure 26
0031
0000
0000
0001
0000
0000
1000
0002
,  // measure 27
0013
0000
0000
0010
0000
0000
0100
2000
,  // measure 28
3010
0000
0000
0010
0000
0000
0001
0000
,  // measure 29
0010
1000
0010
1000
,  // measure 30
0001
1000
0001
0020
,  // measure 31
0031
0010
0001
0010
,  // measure 32
0100
0010
0100
0020
,  // measure 33
0031
0100
0001
0000
0100
0000
0100
0000
,  // measure 34
0010
1000
0010
0000
1000
0000
1000
0000
,  // measure 35
0100
0000
0010
0000
0000
0001
0000
0000
,  // measure 36
1000
0000
0000
0001
0000
0000
0200
0300
,  // measure 37
0020
2030
3002
2003
,  // measure 38
3200
0000
0000
0000
,  // measure 39
0320
0032
0203
0320
,  // measure 40
2030
0000
0000
0000
,  // measure 41
3001
0010
0001
0000
1000
0000
0100
0000
,  // measure 42
0000
0010
0001
0000
0100
0000
0010
0000
,  // measure 43
0000
1000
0001
0000
0010
0000
0100
0000
,  // measure 44
0000
1000
0010
0000
0100
0000
0001
0000
,  // measure 45
0000
0010
0001
0000
0010
0000
0100
0000
,  // measure 46
0000
1000
0010
0000
0001
0000
0010
0000
,  // measure 47
0000
0100
0001
0000
0010
0000
0100
0000
,  // measure 48
2000
0000
3001
0000
0100
0010
0100
0000
,  // measure 49
1001
0001
0010
0100
,  // measure 50
0010
0000
0000
0010
0000
0000
0001
0000
,  // measure 51
1000
0010
0100
0001
,  // measure 52
1000
0100
0100
0010
,  // measure 53
0100
0001
0100
1000
,  // measure 54
0001
0000
0000
0001
0000
0000
0100
0000
,  // measure 55
0010
1000
0001
1000
,  // measure 56
0010
0000
0001
0000
0010
0000
1000
0100
,  // measure 57
0000
0000
0000
0000
,  // measure 58
0020
0000
0030
0001
,  // measure 59
2000
0000
0000
3001
0000
0000
0100
0000
,  // measure 60
0010
1000
0010
0100
,  // measure 61
0002
0000
0000
0013
0000
0000
0100
0000
,  // measure 62
0010
0000
0011
0000
,  // measure 63
0002
0000
0000
1003
0000
0000
0010
0000
,  // measure 64
0001
0010
1000
0100
,  // measure 65
0010
0100
1000
0010
,  // measure 66
0100
0001
1000
0001
,  // measure 67
1001
0000
0000
1000
0000
0000
0100
0010
,  // measure 68
0100
0000
0000
0100
0000
0000
0010
0001
,  // measure 69
0010
0000
0000
0001
0000
1000
0000
0010
,  // measure 70
0100
0001
1000
0001
,  // measure 71
0100
0000
0000
0010
0000
1000
0000
0001
,  // measure 72
0010
0000
0000
0100
0000
0001
0000
0100
,  // measure 73
1000
0000
0001
0000
0100
0000
0010
1000
,  // measure 74
0001
0000
0000
0010
,  // measure 75
0110
0000
0000
0000
,  // measure 76
0001
0010
0001
0000
1000
0010
0100
0000
,  // measure 77
2002
0000
0000
0000
,  // measure 78
0000
0000
0000
0000
,  // measure 79
0000
3003
0000
0000
;

//---------------dance-single - ----------------
#NOTES:
     dance-single:
     :
     Easy:
     4:
     0.256,0.354,0.025,0.189,0.000: // measure 1
0000
0000
0000
0000
,  // measure 2
0000
0000
0000
0000
,  // measure 3
0000
0000
0000
0000
,  // measure 4
0000
0000
0000
0000
,  // measure 5
0001
0000
0000
0001
0000
0000
1000
0000
,  // measure 6
0010
0000
0000
0010
0000
0000
1000
0000
,  // measure 7
0001
0000
0000
0001
0000
0000
0100
0000
,  // measure 8
0001
0000
0000
0001
0000
0000
0010
0000
,  // measure 9
0100
0000
0000
1000
0000
0000
0000
0000
,  // measure 10
0010
1000
0010
0000
,  // measure 11
0100
0000
0000
0001
0000
0000
0000
0000
,  // measure 12
0010
0000
0001
0000
,  // measure 13
1000
0000
0000
0001
0000
0000
0000
0000
,  // measure 14
0010
0100
0010
0000
,  // measure 15
0001
0000
1000
0000
,  // measure 16
0100
0000
0010
0001
,  // measure 17
0100
0000
0000
0001
0000
0000
0000
0000
,  // measure 18
1000
0000
0001
0001
,  // measure 19
0100
0000
0000
0001
0000
0010
0000
0000
,  // measure 20
0100
0000
1000
0000
,  // measure 21
0001
0000
0000
1000
0000
0010
0000
0000
,  // measure 22
1000
0000
0000
0001
0000
0010
0000
0000
,  // measure 23
0001
0000
0100
0010
,  // measure 24
0200
0000
0000
0300
,  // measure 25
0010
0000
0000
0010
0000
0000
1000
0002
,  // measure 26
1003
0000
0000
1000
0000
0000
0001
0020
,  // measure 27
0031
0000
0000
0001
0000
0000
0100
0020
,  // measure 28
0130
0000
0000
0100
0000
0000
0001
0000
,  // measure 29
1000
0000
0100
0000
,  // measure 30
1000
0000
0100
0020
,  // measure 31
0031
0000
0100
0000
,  // measure 32
0001
0000
0100
0020
,  // measure 33
1030
1000
0100
0000
,  // measure 34
0010
0010
0001
0000
,  // measure 35
0100
0000
0010
0000
0000
1000
0000
0000
,  // measure 36
0010
0000
0000
1000
0000
0000
0200
0300
,  // measure 37
0020
0032
2003
3002
,  // measure 38
0203
0000
0000
0000
,  // measure 39
0320
2030
3002
0023
,  // measure 40
0230
0000
0000
0000
,  // measure 41
0300
1000
0010
1000
,  // measure 42
0000
0100
0010
0001
,  // measure 43
0000
1000
0010
0100
,  // measure 44
0000
0010
0100
0001
,  // measure 45
0000
0010
0100
1000
,  // measure 46
0000
0100
0010
0001
,  // measure 47
0000
1000
0001
1000
,  // measure 48
0010
0000
0000
0000
,  // measure 49
1000
0010
1000
0000
,  // measure 50
0010
0000
0000
0010
0000
0000
0000
0000
,  // measure 51
0100
0001
0100
0000
,  // measure 52
0001
0010
0100
0000
,  // measure 53
1000
0001
1000
0000
,  // measure 54
0001
0000
0000
0001
0000
0000
0000
0000
,  // measure 55
0100
0010
0100
0000
,  // measure 56
0001
0001
1000
1000
,  // measure 57
0000
0000
0000
0000
,  // measure 58
0002
0000
0003
1000
,  // measure 59
2000
0000
3000
0001
0000
0000
0100
0000
,  // measure 60
0001
0000
0010
0000
,  // measure 61
0200
0000
0300
1000
0000
0000
0001
0000
,  // measure 62
1000
0000
1001
0000
,  // measure 63
0002
0000
0003
0010
0000
0000
0100
0000
,  // measure 64
0010
0000
0001
0000
,  // measure 65
1000
0000
0010
0100
,  // measure 66
0001
0000
1000
0000
,  // measure 67
1001
0000
0000
0001
0000
0000
0001
0000
,  // measure 68
0100
0000
0000
0100
0000
0000
0100
0000
,  // measure 69
0010
0000
0000
1000
0000
0001
0000
0000
,  // measure 70
0010
0000
0100
0000
,  // measure 71
1000
0000
0000
0001
0000
0010
0000
0000
,  // measure 72
0001
0000
0000
1000
0000
0010
0000
0000
,  // measure 73
1000
0000
0010
0000
,  // measure 74
0100
0000
0000
0001
,  // measure 75
1000
0000
0000
0000
,  // measure 76
0001
0010
0100
1000
,  // measure 77
2002
0000
0000
0000
,  // measure 78
0000
0000
0000
0000
,  // measure 79
0000
3003
0000
0000
;

//---------------dance-single - ----------------
#NOTES:
     dance-single:
     :
     Hard:
     8:
     0.486,0.579,0.189,0.246,0.070: // measure 1
0000
0000
0000
0000
,  // measure 2
0000
0000
0000
0000
,  // measure 3
0000
0000
0000
0000
,  // measure 4
0000
0000
0000
0000
,  // measure 5
1000
0000
0000
0000
0000
0000
0001
0010
0000
0000
0100
1000
0001
1000
0000
0000
,  // measure 6
0010
0000
0000
0000
0000
0000
1000
0010
0000
0000
0000
1000
0100
0010
0001
0000
,  // measure 7
1000
0000
0000
0000
0000
0000
0100
0001
0100
1000
0000
0000
0010
0000
0100
0000
,  // measure 8
0001
0000
0000
0000
0000
0000
0010
0100
1000
0000
0001
0100
0010
1000
0100
0010
,  // measure 9
0002
0000
0000
1003
0000
0000
0010
0100
,  // measure 10
0001
0101
1000
1010
,  // measure 11
2000
0000
0000
3100
0000
0000
0010
0001
,  // measure 12
1000
0000
0000
0010
0000
0000
1000
0000
0001
0000
0000
0010
0000
0000
0001
0000
,  // measure 13
0200
0000
0000
0310
0000
0000
0001
0010
,  // measure 14
1000
0000
1010
0000
0001
0000
0100
0001
,  // measure 15
0010
0000
0000
0100
0000
0000
1000
0000
0001
0000
0010
0000
0100
0000
1000
0000
,  // measure 16
0010
0000
0100
0000
0010
1000
0001
1000
,  // measure 17
0200
0000
0000
0310
0000
0000
1000
0010
,  // measure 18
0100
0000
0000
1000
0001
0010
0001
0100
,  // measure 19
0010
0000
0000
1000
0000
0100
0000
0001
,  // measure 20
0100
1000
0010
0100
0001
0010
0100
1000
,  // measure 21
0001
0000
0000
0100
0000
0010
0000
1000
,  // measure 22
0100
0000
0000
0010
0000
0001
0000
1000
,  // measure 23
0010
0000
0100
1000
0100
0001
1000
0001
,  // measure 24
0020
0000
0000
0130
,  // measure 25
1000
0000
0000
1000
0000
0000
0100
0002
,  // measure 26
1003
0000
0000
1000
0000
0000
0010
0002
,  // measure 27
0103
0000
0000
0100
0000
0000
0001
2000
,  // measure 28
3100
0000
0000
0100
0010
0000
0001
0000
,  // measure 29
1000
0100
1000
0100
,  // measure 30
0010
0001
0010
2000
,  // measure 31
3010
0001
0010
0001
,  // measure 32
0100
0010
0100
2000
,  // measure 33
3100
0001
1000
0001
1000
0000
0100
0000
,  // measure 34
0010
0001
0100
0001
0100
0000
0020
0000
,  // measure 35
1030
0100
1100
0000
0000
0110
0000
0000
,  // measure 36
0011
0000
0000
1001
0000
0000
0020
0030
,  // measure 37
2000
0000
0000
0000
0002
3000
0000
0000
0020
0003
0000
0000
0002
0030
0000
0000
,  // measure 38
0200
0003
0000
0000
0000
0000
0000
0000
0000
0000
0000
0000
0000
0000
0000
0000
,  // measure 39
0020
0300
0000
0000
2000
0030
0000
0000
0200
3000
0000
0000
0002
0300
0000
0000
,  // measure 40
0200
0003
0000
0000
0000
0000
0000
0000
0000
0000
0000
0000
0000
0000
0000
0000
,  // measure 41
1300
0100
0010
0001
1000
0010
0100
0001
,  // measure 42
0000
1000
0100
0010
1000
0010
0001
1000
,  // measure 43
0000
0010
1000
0001
0010
0100
0010
1000
,  // measure 44
0000
0010
0001
0100
1000
0100
0010
1000
,  // measure 45
0000
0100
0001
0100
0010
0100
1000
0001
,  // measure 46
0000
1000
0010
1000
0001
0010
0100
1000
,  // measure 47
0000
0010
0001
0010
1000
0100
0010
0100
,  // measure 48
2000
0000
3001
0000
0010
0100
1000
0000
,  // measure 49
0011
0000
0001
1000
0010
1000
0100
0000
,  // measure 50
0010
0000
0100
0010
0000
0001
1000
0001
,  // measure 51
0100
0000
0010
1000
0001
0010
0100
0000
,  // measure 52
0101
0000
1100
0000
0100
0010
0001
0000
,  // measure 53
1000
0010
0001
0010
0100
0000
0001
0000
,  // measure 54
1000
0000
0100
1000
0000
0100
0010
0100
,  // measure 55
1000
0001
0010
0001
0100
0000
0010
0000
,  // measure 56
1010
0000
1001
0000
0010
0001
0100
1000
,  // measure 57
0000
0000
0000
0000
,  // measure 58
0020
0000
0030
0001
,  // measure 59
2001
0000
0000
3010
0000
0000
0100
0001
,  // measure 60
0010
0011
0100
1100
,  // measure 61
2000
0000
0000
3010
0000
0000
0100
0001
,  // measure 62
0010
0000
0000
0100
0000
0000
0010
0000
0001
0000
0000
1000
0000
0000
0001
0000
,  // measure 63
0020
0000
0000
0130
0000
0000
1000
0010
,  // measure 64
0001
0000
0110
0000
1000
0000
0100
0010
,  // measure 65
0001
0000
0100
0010
0001
0010
1000
0001
,  // measure 66
1000
0000
0100
0000
0010
0001
0100
0010
,  // measure 67
1001
0000
0000
1000
0000
0000
0100
0001
,  // measure 68
0100
0000
0000
0100
0000
0000
0001
1000
,  // measure 69
0010
0000
0000
0001
0000
1000
0000
0010
,  // measure 70
1000
0001
0100
1000
0100
0010
1000
0001
,  // measure 71
0010
0000
0000
0011
0000
0110
0000
0100
,  // measure 72
1000
0000
0000
1010
0000
0101
0000
0001
,  // measure 73
1000
0000
0100
0010
0001
0100
1000
0100
,  // measure 74
0020
0000
0000
0030
0000
0000
1000
0000
,  // measure 75
0101
0000
0000
0000
,  // measure 76
1000
0010
0001
1000
0100
0001
0010
0000
,  // measure 77
2002
0000
0000
0000
,  // measure 78
0000
0000
0000
0000
,  // measure 79
0000
3003
0000
0000
;

//---------------dance-single - ----------------
#NOTES:
     dance-single:
     :
     Beginner:
     2:
     0.128,0.225,0.033,0.115,0.000: // measure 1
0000
0000
0000
0000
,  // measure 2
0000
0000
0000
0000
,  // measure 3
0000
0000
0000
0000
,  // measure 4
0000
0000
0000
0000
,  // measure 5
1000
0000
0000
0000
,  // measure 6
0001
0000
0000
0000
,  // measure 7
0010
0000
0000
0000
,  // measure 8
0100
0000
0000
0000
,  // measure 9
1000
0000
0000
0000
,  // measure 10
0010
0000
0000
0000
,  // measure 11
0100
0000
0000
0000
,  // measure 12
0001
0000
1000
0000
,  // measure 13
0001
0000
0000
0000
,  // measure 14
0010
0000
0000
0000
,  // measure 15
0100
0000
1000
0000
,  // measure 16
0100
0000
0000
0000
,  // measure 17
0010
0000
0000
0000
,  // measure 18
0001
0000
1000
0000
,  // measure 19
0001
0000
0000
0000
,  // measure 20
0100
0000
0000
0000
,  // measure 21
0010
0000
0000
0000
,  // measure 22
1000
0000
0000
0000
,  // measure 23
0001
0000
0000
0000
,  // measure 24
2000
0000
3000
0000
,  // measure 25
0010
0000
0000
0100
,  // measure 26
0010
0000
0000
1000
,  // measure 27
0010
0000
0000
0100
,  // measure 28
0001
0000
1001
0000
,  // measure 29
1000
0000
0000
0000
,  // measure 30
0100
0000
1000
0000
,  // measure 31
0100
0000
0000
0000
,  // measure 32
0010
0000
0001
0000
,  // measure 33
0010
0000
0000
0000
,  // measure 34
0001
0000
0000
0000
,  // measure 35
0000
1001
0000
0000
,  // measure 36
0110
0000
0000
0000
,  // measure 37
1000
0001
1000
0001
,  // measure 38
0200
0000
0000
0300
,  // measure 39
0010
1000
0010
1000
,  // measure 40
0002
0000
0000
0003
,  // measure 41
1000
0000
0010
0000
,  // measure 42
0000
0000
0100
0000
,  // measure 43
0000
0000
0001
0000
,  // measure 44
0000
0000
1000
0000
,  // measure 45
0000
0000
0100
0000
,  // measure 46
0000
0000
0010
0000
,  // measure 47
0000
0000
0001
0000
,  // measure 48
1000
0000
0000
0000
,  // measure 49
0001
0000
0000
0000
,  // measure 50
0010
0000
0000
0000
,  // measure 51
0001
0000
0000
0000
,  // measure 52
1000
0000
0010
0000
,  // measure 53
1000
0000
0000
0000
,  // measure 54
0001
0000
0000
0000
,  // measure 55
0100
0000
0000
0000
,  // measure 56
0010
0000
1000
0000
,  // measure 57
0000
0000
0000
0000
,  // measure 58
0000
0000
0000
0000
,  // measure 59
0100
0000
0000
0020
0000
0000
0000
0000
,  // measure 60
0000
0000
0030
0000
,  // measure 61
0001
0000
0000
2000
0000
0000
0000
0000
,  // measure 62
0000
0000
3000
0000
,  // measure 63
0010
0000
0000
0200
0000
0000
0000
0000
,  // measure 64
0000
0000
0300
0000
,  // measure 65
0001
0000
0000
0020
0000
0000
0000
0000
,  // measure 66
0000
0000
0030
0000
,  // measure 67
0002
0000
0000
0003
,  // measure 68
0100
0000
0010
0000
,  // measure 69
0200
0000
0000
0300
,  // measure 70
0010
0000
1000
0000
,  // measure 71
0020
0000
0000
0030
,  // measure 72
0100
0000
0001
0000
,  // measure 73
0200
0000
0000
0000
,  // measure 74
0000
0000
0300
0000
,  // measure 75
0020
0000
0000
0030
,  // measure 76
1000
0000
0000
0000
,  // measure 77
2002
0000
0000
0000
,  // measure 78
0000
0000
0000
0000
,  // measure 79
0000
3003
0000
0000
;
