#TITLE:Tino's White Horse;
#SUBTITLE:(S.S.D.'s Work);
#ARTIST:M.B.D Rmx by S.S.D.;
#TITLETRANSLIT:;
#SUBTITLETRANSLIT:;
#ARTISTTRANSLIT:;
#CREDIT:;
#BANNER:[ZIv SC 2012] - Tino's White Horse (S.S.D.'s Work).png;
#BACKGROUND:[ZIv SC 2012] - Tino's White Horse (S.S.D.'s Work)-bg.png;
#LYRICSPATH:;
#CDTITLE:;
#MUSIC:[ZIv SC 2012] - Tino's White Horse (S.S.D.'s Work).mp3;
#OFFSET:-0.563;
#SAMPLESTART:73.580;
#SAMPLELENGTH:12.000;
#SELECTABLE:YES;
#BPMS:0.000=148.000,125.000=110.000,133.000=116.000,141.000=118.000,143.000=119.000,148.000=120.000,150.000=129.000,151.000=131.000,152.000=133.000,153.000=140.020,156.000=141.000,157.000=142.000,160.000=145.000,165.000=152.000,168.000=150.000,168.500=145.000,169.000=148.000;
#STOPS:52.000=1.216
,146.000=0.030
;
#BGCHANGES:;

//---------------dance-single - ----------------
#NOTES:
     dance-single:
     :
     Hard:
     9:
     0.634,0.705,0.229,0.265,0.558: // measure 1
0000
0000
0000
0000
,  // measure 2
0000
0000
0000
0000
,  // measure 3
0000
0000
0000
0000
,  // measure 4
0000
0000
0000
0000
,  // measure 5
0001
0010
0000
0010
0001
0000
0001
0100
0000
0100
0001
0000
0001
0000
0010
0000
,  // measure 6
0100
1000
0000
1000
0010
0000
0010
1000
0000
1000
0001
0000
1000
0000
0100
0000
,  // measure 7
0010
0100
0000
0100
0010
0000
0010
0001
0000
0001
1000
0000
0010
0000
0100
0000
,  // measure 8
0101
0001
0011
0001
,  // measure 9
1001
0000
0000
0000
1000
0000
0000
1000
0100
0000
0000
0000
0000
0000
0100
0010
,  // measure 10
0100
0000
0000
0010
0001
0000
0000
0000
0000
0000
0000
0000
0000
0000
0001
0100
,  // measure 11
0001
0000
0000
1000
0100
0000
0010
0000
,  // measure 12
0001
0100
0000
0000
0000
0000
0000
0000
0000
0000
0000
0000
0000
0000
0000
0000
,  // measure 13
2002
0000
0000
0000
,  // measure 14
0000
3003
0000
0000
1001
0000
1000
0001
1000
0000
0100
0000
0010
0100
1000
0000
,  // measure 15
0010
0000
1000
0000
0100
0000
0010
0001
0100
0000
0010
0000
1000
0001
1000
0000
,  // measure 16
0000
0000
0000
0000
0110
0000
0010
1000
0010
0000
0100
0000
0001
0000
0010
0100
,  // measure 17
1000
0000
0010
0000
0100
0000
0001
0010
0001
0000
0010
0000
0001
0010
0100
0000
,  // measure 18
0000
0000
0000
0000
1001
0000
0001
0100
0001
0000
0010
0000
0100
0000
1000
0100
,  // measure 19
1000
0000
0100
0000
0010
0000
0001
0010
0100
0000
0010
0000
0001
0100
0010
0000
,  // measure 20
0000
0000
0000
0000
0101
0000
0001
0100
0001
0000
1000
0000
0100
1000
0010
0000
,  // measure 21
0100
0000
0001
0000
0010
0000
0100
1000
0001
0000
0010
0000
0001
0100
0010
0000
,  // measure 22
0000
1001
0001
0010
,  // measure 23
0100
1000
0100
0010
,  // measure 24
0001
0000
0000
0000
2000
3001
0100
0000
0002
1003
0100
0000
2000
3001
0100
0000
,  // measure 25
0020
0030
0000
0000
2000
3100
0010
0000
0002
0013
0100
0000
1000
0000
0100
0000
,  // measure 26
1000
0000
0000
0000
0002
0103
0001
0000
2000
3010
1000
0000
0002
0103
0001
0000
,  // measure 27
0010
0000
0000
0000
0200
1300
0100
0000
0020
0031
0010
0000
0100
0000
1000
0000
,  // measure 28
0001
0000
0000
0000
0002
0013
0100
0000
0020
0031
0100
0000
0020
1030
0001
0000
,  // measure 29
0100
0000
0000
0000
0020
0130
0001
0000
0200
0310
1000
0000
0100
0000
0010
0000
,  // measure 30
0001
0000
0000
0000
2000
3010
0100
0000
0020
0130
0001
0000
0200
0310
1000
0000
,  // measure 31
0001
0000
0000
0000
0010
0001
0000
0010
0000
0001
0000
0010
0000
0001
0000
0010
,  // measure 32
0000
0001
0100
0000
0202
0000
0000
0000
0000
0000
0000
0000
0000
0000
0000
0000
,  // measure 33
0000
0303
0000
0000
,  // measure 34
0000
0000
0000
0000
0000
0000
0000
0000
1000
0000
0000
1000
0200
0000
0000
0000
,  // measure 35
0000
0000
1300
0010
1000
0000
0000
0010
2000
0000
0000
0000
0000
0000
0000
0000
,  // measure 36
0000
0000
3001
0010
0200
0000
0000
0000
0000
0000
1300
0000
0100
0000
0000
0000
,  // measure 37
0010
0000
0000
0000
0100
0020
0000
0000
0000
0000
0000
0000
0000
0000
0000
0000
,  // measure 38
0000
0000
0000
0000
0130
0000
0100
0010
0100
1000
0010
0100
0010
1000
0010
0100
,  // measure 39
0001
0000
1000
0010
1000
0000
0001
0100
0001
0000
1001
0000
0000
0000
0000
0000
,  // measure 40
0000
0000
1000
0001
1000
0000
0001
0010
0001
0000
0011
0000
0000
0000
0000
0000
,  // measure 41
1000
0000
0100
0000
0010
0000
0000
0000
0010
0000
0001
0100
0010
0000
0000
0000
,  // measure 42
0001
0000
1000
0001
0100
0000
0010
0000
0100
0000
0010
0000
1000
0010
0000
0010
,  // measure 43
1000
0000
0110
0000
1001
0000
1000
0000
0100
0000
0010
0002
0010
0000
0000
0000
,  // measure 44
1003
0000
0010
2000
0100
0000
0000
0000
3000
0000
0100
0010
0100
0000
0010
0000
,  // measure 45
0001
0000
0010
0000
0110
0000
0010
0001
0010
0000
0001
0000
0011
0000
0001
1000
,  // measure 46
0001
0000
1000
0000
1010
0000
0010
0100
0010
0000
1000
0001
1000
0000
0001
0100
,  // measure 47
0001
0000
1000
0000
1100
0000
0100
0000
1000
0000
0010
0100
0001
0000
0010
0000
,  // measure 48
0001
0000
0100
0010
1000
0000
0100
0000
0010
0000
0001
0100
0010
0000
1000
0000
,  // measure 49
0010
0000
1000
0000
1010
0000
0010
0100
0010
0000
0100
0000
0101
0000
0001
0010
,  // measure 50
0001
0000
0010
0000
0110
0000
0010
0001
0010
0000
0010
0000
0011
0000
0001
0000
,  // measure 51
1001
0000
1000
0000
1000
0100
0000
0100
1000
0000
1000
0010
0000
0010
1000
0000
,  // measure 52
1000
0000
0001
0000
0010
0001
0000
0001
0010
0000
0001
0100
0000
0100
0001
0000
,  // measure 53
0001
0000
0010
0000
0100
1000
0000
1000
0100
0000
0100
0010
0000
0010
0001
0000
,  // measure 54
0001
0000
1000
0000
0100
0010
0000
0010
0100
0000
0100
1000
0000
1000
0100
0000
,  // measure 55
0100
0000
0010
0000
0001
0010
0000
0010
0001
0000
0001
0010
0000
0010
0100
0000
,  // measure 56
0100
0000
1000
0000
0001
0010
0000
0010
0100
0000
0100
0010
0000
0010
0001
0000
,  // measure 57
0001
0000
1000
0000
0001
0100
0000
0100
0001
0000
0001
0010
0000
0010
0001
0000
,  // measure 58
1000
0000
0100
0000
0010
0100
0000
0100
1000
0000
1000
0100
0000
0100
0010
0000
,  // measure 59
0010
0001
0010
0000
0101
0000
0100
0001
,  // measure 60
1000
1001
0000
0000
;

//---------------dance-single - ----------------
#NOTES:
     dance-single:
     :
     Medium:
     7:
     0.541,0.596,0.640,0.311,0.242:
0000
0000
0000
0000
,
0000
0000
0000
0000
,
0000
0000
0000
0000
,
0000
0000
0000
0000
,
1000
0000
0000
1100
0000
0000
0100
0000
0000
0110
0000
0000
0010
0000
0001
0000
,
0010
0000
0000
0011
0000
0000
0001
0000
0000
0011
0000
0000
0001
0000
0010
0000
,
0100
0000
0000
1100
0000
0000
1000
0000
0000
1010
0000
0000
0010
0000
0100
0000
,
0001
0000
0000
0101
0000
0000
0100
0000
0000
0110
0000
0000
0010
0000
1000
0000
,
0001
0000
0000
0000
0010
0000
0000
0002
0003
0000
0000
0000
0000
0000
0020
0000
,
0030
0100
0010
0000
0000
0000
0000
0001
,
1000
0000
0000
1000
0100
0000
0100
0000
,
0100
0010
0000
0000
0000
0000
0000
0000
0000
0000
0000
0000
0000
0000
0000
0000
,
0200
0000
0000
0000
,
0000
0300
0000
0000
1010
0000
0010
0000
0100
0000
0010
0000
1000
0000
0010
0000
,
0110
0000
0101
0001
0010
0001
1000
0001
,
1001
0000
1100
0100
1000
0100
0010
0001
,
0011
0000
0101
0001
0010
0100
1000
0001
,
0101
0000
0110
0100
0001
0010
0001
1000
,
1010
0000
1100
0100
1000
0100
1000
0001
,
0101
0000
1010
0010
0100
0010
1000
0001
,
1001
0000
0011
0010
0100
1000
0100
0010
,
0011
0001
0010
0100
,
1000
0001
0010
0100
,
1000
0000
0000
0000
2000
0001
3000
0000
2000
0010
3000
0000
2000
0100
3000
0000
,
1010
0000
0000
0000
0002
0010
0003
0000
0002
0100
0003
0000
0001
0000
1000
0000
,
0001
0000
0000
0000
0200
0010
0300
0000
0200
0001
0300
0000
0002
1000
0003
0000
,
0011
0000
0000
0000
0020
0100
0030
0000
0200
1000
0300
0000
1000
0000
0100
0000
,
0010
0000
0000
0000
0200
1000
0300
0000
2000
0001
3000
0000
0002
0100
0003
0000
,
1001
0000
0000
0000
0020
0100
0030
0000
0200
0010
0300
0000
0010
0000
1000
0000
,
0001
0000
0000
0000
0002
0010
0003
0000
0002
0100
0003
0000
0002
1000
0003
0000
,
0110
0000
0000
0000
1000
0100
0000
0010
0000
0100
0000
0010
0000
0001
0000
0010
,
0000
0100
1000
0000
1001
0000
0000
0000
0000
0000
0000
0000
0000
0000
0000
0000
,
0000
0000
0000
0000
,
0000
0000
1000
0200
,
0000
0310
0000
0002
0000
0000
0000
0000
,
0000
1003
0200
0000
0000
0010
0302
0000
,
0013
0200
0000
0000
,
0000
0000
0310
0001
0010
0001
0010
0100
,
1000
0200
0300
0020
0030
0110
0000
0000
,
0000
2000
3000
0002
0003
1001
0000
0000
,
1000
0100
1000
0000
0100
0000
0010
0000
,
0001
0000
0000
0000
0001
0000
0010
0000
0100
0000
1000
0000
0001
0010
0000
0011
,
0000
0001
0100
0101
0001
0010
0200
0000
,
1300
0010
0200
0000
0301
0000
0001
1000
,
0010
1000
0100
1000
0001
1000
0010
1000
,
0100
1000
0001
0010
0100
1000
1001
0001
,
1000
0001
1001
0000
0110
0010
0002
0000
,
0013
0100
2000
0000
3100
0010
0100
1000
,
0100
0010
0001
0010
0100
0010
0001
0010
,
0100
1000
0100
0010
0100
0010
0110
0100
,
0010
0000
0100
0000
0110
0000
0000
0110
0000
0000
1001
0000
0000
1001
0000
0000
,
0001
0000
0010
0000
0110
0000
0000
0110
0000
0000
1010
0000
0000
1010
0000
0000
,
1000
0000
0100
0000
0011
0000
0000
0011
0000
0000
1100
0000
0000
1100
0000
0000
,
0100
0000
1000
0000
1010
0000
0000
1010
0000
0000
0101
0000
0000
0101
0000
0000
,
0010
0000
0001
0000
0110
0000
0000
0110
0000
0000
1001
0000
0000
1001
0000
0000
,
1000
0000
0100
0000
1010
0000
0000
1010
0000
0000
0101
0000
0000
0101
0000
0000
,
0001
0000
0010
0000
0110
0000
0000
0110
0000
0000
0011
0000
0000
0011
0000
0000
,
0001
0000
1000
0000
1001
0000
0000
1100
0000
0000
1010
0000
0000
0110
0000
0000
,
0010
0100
0001
0000
0010
0000
0001
0010
,
0100
0110
0000
0000
;

//---------------dance-single - ----------------
#NOTES:
     dance-single:
     :
     Easy:
     4:
     0.314,0.379,0.274,0.174,0.018:
0000
0000
0000
0000
,
0000
0000
0000
0000
,
0000
0000
0000
0000
,
0000
0000
0000
0000
,
1000
0000
0000
1010
0000
0000
0010
0000
,
0100
0000
0000
0101
0000
0000
0001
0000
,
0010
0000
0000
0011
0000
0000
0001
0000
,
1000
0100
1000
0100
,
0010
0000
0001
0000
0100
0000
0000
0010
,
0000
0000
1010
0000
0000
0000
0000
1000
,
0100
0000
0000
0100
0010
0000
0010
0000
,
0010
0001
0000
0000
0000
0000
0000
0000
,
0002
0000
0000
0000
,
0003
1001
1000
0100
,
0010
1001
0010
0100
,
0001
0011
0010
0100
,
1000
1010
1000
0100
,
0010
0011
0001
0010
,
0100
1100
0100
0010
,
0001
0101
0100
0010
,
1000
1001
0001
1000
,
0001
0011
0001
0010
,
0100
1000
0001
0010
,
0100
0000
2000
3000
0200
0300
0020
0030
,
0001
0000
0002
0003
0020
0030
0100
0000
,
0010
0000
0200
0300
2000
3000
0200
0300
,
0010
0000
0002
0003
0020
0030
0100
0000
,
1000
0000
0200
0300
2000
3000
0200
0300
,
0010
0000
0002
0003
0020
0030
0100
0000
,
2000
3000
0020
0030
0200
0300
0001
0000
,
0001
0000
0000
0000
0000
1000
0000
0000
0000
0100
0000
0000
0000
0010
0000
0000
,
0000
0001
0000
0000
1001
0000
0000
0000
0000
0000
0000
0000
0000
0000
0000
0000
,
0000
0000
0000
0000
,
0000
0000
1000
0100
,
0000
0010
0000
0001
0000
0000
0000
0000
,
0000
1000
0100
0000
0000
0100
0000
0000
,
0010
0001
0000
0000
,
0000
0000
1000
0000
0100
1000
0100
0000
,
0100
0010
0100
0000
0010
0000
0001
0000
,
0010
0100
0010
0001
,
0100
0001
0010
0100
,
1000
0100
0010
0001
,
1001
0101
1000
0100
,
0010
0011
0010
0110
,
0100
1000
0100
0010
,
0001
0010
0100
1000
,
0001
0010
0001
0101
,
0001
1001
0100
1000
,
0100
0010
0001
0010
,
0100
0010
0001
0010
,
0100
0000
1000
0000
0000
1010
0000
0000
,
0100
0000
1000
0000
0000
1100
0000
0000
,
0100
0000
0010
0000
0000
0011
0000
0000
,
0001
0000
0010
0000
0000
0011
0000
0000
,
0001
0000
0010
0000
0000
0110
0000
0000
,
0100
0000
1000
0000
0000
1001
0000
0000
,
0001
0000
0010
0000
0000
0011
0000
0000
,
0001
0000
0010
0000
0000
0110
0000
0000
,
0100
0010
0100
0010
,
0011
1001
0000
0000
;
