#TITLE:Starry Eyed;
#SUBTITLE:;
#ARTIST:Ellie Goulding;
#TITLETRANSLIT:;
#SUBTITLETRANSLIT:;
#ARTISTTRANSLIT:;
#GENRE:;
#CREDIT:;
#BANNER:[SC2012] - Starry Eyed.png;
#BACKGROUND:[SC2012] - Starry Eyed-bg.png;
#LYRICSPATH:;
#CDTITLE:;
#MUSIC:[SC2012] - Starry Eyed.ogg;
#OFFSET:-0.106;
#SAMPLESTART:36.839;
#SAMPLELENGTH:12.850;
#SELECTABLE:YES;
#DISPLAYBPM:75.000:150.000;
#BPMS:0.000=150.000
,32.000=300.000
,32.750=60.000
,33.000=300.000
,33.750=60.000
,34.000=300.000
,34.750=60.000
,35.000=300.000
,35.750=60.000
,36.000=75.000
,38.000=150.000
,82.000=75.000
,86.000=150.000
,150.000=75.000
,166.000=150.000
,198.000=75.000
,200.000=150.000
,232.500=1500.000
,235.000=300.000
,236.000=150.000
,264.000=75.000
,279.000=37.500
;
#STOPS:232.500=0.900,
235.000=0.200
;
#BGCHANGES:15.750=[SC2012] - Starry Eyed.avi=1.000=1=0=1===CrossFade==,
99999=-nosongbg-=1.000=0=0=0 // don't automatically add -songbackground-
;
#KEYSOUNDS:;
#ATTACKS:;

//---------------dance-single - ----------------
#NOTES:
     dance-single:
     :
     Hard:
     8:
     0.541,0.778,0.368,0.384,0.150,395.000,48.000,50.000,0.000,0.000,0.000,0.541,0.778,0.368,0.384,0.150,395.000,48.000,50.000,0.000,0.000,0.000: // measure 0
0000
0000
0000
0000
,  // measure 1
0000
0000
0000
0000
,  // measure 2
0000
0000
0000
0000
,  // measure 3
0000
0000
0000
0000
,  // measure 4
1000
0000
0010
0100
0010
0000
0100
0000
,  // measure 5
0001
0000
0010
0000
0100
1000
0000
0000
,  // measure 6
0010
0000
0100
0000
0001
0010
0001
0000
,  // measure 7
0100
0010
0000
0010
1000
0000
0001
0000
,  // measure 8
2000
3020
0230
0302
,  // measure 9
0013
0000
0000
0100
0000
0000
1000
0000
0010
0000
0000
0000
0100
0000
0000
0000
0001
0000
0000
0000
0010
0000
0000
0000
0100
0000
0000
0000
1000
0000
0000
0000
,  // measure 10
0020
0000
0000
0000
0130
0010
1000
0100
,  // measure 11
0020
0000
0000
0000
0031
0010
0001
1000
,  // measure 12
0010
0100
0000
0001
0000
0100
0010
1000
,  // measure 13
0100
0010
0001
0000
1000
0000
0100
1000
,  // measure 14
0010
0000
0100
0000
0001
0000
0010
0100
,  // measure 15
0010
0001
0100
0010
0000
1000
0000
0100
,  // measure 16
0000
0110
0000
0011
0000
0001
0100
0000
,  // measure 17
0010
1000
0100
1000
0020
0000
0230
0000
,  // measure 18
0302
0013
2100
0010
,  // measure 19
0100
0000
3001
0001
0100
0000
0010
0000
,  // measure 20
0100
0000
0000
0000
0001
0000
0000
0000
0010
0000
0000
0000
0100
0000
0000
0000
1000
0000
0000
0010
0000
0000
0100
0000
0001
0000
0000
0000
0010
0000
0000
0000
,  // measure 21
0100
1000
0010
0100
0001
1000
0100
0010
0001
0000
0000
0000
0100
0000
0000
0000
,  // measure 22
0010
1010
0011
1001
,  // measure 23
1000
0100
0001
1000
0010
0000
0001
0000
,  // measure 24
0101
0110
0010
1010
,  // measure 25
1000
0100
1000
0001
0010
0000
0100
0000
,  // measure 26
1000
1100
0011
1001
,  // measure 27
1000
0010
0001
1000
0100
0000
0001
0000
,  // measure 28
1001
1001
1100
0011
,  // measure 29
0001
0000
0000
0001
0100
0000
0010
0000
1000
0000
0000
0000
0100
0000
0000
0000
,  // measure 30
0110
0011
0101
0010
,  // measure 31
0100
0001
0010
0100
1000
0000
0010
0000
,  // measure 32
0110
1010
1001
0001
,  // measure 33
0010
0110
0000
1100
1000
0000
0010
0100
,  // measure 34
0020
0230
0302
0023
,  // measure 35
0130
0010
0001
0100
0010
0000
1010
0000
,  // measure 36
1000
1001
0001
0010
,  // measure 37
0100
1000
0010
0100
0002
2003
0200
3300
,  // measure 38
1200
1300
2010
3010
0120
0230
0002
0303
,  // measure 39
0010
0001
0010
0001
0010
0100
0010
0100
2000
0000
3002
0000
0200
0000
0303
0000
,  // measure 40
0210
0301
0021
0130
1200
2300
0020
3030
,  // measure 41
0100
0001
0010
0100
1000
0010
0100
0002
0000
0000
1003
0001
1000
0000
0000
0000
,  // measure 42
0001
0100
1000
0100
0002
0000
0023
0000
,  // measure 43
0130
1000
0010
0001
0010
0000
1000
0000
,  // measure 44
0001
0000
1001
0000
1000
0100
0001
0100
,  // measure 45
1000
0010
0001
0010
1000
0000
0010
0000
,  // measure 46
0100
0000
0001
0010
0002
0000
0203
0000
,  // measure 47
0320
0000
1030
0010
1000
0000
0100
0000
,  // measure 48
0001
0100
1000
0010
0200
0000
0302
0000
,  // measure 49
0010
0000
0000
0010
0000
0000
0010
0000
0013
0000
0100
0000
1000
0010
0001
0010
,  // measure 50
1000
0000
0001
1000
0001
0000
0011
0000
,  // measure 51
0220
0000
0330
0000
0100
1000
0010
0200
,  // measure 52
0000
0302
0000
0013
0200
0000
2300
0000
,  // measure 53
0002
0000
3003
1000
0010
0100
0001
1000
,  // measure 54
0200
1000
0010
1300
,  // measure 55
1100
0000
0101
0000
0100
0010
0100
0001
,  // measure 56
2000
3001
1001
0110
,  // measure 57
0001
0000
0100
0000
0010
1000
0100
1000
,  // measure 58
0001
0010
0000
0000
0000
0000
0110
0000
,  // measure 59
1100
0000
1001
0000
0001
0100
1000
0100
,  // measure 60
0001
0010
0000
0110
0000
0100
0000
1100
,  // measure 61
0000
0011
0000
0001
0100
1000
0100
0001
,  // measure 62
2000
3200
0310
0011
,  // measure 63
1001
0000
1010
0000
1000
0100
0001
0100
,  // measure 64
1000
0010
0000
0100
0001
0010
0000
0001
,  // measure 65
0000
0100
0000
0001
0010
0100
1000
0010
,  // measure 66
0100
0000
0001
0000
0010
0000
0100
0000
1000
0000
0100
1000
0010
0100
0001
0010
,  // measure 67
0001
0000
0100
0001
0010
0000
0100
0000
1000
0000
0010
0100
0010
1000
0100
0010
,  // measure 68
0000
0001
0000
0100
0001
0000
0010
0000
0100
0000
1000
0010
0100
0001
0000
1000
,  // measure 69
0100
0000
0000
0000
0010
0000
0001
0000
0100
0000
0000
0010
0000
0000
1000
0000
0000
0000
0001
1000
0001
0000
0100
0000
0020
0000
0000
0000
0030
0000
0000
0000
;

//---------------dance-single - ----------------
#NOTES:
     dance-single:
     :
     Medium:
     6:
     0.390,0.402,0.131,0.253,0.027,306.000,17.000,33.000,0.000,0.000,0.000,0.390,0.402,0.131,0.253,0.027,306.000,17.000,33.000,0.000,0.000,0.000:
0000
0000
0000
0000
,
0000
0000
0000
0000
,
0000
0000
0000
0000
,
0000
0000
0000
0000
,
1000
0010
0100
0000
,
0001
0000
0010
0000
0100
0010
0000
0000
,
0100
0000
1000
0000
0100
1000
0100
0000
,
1000
0010
0000
0010
0100
0000
0000
0000
,
0001
0001
1000
1000
,
0001
0000
0000
0010
0000
0000
0100
0000
1000
0000
0000
0000
0001
0000
1000
0000
0001
0000
0000
0000
0000
0000
0000
0000
0100
0000
0000
0000
0010
0000
0000
0000
,
0200
0320
2030
3000
,
0100
0000
0010
0200
0000
0020
0000
0330
,
0000
0020
0000
0002
0000
0033
0100
0000
,
0010
1000
0001
0010
0100
0000
1000
0100
,
2000
3020
0230
0300
,
0001
0000
0010
0001
0000
0202
0000
0303
,
0000
1000
0000
2200
0000
3300
0100
0000
,
1000
0010
0100
0001
1000
0000
0002
0000
,
0203
0000
0010
0010
,
0020
0330
0010
1010
,
1000
0000
1001
0000
0001
0010
0100
1000
,
0010
0000
0100
0000
0001
1000
0001
1000
0001
0000
0000
0000
0010
0000
0000
0000
,
0100
1000
0001
0001
,
0100
0001
0100
0001
0100
0000
0100
0000
,
0010
0010
1000
1000
,
0100
1000
0001
0100
0010
0000
1000
0000
,
0001
0010
0100
0100
,
1000
0100
1000
0100
1000
0000
1000
0000
,
0010
0010
0100
0100
,
0001
1000
0001
1000
0001
0000
0011
0000
,
0010
0110
0100
1100
,
1000
0010
1000
0010
1000
0000
1010
0000
,
0010
0110
0100
0101
,
0001
0010
0001
0010
0001
0000
1001
0000
,
1000
1010
0010
0110
,
0100
0001
0010
0100
1000
0000
1000
0000
,
0001
0001
0010
0100
,
1000
0000
0010
0100
0010
0010
1000
0000
,
0100
0000
0100
0000
0100
0010
0001
0000
,
1000
0010
0100
0001
0010
0100
0100
0000
,
0010
0000
0010
0000
0010
0001
0001
0000
,
1000
0000
0010
0000
0100
0000
0001
0100
0000
0000
0100
0000
0010
0000
0000
0000
,
0000
1000
0200
0000
,
0320
0000
0230
1300
,
0001
0000
0100
0001
,
0010
0001
0010
0100
2000
0000
3020
0000
,
0230
0300
0001
1000
,
2002
3003
0002
0023
,
0230
0300
1000
0001
,
2002
0000
3003
0000
0220
0000
0000
0330
,
1000
1000
0001
0010
,
0100
0000
0010
0010
,
0001
0000
0100
0010
,
1000
0000
0000
0000
1000
0001
1000
0001
,
0010
0100
1000
0010
,
0001
0000
0010
0000
1000
0010
1000
0010
,
1000
0001
0010
1000
,
0010
0000
0001
0000
1000
0000
0100
1000
,
0000
0010
0000
0000
0000
0000
0110
0000
,
0100
0000
0001
0000
0010
0001
0010
0001
,
0010
0010
0100
0100
,
1000
0000
1000
0000
0010
1000
0010
1000
,
0010
0010
0100
0100
,
0001
0000
0001
0000
1000
0001
1000
0001
,
1000
1000
0100
0100
,
0010
0000
0010
0000
0001
0010
0001
0010
,
0001
0100
0100
0000
0010
0000
1000
1000
,
1000
0000
0001
0001
0001
0000
0010
0100
,
0100
0000
1000
0100
1000
0000
0010
0010
,
0100
0000
0000
0000
0001
0000
0000
0010
0000
0000
0100
0000
2000
0000
3000
0000
;

//---------------dance-single - ----------------
#NOTES:
     dance-single:
     :
     Easy:
     3:
     0.219,0.268,0.000,0.008,0.000,199.000,0.000,1.000,0.000,0.000,0.000,0.219,0.268,0.000,0.008,0.000,199.000,0.000,1.000,0.000,0.000,0.000:
0000
0000
0000
0000
,
0000
0000
0000
0000
,
0000
0000
0000
0000
,
0000
0000
0000
0000
,
1000
0010
0100
0100
,
0001
0000
0010
0000
,
0001
0001
0100
0100
,
0010
0000
1000
0000
,
0001
0000
0010
0000
,
0100
1000
0001
0100
,
0010
0000
0010
1000
,
0001
0000
0001
0000
,
0000
0000
1000
0000
,
0100
0000
0010
0001
,
0010
0000
0001
1000
,
0001
0000
1000
0000
,
0000
0000
0010
0000
,
0100
0000
0001
0001
,
0001
0000
0010
0010
,
0010
0000
0100
0000
,
1000
0000
0001
0000
,
1000
0001
1000
0001
1000
0000
0010
0000
,
0100
0001
0000
0001
,
0010
0010
0100
0000
,
1000
1000
0001
0000
,
0100
0100
0010
0000
,
0000
0010
0010
0000
,
1000
1000
1000
0000
,
0001
0001
0001
0000
,
0010
0100
1000
0000
,
0010
0100
0001
0000
,
1000
0001
1000
0000
,
1000
0100
0010
0000
,
0001
0100
0010
0000
,
1000
0010
1000
0000
,
0001
1000
0001
0001
,
0010
0010
0001
0000
,
1000
0010
0100
0001
,
0010
0010
0010
0100
,
1000
1000
1000
0000
0001
0000
0100
0000
,
0010
0010
0010
0100
,
0001
0001
0001
0000
0000
0000
1000
0000
,
0000
0001
0100
0000
,
0100
0000
0100
0010
,
0000
1000
0100
0000
,
0100
0000
0100
0010
,
0010
0000
0001
0001
,
0001
0000
1000
1000
,
1000
0000
0010
0010
,
0010
0000
0100
0000
,
0001
0000
0000
0001
,
0010
0000
0010
0100
,
1000
0000
1000
0001
,
0100
0000
0100
0010
,
1000
0000
0000
0001
,
0001
0000
0010
0100
,
1000
0000
1000
0001
,
0100
0000
0010
1000
,
0001
0000
0000
1000
,
0001
0001
0010
0010
,
0100
0000
1000
0000
,
0010
0000
0100
0100
,
0001
0000
0000
1000
,
1000
0000
0001
0010
,
0100
0000
1000
0100
,
1000
0000
0010
0010
,
0010
0000
0100
0000
0001
0000
0010
0010
,
0010
0000
0001
0000
0100
0000
0010
0010
,
0010
0000
1000
0000
0001
0000
1000
1000
,
1000
0000
0001
0000
1000
0000
0002
0003
;

//---------------dance-single - ----------------
#NOTES:
     dance-single:
     :
     Beginner:
     1:
     0.147,0.214,0.000,0.000,0.000,134.000,0.000,0.000,0.000,0.000,0.000,0.147,0.214,0.000,0.000,0.000,134.000,0.000,0.000,0.000,0.000,0.000:
0000
0000
0000
0000
,
0000
0000
0000
0000
,
0000
0000
0000
0000
,
0000
0000
0000
0000
,
1000
0000
1000
0000
,
1000
0000
0000
0000
,
0001
0000
0001
0000
,
0001
0000
0000
0000
,
0000
0000
0000
0000
,
0000
0000
1000
0000
,
1000
0000
0010
0000
,
0010
0000
0100
0000
,
0000
0000
0001
0000
,
0010
0000
0100
0000
,
0100
0000
0100
0000
,
0000
0000
1000
0000
,
0000
0000
0010
0000
,
0100
0000
0001
0000
,
0000
0000
1000
0000
,
0000
0000
0100
0000
,
0000
0000
0010
0000
,
0000
0000
0001
0000
,
0000
0100
0000
0000
,
0100
0000
0100
0000
,
0010
0000
0010
0000
,
1000
1000
1000
0000
,
0000
0001
0000
0000
,
0001
0000
0001
0000
,
0010
0000
0010
0000
,
0100
0100
0100
0000
,
0100
0000
1000
0000
,
0010
0010
0010
0000
,
0100
0000
0001
0000
,
1000
1000
1000
0000
,
0001
0000
0010
0000
,
0100
0100
0100
0000
,
0010
0000
0001
0000
,
1000
0000
0010
0000
,
0100
0100
0100
0000
,
0001
0001
0001
0000
,
1000
1000
1000
0000
,
0100
0100
0100
0000
,
0000
0000
0010
0000
,
0010
0000
0010
0000
,
0000
0000
0001
0000
,
0001
0000
0001
0000
,
0000
0000
1000
0000
,
1000
0000
1000
0000
,
0000
0000
0010
0000
,
0010
0000
0010
0000
,
0100
0000
0000
0000
,
0000
0000
0001
0000
,
0001
0000
0000
0000
,
1000
0000
0100
0100
,
0100
0000
0000
0010
,
0000
0000
0001
0001
,
0001
0000
0100
0100
,
0100
0000
0010
0010
,
0010
0000
0000
0100
,
0100
0000
0001
0001
,
0001
0000
1000
0000
,
0100
0000
0010
0010
,
0010
0000
0000
0001
,
0001
0000
0001
0000
,
0100
0000
0010
0000
,
1000
0000
0010
1000
,
0001
0010
0100
1000
,
1000
0010
0100
0001
,
0001
1000
0100
1000
,
0001
0100
0010
0100
;
