#TITLE:Second Heaven (Samba, Samba, SomeBody MIX);
#SUBTITLE:;
#ARTIST:Remixed by DJ YOSHITAKA;
#TITLETRANSLIT:;
#SUBTITLETRANSLIT:;
#ARTISTTRANSLIT:;
#GENRE:;
#CREDIT:;
#BANNER:[SC2012] - Second Heaven (Samba Samba, Somebody MIX).png;
#BACKGROUND:[SC2012] - Second Heaven (Samba Samba, Somebody MIX)-bg.png;
#LYRICSPATH:;
#CDTITLE:cdtitle.png;
#MUSIC:[SC2012] - Second Heaven (Samba Samba, Somebody MIX).mp3;
#OFFSET:-0.028;
#SAMPLESTART:23.124;
#SAMPLELENGTH:15.000;
#SELECTABLE:YES;
#BPMS:0.000=135.000
;
#STOPS:188.000=1.333
;
#BGCHANGES:;
#KEYSOUNDS:;
#ATTACKS:;

//---------------dance-single - ----------------
#NOTES:
     dance-single:
     :
     Hard:
     9:
     0.495,0.590,0.201,0.067,0.377,382.000,24.000,8.000,0.000,0.000,0.000,0.495,0.590,0.201,0.067,0.377,382.000,24.000,8.000,0.000,0.000,0.000: // measure 0
0000
0000
0000
0000
,  // measure 1
0000
0000
0000
0000
,  // measure 2
0000
0000
0000
0000
,  // measure 3
0000
0000
0000
0000
,  // measure 4
0000
0000
0000
0000
,  // measure 5
1000
0100
0001
0000
0001
0100
1000
0000
,  // measure 6
0001
0100
1000
0000
1000
0100
0001
0000
,  // measure 7
1000
0010
0100
0000
0100
0010
1000
0000
,  // measure 8
0001
0010
0100
0000
0100
0010
0001
0000
,  // measure 9
1000
0010
0001
0000
0001
0100
1000
0000
,  // measure 10
0001
0100
1000
0000
1000
0010
0001
0000
,  // measure 11
0011
0000
1100
0000
,  // measure 12
0110
0000
0000
0000
1001
0000
0000
0000
1000
0000
0000
0010
0000
0000
0100
0000
,  // measure 13
0001
0010
1000
0010
0001
0000
1001
0000
,  // measure 14
1000
0010
1000
0010
0100
0010
1000
0100
,  // measure 15
0010
0001
0100
0010
0100
0000
0110
0000
,  // measure 16
0010
1000
0001
0001
1000
0000
1001
0000
,  // measure 17
1000
0010
0001
0010
1000
0000
1001
0000
,  // measure 18
0001
0100
0001
0100
0010
0100
0001
0010
,  // measure 19
0100
1000
0010
0100
0010
0000
0110
0000
,  // measure 20
0100
0000
0000
0001
0000
0000
1000
0000
0000
1000
0000
0000
0001
0000
0010
0000
0100
0000
1000
0000
0000
0000
0000
0000
,  // measure 21
0001
0000
0010
0000
0100
0000
0000
0010
,  // measure 22
0000
0010
0000
0010
0000
0100
0100
0000
,  // measure 23
1000
0000
0010
0000
0100
0000
0000
0010
,  // measure 24
0000
1000
0000
1001
0000
0000
0000
0000
,  // measure 25
1000
0000
0010
0000
0100
0100
0100
0000
,  // measure 26
0010
0100
0001
0001
0010
0100
0010
0000
,  // measure 27
0001
0000
0100
0000
0010
0010
0010
0000
,  // measure 28
0100
0000
0000
0010
0000
0000
1000
0000
0000
1000
0000
0000
0001
0000
0010
0000
0100
0000
1000
0000
0000
0000
0000
0000
,  // measure 29
0001
0100
0110
0000
0001
0100
0110
0000
,  // measure 30
0001
0100
0110
0000
0001
0100
0010
0010
,  // measure 31
1000
0100
0110
0000
1000
0100
0110
0000
,  // measure 32
1000
0100
0110
0000
1000
0100
0010
0010
,  // measure 33
0001
1001
0000
0000
0000
0000
0000
0000
,  // measure 34
1000
1001
0000
0000
0000
0000
0000
0000
,  // measure 35
0011
0000
1100
0000
,  // measure 36
0110
0000
0000
0000
1001
0000
0000
0000
1000
0000
0000
0010
0000
0000
0100
0000
,  // measure 37
0001
0000
0010
0100
0000
0010
0000
0001
0000
0001
0000
0100
0000
0000
0000
0000
,  // measure 38
0010
0000
1000
0100
0000
0100
0000
0200
0000
0000
0310
0000
0001
0000
0001
0000
,  // measure 39
1000
0000
0010
0100
0000
0010
0000
1000
0000
1000
0000
0100
0000
0000
0010
0001
,  // measure 40
0010
0000
0001
0100
0000
0100
0000
0010
2000
0000
0000
0000
3002
0000
0000
0000
,  // measure 41
1003
0000
0000
0100
0000
0100
0000
0001
0000
0100
0000
2000
0000
0000
3000
0000
,  // measure 42
0001
0000
0000
0100
0000
0100
0000
1000
0000
0100
0000
0002
0000
0000
0003
0000
,  // measure 43
1000
0000
0010
0100
0000
0010
0000
0100
0001
0000
0010
0100
0000
0010
0000
0100
,  // measure 44
1000
0000
0010
0100
0000
0010
0000
1000
0001
0000
0010
0100
0000
0010
0000
0001
,  // measure 45
1000
0000
0010
1000
0010
0000
0100
0001
0100
0000
0001
0010
0001
0000
1000
0100
,  // measure 46
1000
1000
0100
0100
0001
0001
0010
0010
,  // measure 47
2000
0000
0000
3000
0000
0000
0000
0000
0000
0000
0000
0000
0001
0000
0000
0000
0000
0000
0010
0000
0000
0100
0000
0000
0000
0000
0000
0100
0000
0000
0000
0000
0000
0100
0000
0000
1000
0000
0000
0000
0010
0000
0000
0000
0100
0000
0000
0000
,  // measure 48
0001
0000
1000
0100
0001
0100
1000
0010
,  // measure 49
1000
0000
0010
0100
0001
0010
0100
0100
,  // measure 50
0010
0010
0001
0100
1000
0100
0001
0010
,  // measure 51
0001
0000
0010
0100
0100
1000
1001
0000
,  // measure 52
0000
0000
0001
0010
1000
0010
0001
0100
,  // measure 53
0001
0000
0100
0010
1000
0100
0010
0010
,  // measure 54
0100
0100
1000
0010
0001
0010
1000
0100
,  // measure 55
1000
0000
0100
0010
0010
0001
1001
0000
,  // measure 56
0000
0000
0000
0000
1000
0000
0010
0100
0000
0010
0000
1000
0000
1000
0000
0100
,  // measure 57
0000
0000
0000
0000
0010
0000
0001
0100
0000
0100
0000
0200
0000
0000
0310
0000
,  // measure 58
1000
0000
1000
0000
0001
0000
0010
0100
0000
0010
0000
0001
0000
0001
0000
0100
,  // measure 59
0000
0000
0010
1000
0010
0000
1000
0100
0000
0010
0000
0010
0000
0000
0000
0000
,  // measure 60
0000
0000
0000
0000
0001
0000
0100
0010
0000
0100
0000
0001
0000
0001
0000
0010
,  // measure 61
0000
0000
0000
0000
0100
0000
1000
0010
0000
0010
0000
0020
0000
0000
0130
0000
,  // measure 62
0001
0000
0001
0000
1000
0000
0100
0010
0000
0100
0000
1000
0000
1000
0000
0010
,  // measure 63
0000
0000
0000
0000
0000
0000
0100
0000
0000
0001
0000
0000
0100
0000
0000
0000
0000
0000
0001
0000
0000
0010
0000
0000
0000
0000
0000
0100
0000
0000
0000
0000
0000
0100
0000
0000
1000
0000
0000
0000
0010
0000
0000
0000
0100
0000
0000
0000
,  // measure 64
0001
0000
0000
0000
;

//---------------dance-single - ----------------
#NOTES:
     dance-single:
     :
     Medium:
     7:
     0.431,0.456,0.352,0.101,0.188,306.000,42.000,12.000,0.000,0.000,0.000,0.431,0.456,0.352,0.101,0.188,306.000,42.000,12.000,0.000,0.000,0.000:
0000
0000
0000
0000
,
0000
0000
0000
0000
,
0000
0000
0000
0000
,
0000
0000
0000
0000
,
0000
0000
0000
0000
,
0001
1100
0001
1100
,
0001
0000
1100
0000
0001
0100
0010
1000
,
1000
0101
1000
0101
,
1000
0000
0101
0000
1000
0010
0100
0001
,
0001
1100
0001
1100
,
0001
0000
1100
0000
0001
0010
0100
1000
,
1001
0000
0011
0000
,
1100
1001
0110
1001
,
0001
0010
0100
0000
0110
0000
0000
0000
,
0100
1000
0010
1000
0100
0000
1100
0000
,
1000
0100
0010
0000
0011
0000
0000
0000
,
0001
1000
0001
0000
1001
0000
0000
0000
,
1000
0010
0100
0000
0110
0000
0000
0000
,
0100
0001
0010
0001
0100
0000
0101
0000
,
0001
0010
0100
0000
1100
0000
0000
0000
,
1000
0001
1000
0000
1001
0000
0000
0000
,
1000
0000
0010
0000
0100
0000
0000
0010
,
0000
0010
0000
0010
0000
0100
0001
0000
,
0010
0000
0100
0000
1000
0000
0000
0010
,
0000
1000
0000
1001
0000
0000
0000
0000
,
0001
0000
0010
0000
0100
0000
0000
0010
,
0000
0010
0000
0010
0000
0100
1000
0000
,
0010
0000
0100
0000
0001
0000
0000
0100
,
0000
0001
0000
1001
0000
0000
0000
0000
,
1000
0101
1000
0101
,
1000
0101
1000
0101
,
0001
1100
0001
1100
,
0001
1100
0001
1100
,
1000
1001
0000
0000
0000
0000
0000
0000
,
0001
1001
0000
0000
0000
0000
0000
0000
,
1010
0000
0101
0000
,
0110
0000
0000
0000
1001
0000
0000
0000
0001
0000
0000
0010
0000
0000
0100
0000
,
1000
0000
0000
0000
0010
0000
0000
0100
0000
0000
0100
0000
0001
0000
0000
0000
,
0010
0000
0000
0100
0000
0100
0000
0200
0000
0000
0310
0000
0001
0000
0100
0000
,
0001
0000
0000
0000
0010
0000
0000
0100
0000
0000
0100
0000
1000
0000
0010
0100
,
0010
0100
0001
0010
0002
0000
2003
0000
,
3001
0000
0000
0100
0000
0000
0100
0000
1000
0000
0100
0000
0002
0000
0000
0000
,
1003
0000
0000
0100
0000
0000
0100
0000
0001
0000
0100
0000
2000
0000
0000
0000
,
3001
0000
0000
0010
0000
0000
0100
0000
1000
0000
0000
0010
0000
0000
0100
0000
,
0001
0000
0000
0010
0000
0000
0001
0000
1000
0000
0000
0010
0000
0000
1000
0000
,
0002
0023
0230
2300
,
3001
0001
0100
0100
1000
1000
0010
0010
,
0002
0000
0000
0003
0000
0000
0000
0000
0000
0000
0000
0000
1000
0000
0000
0000
0000
0000
0010
0000
0000
0000
0000
0000
0100
0000
0000
0000
0000
0000
0001
0000
0000
0000
0000
0000
1000
0000
0000
0000
0100
0000
0000
0000
0010
0000
0000
0000
,
0001
0000
1000
0100
0001
0100
1000
0010
,
1000
0000
0010
0100
0001
0010
0100
0100
,
0010
0010
0001
0100
1000
0100
0001
0010
,
0001
0000
0010
0100
0100
1000
1001
0000
,
0000
0000
0001
0100
1000
0100
0001
0010
,
0001
0000
0010
0100
1000
0010
0100
0100
,
0010
0010
1000
0100
0001
0100
1000
0010
,
1000
0000
0010
0100
0100
0001
1001
0000
,
0000
0000
0000
0000
1000
0000
0000
0010
0000
0100
0000
0010
0000
0010
0000
1000
,
0000
0000
0000
0000
0100
0000
0000
0010
0000
0010
0000
0020
0000
0000
0031
0000
,
0100
0000
0100
0000
0001
0000
0000
0010
0000
0100
0000
0010
0000
0010
0000
0001
,
0000
0000
0100
0010
0100
0000
0010
0000
1000
0000
1000
0000
1001
0000
0000
0000
,
0000
0000
0000
0000
0001
0000
0000
0100
0000
0010
0000
0100
0000
0100
0000
0001
,
0000
0000
0000
0000
0010
0000
0000
0100
0000
0100
0000
0200
0000
0000
1300
0000
,
0010
0000
0010
0000
1000
0000
0000
0100
0000
0010
0000
0100
0000
0100
0000
1000
,
0000
0000
0000
0000
0000
0000
0010
0000
0000
0100
0000
0000
0010
0000
0000
0000
0000
0000
0100
0000
0000
0000
0000
0000
0001
0000
0000
0000
0000
0000
0001
0000
0000
0000
0000
0000
1000
0000
0000
0000
0100
0000
0000
0000
0010
0000
0000
0000
,
0001
0000
0000
0000
;

//---------------dance-single - ----------------
#NOTES:
     dance-single:
     :
     Easy:
     4:
     0.290,0.348,0.209,0.008,0.004,216.000,25.000,1.000,0.000,0.000,0.000,0.290,0.348,0.209,0.008,0.004,216.000,25.000,1.000,0.000,0.000,0.000:
0000
0000
0000
0000
,
0000
0000
0000
0000
,
0000
0000
0000
0000
,
0000
0000
0000
0000
,
0000
0000
0000
0000
,
1000
0000
0010
0000
,
0100
0000
0001
1000
,
0001
0000
0010
0000
,
0100
0000
1000
0001
,
1000
0000
0010
0000
,
0100
0000
0001
1000
,
1001
0000
0011
0000
,
1100
0110
1001
0000
,
0001
0010
0100
0000
,
1000
0010
0100
0010
,
1000
0100
0010
0000
,
0001
0100
0001
0000
,
1000
0010
0100
0000
,
0001
0010
0100
0010
,
0001
0100
0010
0000
,
1000
0100
1000
0000
,
0001
0000
0001
0000
0001
0000
0000
0010
,
0000
0010
0000
0010
0000
0100
0100
0000
,
1000
0000
1000
0000
1000
0000
0000
1001
,
0000
1001
0000
0000
0000
0000
0000
0000
,
1000
0000
1000
0000
1000
0000
0000
0010
,
0000
0010
0000
0010
0000
0100
0100
0000
,
0001
0000
0001
0000
0001
0000
0000
1001
,
0000
1001
0000
0000
0000
0000
0000
0000
,
0001
0100
1000
0010
,
0001
0100
0110
0110
,
0010
1000
0100
0001
,
0010
1000
0100
0110
,
0110
0110
0000
0000
0000
0000
0000
0000
,
1001
1001
0000
0000
0000
0000
0000
0000
,
1010
0000
0101
0000
,
0110
0000
0000
0000
1001
0000
0000
0000
1000
0000
0000
0010
0000
0000
0100
0000
,
0001
0000
0100
0000
1000
0100
0001
0000
,
0010
0000
0100
0000
1000
1000
1000
0000
,
1000
0000
0100
0000
0001
0100
1000
0000
,
0010
0100
0100
0001
1001
0000
0000
0000
,
1000
0000
0100
0000
0001
0100
1000
0000
,
0001
0000
0100
0000
1000
0100
0001
0000
,
0001
0101
1000
1100
,
0001
0011
1000
1010
,
1000
0100
0001
0010
,
1000
0100
0010
0001
1000
0100
0010
0001
,
2000
3000
0000
0000
0001
0000
0000
0000
0010
0000
0000
0000
0100
0000
0000
0000
,
1000
0001
0100
0010
,
0010
0100
0001
0010
,
0010
0100
1000
0010
,
0010
0100
0010
1000
,
0000
1000
0010
0100
,
0100
0010
1000
0100
,
0100
0010
0001
0100
,
0100
0001
0010
0100
,
0100
1000
0010
0100
,
0001
1000
0100
0010
,
0010
0001
0100
0010
,
1000
0001
0010
0100
,
0000
1000
0010
0100
,
0001
1000
0100
0010
,
0010
0001
1000
0010
,
0100
0001
1000
0010
,
0100
0000
0000
0000
;
