#TITLE:Hawaiian Roller Coaster Ride;
#SUBTITLE:(Eurobeat Remix);
#ARTIST:AAA;
#TITLETRANSLIT:;
#SUBTITLETRANSLIT:;
#ARTISTTRANSLIT:;
#CREDIT:;
#BANNER:Hawaiian Roller Coaster Ride (Eurobeat Remix).png;
#BACKGROUND:Hawaiian Roller Coaster Ride (Eurobeat Remix)-background.png;
#LYRICSPATH:;
#CDTITLE:;
#MUSIC:Hawaiian Roller Coaster Ride (Eurobeat Remix).mp3;
#OFFSET:-4.974;
#SAMPLESTART:51.320;
#SAMPLELENGTH:12.000;
#SELECTABLE:YES;
#BPMS:0.000=145.000;
#STOPS:108.000=1.241
;
#BGCHANGES:;

//---------------dance-single - ----------------
#NOTES:
     dance-single:
     :
     Hard:
     8:
     0.577,0.474,0.509,0.122,0.193: // measure 1
1000
0000
0000
0100
0000
0000
1000
0000
1010
0000
0000
0000
0101
0000
0000
0000
,  // measure 2
0001
0000
0000
0100
0000
0000
0010
0000
1000
0000
0001
0000
0011
0000
0000
0000
,  // measure 3
0010
0000
0000
0001
0000
0000
0100
0000
0110
0000
0000
0000
1001
0000
0000
0000
,  // measure 4
0001
0000
0000
0100
0000
0000
0010
0000
1000
0000
0010
0000
1001
0000
0000
0000
,  // measure 5
1100
0000
0000
0100
0000
0000
1000
0000
0020
0000
0000
0000
0030
0000
0000
0000
,  // measure 6
0100
0000
0000
0010
0000
0000
0100
0000
0020
0000
0000
0000
2030
0000
0000
0000
,  // measure 7
3100
0000
0000
0010
0000
0000
0001
0000
0101
0000
0000
0000
1010
0000
0000
0000
,  // measure 8
0001
0000
0000
0100
0000
0000
0001
0000
1001
0000
0101
0000
1001
0000
0000
0000
,  // measure 9
0001
1000
0100
0010
,  // measure 10
0100
0000
0000
0010
0001
0000
0100
0000
0010
0000
0001
0000
0010
0000
0000
0000
,  // measure 11
0100
1000
0010
0100
,  // measure 12
0001
0000
0000
1000
0100
0000
0010
0000
0100
0000
1000
0000
0001
0000
0000
0000
,  // measure 13
1100
0100
0110
0010
,  // measure 14
0011
0001
0101
1001
,  // measure 15
0101
0000
0001
0000
0100
0010
1000
0001
,  // measure 16
0011
0000
1100
0000
1000
0100
0010
0001
,  // measure 17
1000
0000
0001
0001
1000
1000
0001
0100
,  // measure 18
1000
0100
0010
1000
0001
0000
0010
0000
,  // measure 19
1100
0000
0000
0100
0000
0000
1000
0000
1010
0000
0000
0000
0110
0000
0000
0000
,  // measure 20
0010
0000
0000
0100
0000
0000
0001
0000
0100
0000
0010
0000
1010
0000
0000
0000
,  // measure 21
0010
1000
0001
1000
0100
0010
0100
0000
,  // measure 22
0010
0001
0100
0010
1000
0100
0010
0000
,  // measure 23
0100
0010
0001
0010
0100
1000
0010
0000
,  // measure 24
0100
0010
1000
0100
0001
0100
0100
0000
,  // measure 25
1000
0001
1000
0010
0100
0001
0010
0000
,  // measure 26
0100
1000
0100
0010
0001
0010
0100
0000
,  // measure 27
0010
0001
1000
0001
0100
1000
0100
0000
,  // measure 28
1001
0000
0000
0000
0001
0000
0000
0100
0000
0000
0001
0000
1000
0000
0000
0001
,  // measure 29
0000
0000
0000
0000
0001
0000
0000
0010
0100
0000
1000
0000
0100
0000
0001
0000
,  // measure 30
0100
0000
0000
0000
0100
0000
1000
0000
0010
0000
0100
0000
0001
0000
1000
0010
,  // measure 31
0000
0000
0000
0000
0100
0001
0000
0001
0100
0000
0010
0000
1000
0000
0001
0000
,  // measure 32
0010
0000
0001
0000
0101
0000
0000
0001
0000
0000
1000
0000
1100
0000
0000
1000
,  // measure 33
0000
0000
0001
0000
0101
0000
0000
0001
0000
0000
1000
0000
1100
0000
0000
0000
,  // measure 34
1001
0000
0000
0000
0001
0000
0100
0000
0010
0000
1000
0010
0000
1000
0010
0000
,  // measure 35
0100
0000
0001
0000
1000
0000
0100
0000
1000
0000
0010
0100
0000
0010
0100
0000
,  // measure 36
0001
1000
0000
0000
0100
0001
0100
1000
,  // measure 37
0010
0001
0010
0100
0010
1000
0001
0000
,  // measure 38
0010
0000
1100
0000
1001
0000
0001
0100
,  // measure 39
0110
0000
0010
0000
1001
0000
1000
0100
,  // measure 40
0110
1002
1003
2001
,  // measure 41
3001
0000
0001
0100
0001
0100
0001
0100
,  // measure 42
0001
1020
1030
0102
,  // measure 43
0103
0000
0010
0100
0010
0100
0010
0100
,  // measure 44
0010
0102
0013
2100
,  // measure 45
3010
0000
1000
0100
1000
0100
1000
0100
,  // measure 46
1000
1002
1003
2001
,  // measure 47
3001
0000
0001
0100
0010
1000
0001
0001
,  // measure 48
0010
0000
0010
0000
0100
0000
0000
1000
0000
0000
0100
0000
0001
0000
0000
0100
,  // measure 49
0000
0000
0000
0000
0010
0000
0000
0001
1000
0000
0010
0000
0100
0000
0010
0000
,  // measure 50
1000
0000
0010
0100
0010
1000
0100
0010
,  // measure 51
0001
0000
0000
0000
0001
0100
0000
0010
1000
0000
0001
0000
0010
0000
0100
0000
,  // measure 52
1000
0000
0001
0000
0011
0000
0000
0001
0000
0000
1000
0000
1010
0000
0000
1000
,  // measure 53
0000
0000
0001
0000
0011
0000
0000
0001
0000
0000
1000
0000
1010
0000
0000
0000
,  // measure 54
0101
0000
0000
0000
1000
0000
0001
0000
0100
0000
0001
0100
0000
0010
0000
1000
,  // measure 55
0010
0000
0100
0000
0001
0000
0010
0000
0100
0000
1000
0100
0000
1000
0000
0010
,  // measure 56
0100
0001
0000
0000
0001
0100
1000
0100
,  // measure 57
0001
0100
1000
0010
0100
0001
1000
0000
,  // measure 58
0100
0000
0000
0000
1001
0000
0000
0001
0000
0000
1000
0000
1100
0000
0000
0000
,  // measure 59
0101
0000
0000
0000
0001
0000
0000
0100
0000
0000
0010
0000
1010
0000
0101
0000
,  // measure 60
2002
3003
0000
0000
;

//---------------dance-single - ----------------
#NOTES:
     dance-single:
     :
     Medium:
     6:
     0.451,0.446,0.358,0.132,0.071:
0001
0000
0000
1000
0000
0000
0001
0000
0100
0000
0000
0000
0001
0000
0000
0000
,
0100
0000
0000
0010
0000
0000
0100
0000
0010
0000
1000
0000
0010
0000
0000
0000
,
1000
0000
0000
0100
0000
0000
0010
0000
0001
0000
0000
0000
0010
0000
0000
0000
,
0001
0000
0000
0100
0000
0000
0010
0000
1000
0000
0010
0000
1000
0000
0000
0000
,
0010
0000
0000
0100
0000
0000
0001
0000
2000
0000
0000
0000
3000
0000
0000
0000
,
0001
0000
0000
1000
0000
0000
0100
0000
1000
0000
0000
0000
0100
0000
0000
0000
,
1000
0000
0000
0010
0000
0000
0100
0000
0001
0000
0000
0000
0100
0000
0000
0000
,
0010
0000
0000
1000
0000
0000
0001
0000
0100
0000
0100
0000
0010
0000
0000
0000
,
0100
0001
0010
1000
,
0010
0000
0100
0000
0010
0001
0010
0000
,
0001
0100
1000
0100
,
0010
0000
0100
0010
1000
0010
1000
0000
,
1010
0010
0110
0100
,
0101
0001
0011
0110
,
1100
0000
0100
0000
1000
0100
0010
0001
,
0010
0000
0001
0000
0010
0001
0010
0100
,
1000
0001
0100
0001
,
1000
0100
0010
0001
0010
0000
0100
0000
,
1001
0000
0000
0001
0000
0000
1000
0000
0100
0000
0000
0000
1000
0000
0000
0000
,
0010
0000
0000
0100
0000
0000
0010
0000
1000
0000
0010
0000
0100
0000
0000
0000
,
0001
0000
0100
0000
0010
0000
1000
0010
,
1000
0000
0010
0000
0100
0000
0010
1000
,
0001
0000
0010
0000
1000
0000
0010
0001
,
0100
0000
0010
0000
1000
0010
0100
0000
,
0010
0000
1000
0000
0001
0010
0100
0000
,
0010
0000
0001
0000
0100
1000
0100
0000
,
0010
0000
0100
0000
0001
0100
0010
0000
,
1001
0101
1001
1100
,
1001
0000
0001
0100
0010
0000
0100
0010
,
0100
0110
1010
1100
,
0110
0000
0010
0001
0100
0000
0100
1000
,
0100
0000
0000
0000
0010
0000
0000
0100
0000
0000
0001
0000
0100
0000
0000
0010
,
0000
0000
1000
0000
0010
0000
0000
0100
0000
0000
0001
0000
1000
0000
0000
0000
,
0001
0000
1000
0000
0100
0000
0010
0001
,
0010
0000
0001
0000
0100
0000
0010
1000
,
0010
0000
1010
0101
,
1010
0000
0001
0100
0010
1000
0001
0000
,
0010
0000
0010
0000
0110
0000
0100
0010
,
0100
0000
1000
0000
1100
0000
1000
0010
,
0100
0102
0103
0201
,
0301
2002
0000
0000
,
3003
2100
3100
1200
,
1300
2002
0000
0000
,
3003
2010
3010
1020
,
1030
2002
0000
0000
,
3003
0001
0010
0100
,
1000
0000
0001
0010
0100
1000
0001
0010
,
0100
1000
0001
0000
0100
0000
0010
0100
,
0010
0000
0100
0000
0001
0000
1000
0100
,
0001
0000
0100
0000
0010
0000
0001
0010
,
0001
0000
0001
0000
0010
0000
1000
0010
,
0100
0110
0010
0011
,
0001
0101
0100
0101
,
1010
0000
1001
0000
0001
0000
1000
0100
,
1000
0000
0010
0000
0100
0000
0001
0100
,
0001
0000
0001
0100
,
0010
0000
1000
0010
0100
0010
1000
0000
,
1001
0000
0000
0000
0101
0000
0000
0001
0000
0000
0100
0000
0010
0000
0000
0000
,
1000
0000
0000
0000
0010
0000
0000
0100
0000
0000
0001
0000
1000
0000
1000
0000
,
0020
0030
0000
0000
;

//---------------dance-single - ----------------
#NOTES:
     dance-single:
     :
     Easy:
     4:
     0.273,0.363,0.170,0.160,0.000:
0001
0000
1000
0000
,
0100
0000
1000
1000
,
0010
0000
0100
0000
,
0001
0000
1000
1000
,
0100
0010
0002
0003
,
0001
0010
0100
0100
,
0010
0001
1001
1001
,
0001
0100
0110
1001
,
0001
0000
1000
0000
,
0010
0000
0100
0000
,
0001
0000
1000
0000
,
0100
0000
1000
0000
,
0010
0100
0010
0000
,
0100
0001
1000
1000
,
0100
0000
1000
0000
,
0010
0000
0100
0000
,
0001
0100
0100
0100
,
0001
1000
0100
0010
,
1001
0000
0001
0000
,
1000
0000
0110
0110
,
1001
0000
0001
0000
,
1000
0000
0010
0000
,
1000
0000
0100
0000
,
0001
0000
0100
0000
,
0010
0000
0001
0000
,
0100
0000
0010
0000
,
1000
0000
0010
0000
,
1001
0001
0100
0001
,
1000
0100
0100
1000
,
1000
0100
1000
0001
,
0100
0010
0010
0100
,
0100
0020
1030
0020
,
0130
0020
1030
1010
,
0101
0001
1000
0100
,
1000
0010
0100
0001
,
0010
0000
0100
0100
,
0100
0010
0001
1000
,
0010
1001
0000
0000
,
0000
1001
0000
0000
,
0000
0002
0000
0200
,
0000
0303
0000
0000
,
0000
0200
0000
0020
,
0000
0330
0000
0000
,
0000
0020
0000
2000
,
0000
3030
0000
0000
,
0000
2002
0000
0000
,
0000
0000
0000
0000
,
3003
1001
0001
0100
,
0100
0001
0010
1000
,
0010
0100
1000
0010
,
0010
0100
0001
0100
,
0010
2000
3100
0200
,
0310
0020
0031
0002
,
0103
0001
0100
1000
,
0100
0010
0001
0010
,
1000
0000
0100
0100
,
0100
0010
0001
1000
,
0010
1001
0001
0101
,
0101
0000
0100
0000
0010
0000
1000
0001
,
0200
0300
0000
0000
;

//---------------dance-single - ----------------
#NOTES:
     dance-single:
     :
     Beginner:
     1:
     0.133,0.222,0.085,0.000,0.000:
0001
0000
0000
0000
,
1000
0000
0000
0000
,
0001
0000
0000
0000
,
1000
0000
0000
0000
,
0010
0000
0100
0000
,
0010
0000
0100
0100
,
0001
0000
0000
0000
,
1000
0000
0010
0010
,
0100
0000
0000
0000
,
0001
0000
0000
0000
,
1000
0000
0000
0000
,
0100
0000
0000
0000
,
1000
0000
0000
0000
,
0001
0000
0000
0000
,
0100
0000
0000
0000
,
0001
0000
0000
0000
,
1000
0000
0001
0000
,
0100
0000
0010
0010
,
1001
0000
0001
0000
,
1000
0000
0010
0010
,
0100
0000
0000
0000
,
0001
0000
0000
0000
,
1000
0000
0000
0000
,
0100
0000
0000
0000
,
1000
0000
0000
0000
,
0001
0000
0000
0000
,
0100
0000
0010
0000
,
1001
0010
0000
0000
,
0000
0100
0000
0000
,
0000
0001
0000
0000
,
0000
1000
0000
0000
,
0000
0100
0000
0000
,
0000
1000
0000
0010
,
0000
0100
0000
0000
,
0000
0001
0000
0000
,
0000
0000
1000
1000
,
0000
0001
0000
0100
,
0000
0110
0000
0000
,
0000
1001
0000
0000
,
0000
0001
0000
0001
,
0000
0001
0000
0000
,
0000
1000
0000
1000
,
0000
1000
0000
0000
,
0000
0010
0000
0010
,
0000
0010
0000
0000
,
0000
0110
0000
0100
,
0000
0100
0000
0000
,
0000
1001
0000
0000
,
0000
0010
0000
0000
,
0000
0100
0000
0000
,
0000
0001
0000
0000
,
0000
1000
0000
0100
,
0000
0010
0000
0001
,
0001
0001
0000
0000
,
0000
1000
0000
0000
,
0000
0000
0010
0010
,
0010
0100
0010
1000
,
0001
1001
0000
0001
,
0000
1000
0000
1001
,
1001
0000
0000
0000
;
