#VERSION:0.81;
#TITLE:HAPPY ANGEL;
#SUBTITLE:;
#ARTIST:jun with TAHIRIH;
#TITLETRANSLIT:;
#SUBTITLETRANSLIT:;
#ARTISTTRANSLIT:;
#GENRE:;
#ORIGIN:;
#CREDIT:;
#BANNER:Happy Angel.png;
#BACKGROUND:Happy Angel-bg.png;
#PREVIEWVID:;
#JACKET:Happy Angel-jacket.png;
#CDIMAGE:;
#DISCIMAGE:;
#LYRICSPATH:;
#CDTITLE:;
#MUSIC:[Falling in Love] - Happy Angel.mp3;
#OFFSET:0.120;
#SAMPLESTART:73.960;
#SAMPLELENGTH:12.000;
#SELECTABLE:YES;
#BPMS:0.000=180.001;
#STOPS:;
#DELAYS:;
#WARPS:;
#TIMESIGNATURES:0.000=4=4;
#TICKCOUNTS:0.000=4;
#COMBOS:0.000=1;
#SPEEDS:0.000=1.000=0.000=0;
#SCROLLS:0.000=1.000;
#FAKES:;
#LABELS:0.000=Song Start;
#BGCHANGES:;
#KEYSOUNDS:;
#ATTACKS:
;

//---------------dance-single - ----------------
#NOTEDATA:;
#CHARTNAME:;
#STEPSTYPE:dance-single;
#DESCRIPTION:;
#CHARTSTYLE:;
#DIFFICULTY:Hard;
#METER:9;
#RADARVALUES:0.714,0.653,0.295,0.295,0.092,433.000,29.000,29.000,0.000,0.000,0.000,0.000,0.000,0.714,0.653,0.295,0.295,0.092,433.000,29.000,29.000,0.000,0.000,0.000,0.000,0.000;
#CREDIT:;
#OFFSET:0.140;
#BPMS:0.000=180.001
;
#STOPS:;
#DELAYS:;
#WARPS:;
#TIMESIGNATURES:0.000=4=4
;
#TICKCOUNTS:0.000=4
;
#COMBOS:0.000=1
;
#SPEEDS:0.000=1.000=0.000=0
;
#SCROLLS:0.000=1.000
;
#FAKES:;
#LABELS:0.000=Song Start
;
#NOTES:
// measure 0
0000
0000
0000
0000
,  // measure 1
0000
0000
0000
0000
,  // measure 2
0000
0000
0000
0000
0001
0000
0100
0000
2000
0000
0000
3100
0000
0000
0001
0000
,  // measure 3
0010
0000
0010
0000
0100
0000
1000
0000
0020
0000
0000
0130
0000
0000
0010
0000
,  // measure 4
1000
0000
1000
0000
0100
0000
0010
0000
0002
0000
0000
1003
0000
0000
0010
0000
,  // measure 5
0100
0100
0001
0010
0100
2000
0000
0002
,  // measure 6
3003
0000
1001
0000
0001
0010
0100
0000
,  // measure 7
0010
0100
1000
0000
0001
0100
1000
0100
,  // measure 8
0001
0001
1001
0000
1000
0100
0010
0000
,  // measure 9
0010
0100
1000
0000
0001
0100
0010
0100
,  // measure 10
0001
0001
1001
0000
0001
0100
0010
0000
,  // measure 11
0010
0100
0001
0000
1000
0100
0010
0100
,  // measure 12
1000
1000
1001
0000
1000
0010
0100
0000
,  // measure 13
0010
0100
0001
0000
1000
0100
0001
0100
,  // measure 14
1000
1000
1001
0000
0001
0100
0010
0000
,  // measure 15
0100
0010
1000
0100
0100
0001
0200
0000
,  // measure 16
1300
0000
1001
0000
1000
0100
0010
0000
,  // measure 17
0100
0010
0001
0100
0100
1000
0200
0000
,  // measure 18
0301
0000
1001
0000
0001
0100
1000
0000
,  // measure 19
1000
0100
0001
0000
1000
0100
0001
0000
,  // measure 20
0001
0100
1000
0010
1000
0010
0100
0001
,  // measure 21
0100
0001
0010
0100
0010
0100
1000
0001
,  // measure 22
1000
0001
1000
0000
0001
0100
0000
0001
,  // measure 23
0100
0010
2000
0000
3100
0010
0000
0010
,  // measure 24
0100
1000
0010
0000
1000
0010
0100
0000
,  // measure 25
0110
0000
1001
0000
1000
0100
0000
1000
,  // measure 26
0100
0010
0002
0000
0100
0100
0103
0000
,  // measure 27
0110
0000
1001
0000
0001
0010
0000
0001
,  // measure 28
0010
0100
2000
0000
3020
0000
0032
0000
,  // measure 29
0203
0000
1300
0010
0100
0001
0000
1000
,  // measure 30
0010
0000
0100
0000
0000
0000
0010
0000
0100
0000
0001
0000
0020
0000
0000
0130
,  // measure 31
0000
1000
1001
0000
1000
0010
0000
0010
,  // measure 32
1000
0100
0020
0000
0031
0100
0010
0000
,  // measure 33
0110
0000
1001
0000
0001
0010
0000
0010
,  // measure 34
0001
0100
0020
0000
1030
0100
0010
0000
,  // measure 35
0110
0000
1001
0000
1000
0010
0000
0010
,  // measure 36
1000
0100
0002
0000
0023
0000
2030
0000
,  // measure 37
3001
0010
0100
0000
1000
0010
0100
0000
,  // measure 38
0001
0010
0100
1000
0010
0100
0001
0010
,  // measure 39
0100
1000
0002
0000
0013
0100
1000
0000
,  // measure 40
0001
0010
0100
0000
0010
0100
2000
0000
,  // measure 41
0010
0010
3010
0000
,  // measure 42
0100
0010
0100
0000
0010
0000
0110
0000
,  // measure 43
1001
0000
2000
0000
3100
0010
0001
0000
,  // measure 44
1000
0100
0010
0000
0100
0010
0002
0000
,  // measure 45
0100
0100
0103
0000
,  // measure 46
0010
0100
0010
0000
0100
0000
0110
0000
,  // measure 47
1001
2100
0000
0000
,  // measure 48
3001
0000
0110
0000
0010
1000
0100
0000
,  // measure 49
0010
0001
0100
0000
0110
0000
1001
0000
,  // measure 50
1000
0010
0100
0001
0010
0001
0100
0010
,  // measure 51
1000
0100
0010
0000
0001
0100
0010
0000
,  // measure 52
1000
0100
0010
0000
0001
0100
0010
1000
,  // measure 53
0001
0010
1000
0000
1000
0010
0001
0000
,  // measure 54
1000
0010
0001
0000
0001
0010
1000
0100
,  // measure 55
0010
0001
1001
0000
1000
0100
0000
0100
,  // measure 56
1000
0010
0200
0000
0301
0010
0100
0000
,  // measure 57
0110
0000
1001
0000
0001
0100
0000
0100
,  // measure 58
0001
0010
0200
0000
1300
0010
0100
0000
,  // measure 59
0110
0000
1001
0000
1000
0100
0000
0100
,  // measure 60
1000
0010
0002
0000
0203
0000
2300
0000
,  // measure 61
3001
0100
0010
0000
1000
0100
0010
0000
,  // measure 62
0001
0100
0010
1000
0100
0010
0001
0100
,  // measure 63
0010
0000
1000
0000
0100
0000
0010
0000
0001
0000
0100
0010
0000
0100
0010
0000
,  // measure 64
0100
0000
0100
0000
0001
0000
0010
0000
0100
0000
1000
0100
0000
1000
0100
0000
,  // measure 65
1000
0000
1000
0000
0010
0000
0001
0000
0010
0000
1000
0001
0000
1000
0001
0000
,  // measure 66
0010
0010
0100
1000
0100
1000
0001
0100
,  // measure 67
0001
0000
0100
0000
0010
0000
1000
0000
0100
0000
0010
0100
0000
0010
0100
0000
,  // measure 68
0010
0000
0010
0000
0001
0000
0100
0000
0010
0000
1000
0100
0000
1000
0100
0000
,  // measure 69
1000
0000
1000
0000
0010
0000
0001
0000
0010
0000
1000
0001
0000
1000
0001
0000
,  // measure 70
0010
0010
0100
1000
0001
0100
0010
1000
,  // measure 71
0001
1000
0001
1000
0001
0000
0000
0000
0000
0000
0000
0000
0000
0000
0000
0000
;

//---------------dance-single - ----------------
#NOTEDATA:;
#CHARTNAME:;
#STEPSTYPE:dance-single;
#DESCRIPTION:;
#CHARTSTYLE:;
#DIFFICULTY:Medium;
#METER:7;
#RADARVALUES:0.666,0.581,0.591,0.387,0.005,362.000,58.000,38.000,0.000,0.000,0.000,0.000,0.000,0.666,0.581,0.591,0.387,0.005,362.000,58.000,38.000,0.000,0.000,0.000,0.000,0.000;
#CREDIT:;
#NOTES:
0000
0000
0000
0000
,
0000
0000
0000
0000
,
0000
0000
1000
0100
0001
0100
1000
0000
,
1100
0000
1000
0010
0100
0001
0010
0000
,
0011
0000
0001
0100
1000
0100
0001
0000
,
0101
0000
0001
0010
0100
0000
1000
0010
,
0100
0102
1003
2100
,
3001
0000
0012
0000
1003
0000
0010
1000
,
0010
1000
2010
0000
3001
0000
0012
0000
,
1003
0000
2100
0000
3001
0000
0100
0001
,
0100
0001
0102
0000
1003
0000
2100
0000
,
3001
0000
0012
0000
1003
0000
0010
1000
,
0010
1000
2010
0000
3001
0000
0012
0000
,
1003
0000
2100
0000
3001
0000
0100
0001
,
0100
0001
0102
0000
1003
0000
2100
0000
,
3001
0000
1000
0010
0010
0100
0001
0000
,
1001
2010
3001
0012
,
1003
0000
0001
0010
0010
0100
1000
0000
,
1001
0102
1003
2100
,
3001
0000
1000
0100
0100
0010
0001
0000
,
1001
0000
0001
0100
1000
0000
1000
0100
,
0001
0000
1000
0100
0001
0000
0001
0100
,
1000
0000
1001
0000
1000
0010
0000
1000
,
0010
0100
0002
0000
0013
0100
0000
0010
,
0001
0100
0010
0000
0100
0001
0010
0000
,
0110
0000
1001
0000
1000
0010
0000
1000
,
0010
0100
0002
0000
0010
0010
0013
0000
,
0110
0000
1001
0000
0001
0100
0000
0001
,
0100
0010
2000
0000
3200
0000
0302
0000
,
0023
0000
1030
0100
0010
0001
0000
1000
,
0100
0000
0010
0000
0000
0000
0100
0000
0010
0000
0001
0000
0100
0000
0000
0010
,
0000
1000
1001
0000
0001
0010
0000
0010
,
0001
0100
0020
0000
0130
0001
0010
0000
,
0110
0000
1001
0000
1000
0010
0000
0010
,
1000
0100
0020
0000
0130
1000
0010
0000
,
0110
0000
1001
0000
0001
0100
0000
0100
,
0001
0010
2000
0000
3200
0000
0302
0000
,
1003
0010
0100
0000
0001
0010
0100
0000
,
1000
0010
0100
0001
0010
0100
1000
0010
,
0100
0001
2000
0000
0000
0000
0010
0000
,
0000
0100
0000
3002
,
0010
0010
0010
0000
,
0100
0100
0103
0000
,
0000
0002
0000
0100
,
0000
0010
0000
2003
,
0100
0100
0100
0000
,
0010
0010
3010
0000
,
0000
1001
0000
0000
,
1000
0000
1010
0000
0010
0100
0001
0000
,
0010
0100
1000
0000
1100
0000
0011
0000
,
0001
0100
0010
0000
1000
0100
0010
0000
,
0110
1001
0011
1100
,
1010
0101
0110
1001
,
0001
0100
1000
0000
1000
0100
0001
0000
,
1000
0100
0001
0000
0001
0100
1000
0000
,
0001
0000
1001
0000
0001
0010
0000
0010
,
0001
0100
0020
0000
0130
0001
0010
0000
,
0110
0000
1001
0000
1000
0010
0000
0010
,
1000
0100
0020
0000
0130
1000
0010
0000
,
0110
0000
1001
0000
0001
0010
0000
0010
,
0001
0100
2000
0000
3020
0000
0032
0000
,
0013
0100
1000
0000
0010
0100
0001
0000
,
1000
0010
0100
0001
0010
0100
1000
0010
,
0100
0001
1000
0100
0001
0100
1000
0000
,
1100
0000
1000
0010
0100
0001
0010
0000
,
0011
0000
0001
0100
1000
0100
0001
0000
,
0101
0000
0001
0100
0001
0100
0010
1000
,
0010
1000
0001
0100
1000
0100
0001
0000
,
0101
0000
0001
0100
0010
1000
0100
0000
,
1100
0000
1000
0010
0001
0010
1000
0000
,
1010
0000
1000
0100
1000
0100
0010
0001
,
0010
0001
1001
0000
0000
0000
0000
0000
;

//---------------dance-single - ----------------
#NOTEDATA:;
#CHARTNAME:;
#STEPSTYPE:dance-single;
#DESCRIPTION:;
#CHARTSTYLE:;
#DIFFICULTY:Easy;
#METER:4;
#RADARVALUES:0.272,0.327,0.122,0.000,0.000,175.000,12.000,0.000,0.000,0.000,0.000,0.000,0.000,0.272,0.327,0.122,0.000,0.000,175.000,12.000,0.000,0.000,0.000,0.000,0.000,0.000;
#CREDIT:;
#NOTES:
0000
0000
0000
0000
,
0000
0000
0000
0000
,
0000
0010
0000
0000
,
0000
0100
0000
0000
,
0000
0001
0000
0000
,
0000
1000
0000
0000
,
0000
0001
0000
0010
,
0000
0100
0000
0000
,
0000
1000
0000
0010
,
0000
0100
0000
0000
,
0000
0001
0000
0010
,
0000
0100
0000
0000
,
0000
1000
0000
0010
,
0000
0100
0000
0000
,
0000
0001
0000
0001
,
0000
1000
0000
1000
,
0000
0010
0000
0010
,
0000
0100
0000
0100
,
0000
0001
0000
0001
,
0000
0010
0000
0010
,
0000
0100
0000
1000
,
0000
0010
0000
0100
,
0000
0001
0000
0000
,
0000
1000
0010
0100
,
0001
1000
0100
0010
,
0001
1000
0010
0100
,
0001
0010
0100
1000
,
0001
0100
0010
1000
,
0001
0010
0100
1000
,
0001
0101
0000
0110
,
0000
1010
0000
1001
,
0000
0001
0010
0100
,
1000
0001
0100
0010
,
1000
0001
0010
0100
,
1000
0010
0100
0001
,
1000
0100
0010
0001
,
1000
0010
0100
0001
,
1000
1100
0000
0110
,
0000
0011
0000
1001
,
0000
0001
0000
0000
,
0000
0100
0000
0000
,
0000
0010
0000
0000
,
0000
1000
0000
1001
,
0000
1001
0000
0000
,
0000
1000
0000
0000
,
0000
0010
0000
0000
,
0000
0100
0000
0001
,
0001
1001
0000
0000
,
0001
0010
0000
0100
,
0000
1000
0000
0000
,
0010
0100
0001
0010
,
0100
1000
0000
0010
,
0100
0010
1000
0001
,
0010
0100
0000
0010
,
0000
0001
0100
0010
,
1000
0001
0000
0010
,
0000
0100
0000
1000
,
0010
1000
0000
0100
,
0000
0010
0000
0001
,
0100
0001
0000
0010
,
0000
0100
0000
1000
,
0010
1000
0000
0100
,
0000
0010
0000
0001
,
0000
0100
0100
0010
,
0010
1000
1000
0100
,
0100
0010
0010
0001
,
0001
1000
1000
0001
,
0001
1000
1000
0010
,
0010
0100
0100
0001
,
0001
0010
0010
0100
,
0100
1000
0010
0100
,
0001
1001
0000
0000
;
