#TITLE:Early In The Morning;
#SUBTITLE:(We Like The Captain);
#ARTIST:Captain Jack;
#TITLETRANSLIT:;
#SUBTITLETRANSLIT:;
#ARTISTTRANSLIT:;
#CREDIT:Lisek;
#BANNER:[SC2012] - Early In The Morning (We Like The Captain).png;
#BACKGROUND:[SC2012] - Early In The Morning (We Like The Captain)-bg.png;
#LYRICSPATH:;
#CDTITLE:cdtitle.png;
#MUSIC:[SC2012] - Early In The Morning (We Like The Captain).ogg;
#OFFSET:-0.096;
#SAMPLESTART:28.752;
#SAMPLELENGTH:14.360;
#SELECTABLE:YES;
#BPMS:0.000=134.000;
#STOPS:;
#BGCHANGES:;

//---------------dance-single - Lisek----------------
#NOTES:
     dance-single:
     Lisek:
     Hard:
     8:
     0.575,0.577,0.509,0.084,0.171: // measure 1
0000
0000
0000
0000
,  // measure 2
0000
0000
0000
0000
,  // measure 3
0000
0000
0000
0000
,  // measure 4
0000
0000
0000
0000
,  // measure 5
1000
0000
0100
0000
1000
0000
0100
0010
0100
0000
1000
0000
0200
0000
0000
0000
,  // measure 6
0310
0000
0001
0000
0010
0000
0001
0100
0001
0000
0010
0000
0002
0000
0000
0000
,  // measure 7
1003
0000
0010
0000
1000
0000
0010
0100
0010
0000
1000
0000
0020
0000
0000
0000
,  // measure 8
0130
0001
0010
0100
1000
0000
1001
0000
,  // measure 9
0001
0000
0000
0000
0001
0000
0000
0001
0010
0000
0001
0000
0001
0000
0010
0000
,  // measure 10
0100
0000
0000
0000
0100
0000
0000
0100
1000
0000
0100
0000
0100
0000
1000
0000
,  // measure 11
0010
0000
0000
0000
0010
0000
0000
0010
0100
0000
0010
0000
0010
0000
1000
0000
,  // measure 12
0001
0010
0100
1000
0001
0000
1001
0000
,  // measure 13
1000
0000
0000
0000
0100
0000
0000
1000
0100
0000
1000
0000
0010
0000
1000
0000
,  // measure 14
0100
0000
0000
0000
0010
0000
0000
0100
0010
0000
0100
0000
0010
0000
0001
0000
,  // measure 15
0100
0000
0000
0000
0001
0000
0000
0100
0001
0000
0100
0000
0010
0000
0100
0000
,  // measure 16
0001
0100
0010
1000
1001
0000
1001
0000
,  // measure 17
1010
0000
0000
0000
0110
0000
0000
0100
0001
0000
0010
0000
0100
0000
0100
0000
,  // measure 18
0110
0000
0000
0000
1010
0000
0000
1000
0010
0000
0100
0000
0010
0000
0010
0000
,  // measure 19
0110
0000
0000
0000
0101
0000
0000
0001
0010
0000
0100
0000
0010
0000
0010
0000
,  // measure 20
0001
0010
0100
1000
1100
0000
1001
0000
,  // measure 21
0101
0000
0000
0000
0011
0000
0000
0001
0100
0000
1000
0000
0100
0000
0100
0000
,  // measure 22
0011
0000
0000
0000
0101
0000
0000
0001
0010
0000
1000
0000
0010
0000
0010
0000
,  // measure 23
0110
0000
0000
0000
1010
0000
0000
1000
0100
0000
0001
0000
0100
0000
0100
0000
,  // measure 24
0010
0100
0010
0001
0011
0000
1001
0000
,  // measure 25
0001
0000
0100
0001
0100
0000
0010
1000
0010
0000
0100
0000
0001
0000
0010
0000
,  // measure 26
0001
0000
1000
0010
1000
0000
0001
0100
0001
0000
1000
0000
0100
0000
0010
0000
,  // measure 27
0100
0000
1000
0100
1000
0000
0001
0010
0001
0000
1000
0000
0010
0000
0100
0000
,  // measure 28
0001
0001
1000
1000
1001
0000
1001
0000
,  // measure 29
0101
0000
0000
0000
0110
0000
0000
0010
1000
0000
0100
0000
0010
0000
0010
0000
,  // measure 30
0011
0000
0000
0000
0101
0000
0000
0001
0100
0000
0010
0000
1000
0000
1000
0000
,  // measure 31
1100
0000
0000
0000
0110
0000
0000
0010
0001
0000
1000
0000
0010
0000
0010
0000
,  // measure 32
0100
0001
0100
0010
0110
0000
1001
0000
,  // measure 33
0001
0001
0100
1000
0100
0100
0010
1000
,  // measure 34
0200
0000
0300
0001
0100
1000
0000
0000
,  // measure 35
0001
0001
1000
1000
,  // measure 36
2002
0000
0000
3003
,  // measure 37
1000
1000
0100
0001
0100
0100
1000
0010
,  // measure 38
0200
0000
0300
0001
0100
1000
0000
0000
,  // measure 39
0100
0100
0001
1000
0100
0100
0001
0100
,  // measure 40
2000
0000
3000
0001
0010
1000
0000
0000
,  // measure 41
0010
0000
0000
0000
,  // measure 42
0001
0000
0001
0000
0001
0000
0100
0001
0100
0000
0010
0000
0100
0000
0010
0000
,  // measure 43
1000
0000
1000
0000
1000
0000
0010
1000
0010
0000
0100
0000
0010
0000
0100
0000
,  // measure 44
0001
0000
0001
0000
0001
0000
0010
0001
0010
0000
0001
0000
0100
0000
0010
0000
,  // measure 45
1000
0100
0010
0001
1000
0000
1001
0000
,  // measure 46
0101
0000
0000
0000
0100
0000
0000
0010
0100
0000
0001
0000
0100
0000
0000
0000
,  // measure 47
1010
0000
0000
0000
0010
0000
0000
1000
0010
0000
0100
0000
0010
0000
0000
0000
,  // measure 48
0110
0100
1001
1000
,  // measure 49
0011
0110
1010
1001
,  // measure 50
2002
0000
0000
0000
0000
0000
0000
3003
,  // measure 51
0101
0000
0000
0000
0110
0000
0000
0100
0001
0000
0010
0000
0100
0000
0100
0000
,  // measure 52
1010
0000
0000
0000
1100
0000
0000
1000
0010
0000
0100
0000
0010
0000
0010
0000
,  // measure 53
0101
0000
0000
0000
0011
0000
0000
0001
0100
0000
0001
0000
0010
0000
0010
0000
,  // measure 54
0100
1000
0001
0010
0110
0000
1001
0000
,  // measure 55
1010
0000
0000
0000
0110
0000
0000
1000
0010
0000
0100
0000
0001
0000
0001
0000
,  // measure 56
0011
0000
0000
0000
0101
0000
0000
0001
0100
0000
0010
0000
1000
0000
1000
0000
,  // measure 57
1010
0000
0000
0000
0110
0000
0000
0001
0100
0000
0010
0000
0100
0000
0100
0000
,  // measure 58
0010
1000
0100
0010
0110
0000
1001
0000
,  // measure 59
0001
0000
0100
0000
1000
0000
0100
0010
0100
0000
0010
0000
1000
0000
0010
0000
,  // measure 60
0100
0000
0001
0000
0100
0000
1000
0100
1000
0000
0100
0000
0001
0000
1000
0000
,  // measure 61
0100
0000
0001
0000
0100
0000
1000
0100
1000
0000
0010
0000
0100
0000
0001
0000
,  // measure 62
1000
1000
0100
0100
1100
0000
1001
0000
,  // measure 63
1000
0000
0000
0000
0010
0000
0000
0100
0010
0000
1000
0000
0100
0000
0010
0000
,  // measure 64
0001
0000
0000
0000
0100
0000
0000
0001
0010
0000
0001
0000
0100
0000
0010
0000
,  // measure 65
1000
0000
0000
0000
0010
0000
0000
1000
0010
0000
0100
0000
0001
0000
0100
0000
,  // measure 66
0001
0010
0100
1000
1001
0000
1001
0000
;

//---------------dance-single - Lisek----------------
#NOTES:
     dance-single:
     Lisek:
     Medium:
     6:
     0.376,0.357,0.159,0.017,0.063:
0000
0000
0000
0000
,
0000
0000
0000
0000
,
0000
0000
0000
0000
,
0000
0000
0000
0000
,
1000
0000
0010
0000
1000
0010
1000
0000
,
0001
0000
0100
0000
0001
0100
0001
0000
,
1000
0000
0001
0000
1000
0001
1000
0000
,
0001
0010
0110
0110
,
1000
0000
0001
0000
0100
0010
0100
0000
,
0001
0000
1000
0000
0010
0100
0010
0000
,
1000
0000
0001
0000
0100
0010
0100
0000
,
0010
1000
1001
1001
,
1000
0000
0100
0000
1000
0100
1000
0000
,
0001
0000
0100
0000
0001
0100
0001
0000
,
1000
0000
0010
0000
1000
0010
1000
0000
,
0010
0100
0110
0110
,
1000
0000
0000
0000
0100
0000
0000
1000
0100
0000
0000
0000
0010
0000
0000
0000
,
0001
0000
0000
0000
0100
0000
0000
0001
0100
0000
0000
0000
0010
0000
0000
0000
,
1000
0000
0000
0000
0100
0000
0000
1000
0100
0000
0000
0000
1000
0000
0000
0000
,
0010
0100
0010
0100
0010
0000
0110
0000
,
0100
0000
0000
0000
0001
0000
0000
0100
0001
0000
0000
0000
0100
0000
0000
0000
,
0010
0000
0000
0000
1000
0000
0000
0010
1000
0000
0000
0000
0100
0000
0000
0000
,
1000
0000
0000
0000
0001
0000
0000
0100
0001
0000
0000
0000
1000
0000
0000
0000
,
0100
0010
0100
0010
0100
0000
0110
0000
,
0010
0000
0001
0000
1000
0010
1000
0000
,
0010
0000
0100
0000
0001
0010
0001
0000
,
1000
0000
0100
0000
0010
0100
0010
0000
,
0100
1000
0001
0100
0010
0000
0110
0000
,
0100
0000
0000
0000
0001
0000
0000
1000
0100
0000
0000
0000
0010
0000
0000
0000
,
0001
0000
0000
0000
1000
0000
0000
0010
1000
0000
0000
0000
0100
0000
0000
0000
,
1000
0000
0000
0000
0010
0000
0000
0100
0001
0000
0000
0000
0010
0000
0000
0000
,
0001
1000
0001
1000
0001
0000
1001
0000
,
1000
0010
1000
0000
0001
0100
0001
0000
,
1000
0000
0001
0000
,
1000
0000
0100
0000
1000
0100
1000
0000
,
0020
0000
0000
0230
0000
0000
0300
0000
,
0001
0010
0001
0000
1000
0010
1000
0000
,
0010
0000
0100
0000
,
0001
0000
0010
0000
0001
1000
0001
0000
,
1000
0000
0001
0000
,
1001
0000
0000
0000
,
1000
0000
0100
0000
1000
0100
1000
0000
,
0100
0000
0010
0000
0100
0010
0100
0000
,
0010
0000
0001
0000
0010
0001
0010
0000
,
0001
1000
1001
1001
,
1000
0000
0010
0000
1000
0010
1000
0000
,
0001
0000
0100
0000
0001
0100
0001
0000
,
1000
0000
0001
0000
1000
0001
1000
0000
,
0001
1000
1001
1001
,
0000
0000
0000
0000
,
1000
0000
0000
0000
0100
0000
0000
1000
0100
0000
0000
0000
0010
0000
0000
0000
,
0001
0000
0000
0000
0100
0000
0000
0001
0100
0000
0000
0000
0010
0000
0000
0000
,
1000
0000
0000
0000
0100
0000
0000
1000
0100
0000
0000
0000
0010
0000
0000
0000
,
0001
1000
0001
0100
0001
0000
1001
0000
,
1000
0000
0000
0000
0100
0000
0000
0010
0100
0000
0000
0000
0010
0000
0000
0000
,
0001
0000
0000
0000
0100
0000
0000
0010
0100
0000
0000
0000
0010
0000
0000
0000
,
1000
0000
0000
0000
0100
0000
0000
0010
0100
0000
0000
0000
0010
0000
0000
0000
,
0001
1000
0001
1000
0001
0000
1001
0000
,
1000
0000
0100
0000
0010
0100
1000
0000
,
0001
0000
0100
0000
0010
1000
0100
0000
,
0010
0000
0001
0000
1000
0001
0010
0000
,
0001
0010
0100
1000
0001
0000
1001
0000
,
1000
0000
0010
0000
0100
0010
1000
0000
,
0100
0000
0010
0000
0001
0100
0010
0000
,
0100
0000
0001
0000
1000
0100
0010
0000
,
0001
1000
0001
1000
0001
0000
1001
0000
;

//---------------dance-single - Lisek----------------
#NOTES:
     dance-single:
     Lisek:
     Beginner:
     1:
     0.056,0.107,0.000,0.000,0.000:
0000
0000
0000
0000
,
0000
0000
0000
0000
,
0000
0000
0000
0000
,
0000
0000
0000
0000
,
0000
0000
0000
0000
,
0000
0000
0000
0000
,
0000
0000
0000
0000
,
0000
0000
0000
0000
,
1000
0000
0000
0000
,
0001
0000
0000
0000
,
1000
0000
0000
0000
,
0000
0000
0000
0000
,
0001
0000
0000
0000
,
1000
0000
0000
0000
,
0001
0000
0000
0000
,
0000
0000
0000
0000
,
1000
0000
0000
0000
,
0100
0000
0000
0000
,
0010
0000
0000
0000
,
0000
0000
0000
0000
,
0001
0000
0000
0000
,
0010
0000
0000
0000
,
0100
0000
0000
0000
,
0000
0000
0000
0000
,
1000
0000
0000
0000
,
0001
0000
0000
0000
,
1000
0000
0000
0000
,
0000
0000
0000
0000
,
0001
0000
0000
0000
,
0010
0000
0000
0000
,
0100
0000
0000
0000
,
0000
0000
0000
0000
,
1000
0000
0001
0000
,
1000
0000
0000
0000
,
0001
0000
0000
0000
,
1000
0000
0000
0000
,
0001
0000
1000
0000
,
0001
0000
0000
0000
,
1000
0000
0001
0000
,
1000
0000
0000
0000
,
0000
0000
0000
0000
,
0001
0000
0000
0000
,
0100
0000
0000
0000
,
0001
0000
0000
0000
,
0000
0000
0000
0000
,
1000
0000
0000
0000
,
0010
0000
0000
0000
,
1000
0000
0000
0000
,
0000
0000
0000
0000
,
0000
0000
0000
0000
,
0001
0000
0000
0000
,
0010
0000
0000
0000
,
0100
0000
0000
0000
,
0000
0000
0000
0000
,
1000
0000
0000
0000
,
0100
0000
0000
0000
,
0010
0000
0000
0000
,
0000
0000
0000
0000
,
0001
0000
0000
0000
,
0100
0000
0000
0000
,
0010
0000
0000
0000
,
0000
0000
0000
0000
,
1000
0000
0000
0000
,
0010
0000
0000
0000
,
0100
0000
0000
0000
;

//---------------dance-single - Lisek----------------
#NOTES:
     dance-single:
     Lisek:
     Easy:
     3:
     0.186,0.220,0.000,0.008,0.000:
0000
0000
0000
0000
,
0000
0000
0000
0000
,
0000
0000
0000
0000
,
0000
0000
0000
0000
,
1000
0000
0000
0000
,
0001
0000
0000
0000
,
0100
0000
0000
0000
,
0010
0000
0100
0000
,
0010
0000
0000
0000
,
1000
0000
0000
0000
,
0001
0000
0000
0000
,
0100
0000
0001
0000
,
1000
0000
0000
0000
,
0100
0000
0000
0000
,
0010
0000
0000
0000
,
0001
0000
1000
0000
,
0001
0010
0001
0000
,
1000
0010
1000
0000
,
0001
0010
0001
0000
,
1000
0000
0001
0000
,
1000
0100
1000
0000
,
0001
0100
0001
0000
,
1000
0010
1000
0000
,
0001
0000
1000
0000
,
0001
0010
0001
0000
,
1000
0010
1000
0000
,
0001
0010
0001
0000
,
1000
0000
0001
0000
,
1000
0100
1000
0000
,
0001
0100
0001
0000
,
1000
0100
1000
0000
,
0010
0000
0100
0000
,
0001
0001
0001
0001
,
0100
0000
0100
0000
,
0010
0010
0010
0010
,
2000
0000
0000
3000
,
0001
0001
0001
0001
,
1000
0000
0010
0000
,
1000
1000
1000
1000
,
0010
0000
0100
0000
,
0001
0000
0000
0000
,
1000
0100
1000
0000
,
0001
0100
0001
0000
,
1000
0100
1000
0000
,
0001
0010
0100
0100
,
1000
0010
1000
0000
,
0001
0100
0001
0000
,
1000
0100
1000
0000
,
0001
0100
0010
0010
,
0000
0000
0000
0000
,
1000
0100
1000
0000
,
0001
0100
0001
0000
,
1000
0010
1000
0000
,
0001
0000
0010
0000
,
0001
0100
0001
0000
,
0100
0010
0100
0000
,
0010
1000
0010
0000
,
1000
0000
0001
0000
,
1000
0100
1000
0000
,
0100
0010
0100
0000
,
0010
0001
0010
0000
,
0001
0000
1000
0000
,
0010
0100
0010
0000
,
1000
0001
1000
0000
,
0010
0100
0010
0000
,
1000
0001
0100
0100
;
