#VERSION:0.81;
#TITLE:Diskommunication;
#SUBTITLE:;
#ARTIST:t+pazolite;
#TITLETRANSLIT:;
#SUBTITLETRANSLIT:;
#ARTISTTRANSLIT:;
#GENRE:;
#ORIGIN:;
#CREDIT:;
#BANNER:[SC2012] - Diskommunication.png;
#BACKGROUND:[SC2012] - Diskommunication-bg.png;
#PREVIEWVID:;
#JACKET:[SC2012] - Diskommunication-jacket.png;
#CDIMAGE:;
#DISCIMAGE:;
#LYRICSPATH:;
#CDTITLE:;
#MUSIC:[SC2012] - Diskommunication.ogg;
#OFFSET:-0.065;
#SAMPLESTART:109.381;
#SAMPLELENGTH:10.667;
#SELECTABLE:YES;
#DISPLAYBPM:90.000:180.000;
#BPMS:0.000=180.000,
30.000=380.000,
31.000=180.000,
127.000=90.000,
129.000=180.000;
#STOPS:30.000=0.500;
#DELAYS:;
#WARPS:;
#TIMESIGNATURES:0.000=4=4,
28.000=3=4,
31.000=4=4,
127.000=2=4,
129.000=4=4;
#TICKCOUNTS:0.000=4;
#COMBOS:0.000=1;
#SPEEDS:0.000=1.000=0.000=0;
#SCROLLS:0.000=1.000;
#FAKES:;
#LABELS:0.000=Song Start;
#BGCHANGES:;
#KEYSOUNDS:;
#ATTACKS:
;

//---------------dance-single - ----------------
#NOTEDATA:;
#CHARTNAME:;
#STEPSTYPE:dance-single;
#DESCRIPTION:;
#CHARTSTYLE:;
#DIFFICULTY:Challenge;
#METER:10;
#RADARVALUES:0.864,0.852,0.419,0.440,0.314,744.000,60.000,63.000,0.000,0.000,0.000,0.000,0.000,0.864,0.852,0.419,0.440,0.314,744.000,60.000,63.000,0.000,0.000,0.000,0.000,0.000;
#CREDIT:;
#NOTES:
0000
0000
0000
0000
,
0000
0000
0000
0000
,
0000
0000
0000
0000
,
0000
0000
0000
0000
,
2000
3020
0230
0302
,
0023
0032
0203
0320
,
1030
0010
1000
0001
0010
0001
1000
0001
,
0010
0100
1000
0010
0100
0001
0010
0100
1000
0000
0000
0000
0011
0000
0000
0000
,
0101
0000
0100
0010
1000
0100
0010
0000
,
0110
0000
0100
1000
0010
0100
0001
0000
,
0101
0000
0100
0001
0010
0100
1000
0000
,
1100
1001
0101
0110
,
1010
0000
1000
0100
0001
0100
1000
0000
,
1100
0000
1000
0010
0001
0010
1000
0000
,
1010
0000
1000
0100
0001
1000
0010
0001
,
0100
1000
0001
0010
1000
0001
0010
0000
,
0100
0000
1000
0000
0001
0000
0100
0010
,
0100
0001
1001
1000
1100
0100
0110
0000
,
0010
0000
0001
0000
1000
0000
0100
1000
,
0010
0100
0101
0001
1001
1000
1100
0000
,
0100
0000
1000
0000
0010
0000
0100
0010
,
0100
0001
1001
0001
0011
0001
1001
0000
,
1000
0000
0100
0000
1000
0000
0001
0100
,
0010
1000
1010
1000
1100
1000
1001
0001
,
0010
0001
0100
0010
1000
0100
1100
1000
,
0010
0100
0001
0010
0001
0100
0101
0001
,
0100
1000
0100
0001
0010
0100
1100
1000
,
0100
0001
0100
1000
0010
0100
0101
0001
,
1001
0000
1001
1000
1100
0000
1100
1000
,
1001
0000
0000
0000
1001
0000
0001
0000
0011
0000
0000
0000
0011
0000
0001
0100
,
0001
0000
0100
0010
0100
0000
0010
1000
0010
0000
1000
0001
1000
0000
0100
0000
,
0010
0000
0001
0000
1000
0001
1000
0001
1000
0001
1000
0001
1000
0000
0010
0000
,
0100
0000
0001
0000
0010
0000
0100
1000
0100
0000
1000
0000
0001
0000
0100
0000
,
0010
0000
1000
0000
1010
0000
0010
0000
0100
0000
0001
0000
0010
0001
0010
0001
,
0010
0000
0000
0000
0001
1000
0001
1000
0001
0000
0100
0000
0110
0000
0010
0000
,
1010
0000
1000
0000
0100
0000
0001
0000
0100
0000
1000
0000
0010
0100
0001
0010
,
0100
0000
0000
0000
0010
0001
0100
0010
1000
0000
0001
0000
0011
0000
0010
0000
,
0110
0000
0100
0000
1000
0000
0010
0000
0001
0000
0010
0000
0100
0010
0100
0010
,
0100
0000
0000
0000
0001
1000
0001
1000
0001
0000
1000
0000
1100
0000
0100
0000
,
0110
0000
0010
0000
0001
0000
0010
0000
0001
0000
0100
0000
0010
0100
0010
0100
,
0010
0000
0000
0000
1000
0010
1000
0010
1000
0000
0100
0000
1000
0000
0001
0000
,
0100
0001
1000
0100
0001
0100
1000
0010
,
0001
0000
0001
0010
1000
0100
0010
0010
,
0001
0001
0100
1000
0100
0001
0010
1000
,
0010
0000
0010
0001
0100
0010
1000
1000
,
0001
0001
1000
0001
0010
0001
1000
0010
,
1000
0000
0001
0010
1000
0001
0100
1000
,
0010
0001
1000
0100
0001
0010
0001
0100
,
0010
0000
1000
0010
0001
1000
0100
0001
,
0010
0000
0100
0000
1000
0000
0010
0000
0100
0000
0001
0020
0000
0000
0001
0000
,
0031
0000
0002
0000
0203
0000
0310
0020
,
0030
0000
0000
0000
0100
0000
0010
0000
1000
0000
0100
2000
0000
0000
0010
0000
,
3010
0000
0020
0000
0230
0000
0301
0002
,
0003
0000
0000
0000
0010
0000
0001
0000
0100
0000
0010
0200
0000
0000
0010
0000
,
0310
0000
2000
0000
3002
0000
0203
0002
,
0303
0000
0000
0000
0100
0000
0001
0000
0010
0000
0100
2000
0000
0000
0100
0000
,
3100
0000
0000
0000
0200
0000
0000
0320
0000
0000
0032
0000
0000
2003
0000
0000
,
3001
0100
0010
0000
2020
0000
3030
1000
,
0001
0010
0100
0000
2200
0000
3300
1000
,
0100
0010
0001
0000
0022
0000
0033
0001
,
0100
0000
0001
0000
2000
0000
0000
3002
0000
0000
0203
0000
0000
0320
0000
0000
,
1030
0001
0010
0000
0220
0000
0330
0100
,
1000
0010
0100
0000
0220
0000
0330
0100
,
0001
0010
0100
0000
2200
0000
3300
1000
,
0010
0000
0100
0000
0002
0000
0000
0023
0000
0000
0032
0000
0000
2003
0000
0000
,
3010
0000
0100
0000
0010
0000
0100
0001
0100
0000
0001
0000
0010
0001
0010
0000
,
0100
0000
1000
0000
0100
0000
0010
0001
0010
0000
0001
0000
0100
0001
0100
0000
,
0010
0000
1000
0000
0001
0000
1000
0100
0010
0000
0001
0000
0100
0010
1000
0000
,
0001
0000
0010
0100
1000
0000
1000
0010
0000
0010
0100
0000
0100
0001
0000
0001
,
0010
0000
0100
0000
1000
0000
0010
0100
0010
0000
0100
0000
0001
0010
0001
0000
,
0010
0000
0100
0000
1000
0000
0100
0010
0100
0000
0010
0000
0001
0100
0001
0000
,
0100
0000
0010
0000
1000
0000
0010
1000
0010
0000
0100
0000
0001
0100
0001
0000
,
1000
0000
0100
0000
0010
0000
0010
0001
0000
0001
0100
0000
0100
0010
0000
0010
,
1000
0100
0010
0001
0010
0001
0010
0001
,
0010
0001
0010
0001
0010
0001
0010
0001
,
0010
0001
1000
0001
1000
0001
1000
0001
,
1000
0001
1000
0001
1000
0001
1000
0001
,
1000
0010
2000
0000
3200
0000
0320
0000
,
0230
2300
3020
0230
,
0302
0000
0103
1000
0100
0001
0010
1000
,
0010
0000
0001
0000
0100
0000
0100
0010
0000
0010
1000
0000
1000
0100
0000
0100
,
0010
0000
0001
0000
1000
0000
0100
0000
0010
0000
0001
0010
0000
0000
0001
0000
,
0100
0001
0010
0000
0100
0000
1000
0010
,
0100
0000
0001
0000
0010
0000
0001
0000
1000
0000
0001
0100
0000
0000
0001
0000
,
0100
0000
0000
0000
0010
0000
0000
1000
0000
0000
0100
0000
0000
1000
0000
0000
,
0010
0000
0100
0000
0001
0000
0100
0000
1000
0000
0100
0001
0000
0000
0100
0000
,
0001
0000
0010
0000
0100
0000
1000
0010
,
0100
0000
0010
0000
1000
0000
0100
0000
0010
0000
0001
0100
0000
0000
0001
0000
,
0010
0000
0000
0000
0100
0000
0000
1000
0000
0000
0010
0000
0000
0100
0000
0000
,
0010
0000
1000
0000
0001
0000
0010
0100
0010
0000
0100
0000
1000
0100
1000
0000
,
0010
0000
0100
0000
0001
0000
0010
0001
0010
0000
0001
0000
0100
0001
0100
0000
,
0010
0000
1000
0000
0001
0000
1000
0001
1000
0000
0010
0000
0100
0010
0100
0000
,
0010
0000
1000
0000
1100
0000
0000
0100
0000
0000
0110
0000
0000
0010
0000
0000
,
0011
0000
0001
0000
1001
0000
1000
0100
1000
0000
0010
0000
1000
0010
1000
0000
,
0010
0000
0100
0000
0001
0000
0100
0001
0100
0000
0001
0000
0010
0001
0010
0000
,
0100
0000
1000
0000
0001
0000
0010
0100
1000
0000
0010
0000
0100
0001
1000
0000
,
0001
0000
0010
0000
0100
0000
0100
1000
0000
1000
0010
0000
0010
0100
0000
0100
,
0001
1000
1001
0000
0210
0000
0001
0001
,
0001
0001
0301
0000
0012
0000
1000
1000
,
1000
1000
1003
0000
2100
0000
0010
0010
,
0010
0010
3010
0000
0210
0000
0001
0001
,
0001
0001
0301
0000
1002
0000
1000
1000
,
1000
1000
1003
0000
0120
0000
0100
0100
,
0100
0100
0130
0000
2001
0000
0001
0001
,
0001
0001
3001
0000
0001
0010
0100
1000
,
0010
0200
0002
0000
0000
0000
0000
0000
,
0000
0303
0000
0000
;

//---------------dance-single - ----------------
#NOTEDATA:;
#CHARTNAME:;
#STEPSTYPE:dance-single;
#DESCRIPTION:;
#CHARTSTYLE:;
#DIFFICULTY:Hard;
#METER:8;
#RADARVALUES:0.632,0.593,0.307,0.335,0.042,542.000,44.000,48.000,0.000,0.000,0.000,0.000,0.000,0.632,0.593,0.307,0.335,0.042,542.000,44.000,48.000,0.000,0.000,0.000,0.000,0.000;
#CREDIT:;
#NOTES:
// measure 0
0000
0000
0000
0000
,  // measure 1
0000
0000
0000
0000
,  // measure 2
0000
0000
0000
0000
,  // measure 3
0000
0000
0000
0000
,  // measure 4
0002
0023
0230
2300
,  // measure 5
3020
0230
0302
2003
,  // measure 6
3100
0001
0100
1000
,  // measure 7
0010
0100
0010
0100
0010
0000
0100
0000
,  // measure 8
0001
0000
0010
0001
0010
0001
0010
0000
,  // measure 9
0100
0000
1000
0100
1000
0100
1000
0000
,  // measure 10
0010
0000
0100
0010
0100
0010
0100
0000
,  // measure 11
0001
1000
1000
0001
,  // measure 12
0010
0000
0100
1000
0100
1000
0001
0000
,  // measure 13
0100
0000
0001
1000
0001
1000
0010
0000
,  // measure 14
1000
0000
0001
1000
0001
1000
0100
0000
,  // measure 15
0010
0001
0100
0010
,  // measure 16
0010
0000
1000
0000
1000
0000
0001
0010
,  // measure 17
0100
0000
1000
0010
0100
0000
0001
0000
,  // measure 18
0001
0000
1000
0000
1000
0000
0100
0010
,  // measure 19
0100
0000
1000
0001
1000
0000
0001
0000
,  // measure 20
0100
0000
1000
0000
0100
0000
0001
0100
,  // measure 21
0001
0000
1000
0001
1000
0000
0100
0000
,  // measure 22
0001
0000
0100
0000
1000
0000
0001
1000
,  // measure 23
0001
0000
0010
0001
0010
0000
0100
0000
,  // measure 24
1000
0000
0100
1000
0100
1000
0010
0000
,  // measure 25
1000
0000
0010
1000
0010
1000
0010
0000
,  // measure 26
0100
0000
0010
0100
0010
0100
0001
0000
,  // measure 27
0100
0000
0001
0100
0001
0100
0001
0000
,  // measure 28
0010
0001
0010
0000
0100
0010
0100
0000
,  // measure 29
1000
0100
1000
0000
0010
1000
0010
0000
,  // measure 30
0100
0000
0001
0000
0010
0000
0001
0100
,  // measure 31
0001
1000
0100
1000
0001
1000
0010
0010
,  // measure 32
0100
0100
0001
0000
0010
0000
0100
1000
,  // measure 33
0100
0000
1000
0000
0010
0000
0100
0001
,  // measure 34
0010
0000
0001
0000
0100
0000
0010
1000
,  // measure 35
0100
1000
0001
0000
0010
0000
0001
1000
,  // measure 36
0010
0000
1000
0000
0100
0000
0010
0001
,  // measure 37
1000
0001
0100
0000
0010
0000
0100
0010
,  // measure 38
0100
0000
0001
0000
1000
0000
0001
1000
,  // measure 39
0001
1000
0001
0000
0010
0000
0100
1000
,  // measure 40
0100
0000
1000
0000
0010
0000
0100
0001
,  // measure 41
0100
0001
1000
0100
1000
0001
0010
0001
,  // measure 42
1000
0000
0010
0100
0001
1000
0100
0010
,  // measure 43
0001
1000
0010
0100
0010
0100
0001
0100
,  // measure 44
0001
0000
0010
0100
1000
0010
0100
0001
,  // measure 45
1000
0100
0010
0001
0010
0001
1000
0001
,  // measure 46
1000
0000
0010
0100
0001
1000
0100
0010
,  // measure 47
0001
1000
0010
0000
0100
0000
0001
0010
,  // measure 48
0100
0000
1000
0100
1000
0010
0100
0001
,  // measure 49
0010
0000
0001
0000
1000
0000
0000
0000
0010
0000
0000
0100
0000
0000
0001
0000
,  // measure 50
0010
0100
1000
2200
,  // measure 51
3300
0000
0000
0000
0100
0000
0000
0000
1000
0000
0000
0010
0000
0000
0100
0000
,  // measure 52
0100
0001
0010
0022
,  // measure 53
0033
0000
0000
0000
0001
0000
0000
0000
0100
0000
0000
0010
0000
0000
1000
0000
,  // measure 54
0000
0100
0010
2002
,  // measure 55
3003
0000
0000
0000
0001
0000
0000
0000
0100
0000
0000
0010
0000
0000
1000
0000
,  // measure 56
1000
0001
0010
0220
,  // measure 57
0330
0000
0100
1000
0020
0000
0000
0130
,  // measure 58
0010
1000
0100
0010
0002
0000
0000
0103
,  // measure 59
0001
0010
0100
1000
0020
0000
0000
0130
,  // measure 60
0010
1000
0200
0000
0320
0000
0032
0000
,  // measure 61
0103
0010
1000
0001
0020
0000
0030
0010
,  // measure 62
0001
0100
0010
1000
0002
0000
0003
0001
,  // measure 63
0100
0010
1000
0001
0020
0000
0030
0010
,  // measure 64
0100
1000
0001
0000
0100
0000
0010
0000
,  // measure 65
1000
0000
0100
0000
0100
0010
0000
0010
,  // measure 66
0001
0100
0010
0000
0010
1000
0000
1000
,  // measure 67
0001
0100
0001
0000
0001
0010
0000
0010
,  // measure 68
0001
0000
0100
0000
0010
0000
0000
0010
0000
0000
1000
0000
0000
1000
0000
0000
,  // measure 69
0001
1000
0001
0000
0001
0010
0000
0010
,  // measure 70
0100
1000
0010
0000
0010
0100
0000
0100
,  // measure 71
0001
0010
0001
0000
0001
0100
0000
0100
,  // measure 72
0010
0000
1000
0000
0001
0000
0000
0001
0000
0000
1000
0000
0000
1000
0000
0000
,  // measure 73
0100
0010
0001
0000
0010
0000
0001
0000
,  // measure 74
0100
0001
1000
0001
,  // measure 75
0010
0001
0100
0000
0010
0000
0100
0000
,  // measure 76
1000
0100
0001
0100
,  // measure 77
0010
1000
0100
0000
0010
0000
0100
0000
,  // measure 78
0010
0001
0010
0001
,  // measure 79
0010
0000
0001
1000
0001
1000
0010
1000
,  // measure 80
0010
0000
1000
0000
0001
0000
0000
0001
0000
0000
0010
0000
0000
0010
0000
0000
,  // measure 81
0100
1000
0010
0000
0110
0000
0100
0001
,  // measure 82
0010
0011
0110
2200
,  // measure 83
3300
0000
1000
0000
1001
0000
0001
0100
,  // measure 84
0010
0110
1010
2002
,  // measure 85
3003
0000
1000
0000
1001
0000
0001
0100
,  // measure 86
0010
0110
0101
0022
,  // measure 87
0033
0000
0010
0000
0110
0000
0100
1000
,  // measure 88
0010
0000
0100
0000
0010
0000
1000
0100
,  // measure 89
0010
0001
0101
0000
1100
0000
0100
1000
,  // measure 90
0001
0011
0110
1100
,  // measure 91
1010
0000
0010
0100
0001
1000
0100
1000
,  // measure 92
0001
1001
0110
1001
,  // measure 93
0110
0000
1001
0000
1100
0000
0100
0010
,  // measure 94
0001
0011
0101
0110
,  // measure 95
1010
0000
1000
0100
0010
0001
0100
0010
,  // measure 96
1000
0000
0000
0000
1001
0000
0000
0001
0000
0000
1001
0000
0000
1000
0000
0000
,  // measure 97
1001
0001
0202
0000
0303
0000
0001
0100
,  // measure 98
0001
0100
0220
0000
0330
0000
0100
0010
,  // measure 99
0100
0010
2020
0000
3030
0000
0010
1000
,  // measure 100
0010
1000
2200
0000
3300
0000
1000
0100
,  // measure 101
1000
0100
0220
0000
0330
0000
0010
0001
,  // measure 102
0010
0001
0022
0000
0033
0000
0001
1000
,  // measure 103
0001
1000
2002
0000
3003
0000
1000
0010
,  // measure 104
1000
0010
2020
0000
3030
0000
0010
0100
,  // measure 105
0001
0010
0200
0000
0000
0000
0000
0000
,  // measure 106
0000
0300
0000
0000
;

//---------------dance-single - ----------------
#NOTEDATA:;
#CHARTNAME:;
#STEPSTYPE:dance-single;
#DESCRIPTION:;
#CHARTSTYLE:;
#DIFFICULTY:Medium;
#METER:7;
#RADARVALUES:0.495,0.593,0.265,0.202,0.021,430.000,38.000,29.000,0.000,0.000,0.000,0.000,0.000,0.495,0.593,0.265,0.202,0.021,430.000,38.000,29.000,0.000,0.000,0.000,0.000,0.000;
#CREDIT:;
#NOTES:
0000
0000
0000
0000
,
0000
0000
0000
0000
,
0000
0000
0000
0000
,
0000
0000
0000
0000
,
2001
0010
0100
0001
,
0010
0100
0010
3001
,
0012
0100
0010
1003
,
2002
0000
3003
1000
,
0010
0100
0100
0010
,
1000
0001
0001
0010
,
0100
1000
1000
0001
,
0100
0101
1100
1000
,
0010
0100
0100
0001
,
0010
0100
0100
0010
,
0001
0000
0100
0000
0100
0000
0010
1000
,
0010
1000
0001
1000
0001
0010
0100
0000
,
0100
1000
1000
0010
,
0100
0000
0001
0010
0001
0010
0001
0000
,
0001
0100
0100
0010
,
0010
0000
1000
0010
1000
0010
1000
0000
,
1000
0000
0001
0000
0001
0000
0010
0100
,
0010
0100
1000
0001
1000
0001
0100
0000
,
0100
0000
0010
0000
0010
0000
1000
0010
,
1000
0010
1000
0001
1000
0001
0010
0000
,
0010
0010
0010
0110
,
0100
0100
0100
1100
,
1000
1000
1000
1010
,
0010
0010
0010
0110
,
0000
0101
0000
1001
,
0000
0110
0000
1100
,
1100
0101
0101
1001
,
0110
0000
1001
0000
0110
0000
1000
1000
,
0001
0001
0010
0000
0100
0000
1000
0001
,
1000
0001
0100
0000
0010
0000
1000
0010
,
1000
0000
0001
1000
0001
0000
0010
0000
,
0010
0000
0100
0000
1000
0000
0001
1000
,
0001
0000
0100
0001
0100
0000
0010
0000
,
0010
0000
1000
0000
0100
0000
1000
0001
,
1000
0000
0001
1000
0001
0000
0010
0000
,
0010
0000
0001
1000
0001
0000
1000
0001
,
1000
0000
0010
0100
0010
0000
0100
0001
,
0100
0010
1000
0000
0100
0000
0010
0100
,
0010
0000
0001
0000
0100
0000
0010
0100
,
0010
0000
0100
0000
0010
0000
1000
0010
,
1000
0000
0100
0000
0010
0000
0001
0010
,
0001
0000
1000
0000
0001
0000
1000
0001
,
1000
0000
0010
0000
0100
0000
0010
0100
,
0010
0000
1000
0000
0001
0000
1000
0001
,
1000
0100
0010
0001
,
1000
2001
0001
0010
,
0010
0001
0100
0002
,
3003
0210
0010
1000
,
1000
0001
1000
0020
,
0330
2010
0010
0100
,
0100
0001
0100
0020
,
3030
0012
0010
1000
,
1000
0010
0100
2000
,
3003
0000
0001
0100
0002
0000
0003
0000
,
0010
0000
0100
1000
0200
0000
0300
0000
,
1000
0000
0010
0100
0020
0000
0030
0000
,
0100
0001
1000
0001
,
0010
0100
1000
0000
0002
0000
0003
0000
,
0010
0001
0200
0300
,
0010
1000
0200
0300
,
1000
0010
0100
0001
,
1000
0000
0001
0000
0000
0101
0000
0000
,
0100
0000
0010
0000
0000
0110
0000
0000
,
0010
0000
1000
0000
0000
1010
0000
0000
,
1000
0000
0000
0000
0001
0000
0000
0001
0000
0000
0010
0000
0000
0010
0000
0000
,
0100
0100
1000
0000
0000
1100
0000
0000
,
0100
0000
0010
0000
0000
0110
0000
0000
,
0010
0000
0001
0000
0000
0011
0000
0000
,
0001
0000
0000
0000
1000
0000
0000
1000
0000
0000
0010
0000
0000
0010
0000
0000
,
0100
0100
0002
0000
0010
0000
0100
0000
,
0010
0100
0010
0100
,
0010
2003
0010
0100
,
0010
0100
0010
0100
,
0010
3002
0010
2003
,
0010
3002
0100
2003
,
0100
3002
0203
0320
,
2030
0000
0000
0000
3001
0000
0000
0001
0000
0000
0010
0000
0000
0010
0000
0000
,
0100
0100
1000
0000
0010
0000
0100
0000
,
0100
0010
1000
0001
,
0000
0010
0010
0001
,
0001
0100
0010
1000
,
0000
0000
0001
0010
0001
0010
0001
1000
,
0001
1000
0010
0100
,
0000
0000
0010
0100
0010
0100
0001
0100
,
0001
1000
0100
1000
,
0001
0000
0100
0000
0010
0000
1000
0010
,
1000
0001
0010
0100
,
1000
0000
0001
0000
0100
0000
0001
0010
,
0001
0010
0100
1000
,
0001
0000
0100
0000
0010
0000
1000
0010
,
1000
0001
0010
0100
,
1000
0001
0001
1000
,
1000
0001
0010
0100
,
1000
1100
0000
0100
,
1000
1010
0000
0010
,
0100
0101
0000
0001
,
1000
1001
0000
0001
,
0001
1001
0000
1000
,
1000
1100
0000
0100
,
0100
0110
0000
0010
,
0010
0011
0000
0001
,
0100
0020
0000
0000
,
0000
0030
0000
0000
;

//---------------dance-single - ----------------
#NOTEDATA:;
#CHARTNAME:;
#STEPSTYPE:dance-single;
#DESCRIPTION:;
#CHARTSTYLE:;
#DIFFICULTY:Easy;
#METER:5;
#RADARVALUES:0.279,0.587,0.195,0.007,0.000,251.000,28.000,1.000,0.000,0.000,0.000,0.000,0.000,0.279,0.587,0.195,0.007,0.000,251.000,28.000,1.000,0.000,0.000,0.000,0.000,0.000;
#CREDIT:;
#NOTES:
0000
0000
0000
0000
,
0000
0000
0000
0000
,
0000
0000
0000
0000
,
0000
0000
0000
0000
,
1000
0000
0000
0000
,
0001
0000
0000
0000
,
0010
0000
0001
0000
,
0100
0010
1000
0001
,
0000
0010
0010
0010
,
0000
0100
0100
0100
,
0000
1000
1000
1000
,
0000
0010
0100
0010
,
0000
0100
0100
0100
,
0000
0001
0001
0001
,
0000
1000
1000
1000
,
0000
0001
1000
0001
,
0000
0010
0000
0001
,
0000
0100
0100
0100
,
0000
0010
0000
1000
,
0000
0001
0001
0001
,
0000
0010
0000
0100
,
0000
1000
1000
1000
,
0000
0010
0000
0100
,
0000
0001
0001
1001
,
0000
0000
0000
0110
,
0000
0000
0000
1001
,
0000
0000
0000
0110
,
0000
0000
0000
1001
,
0000
0001
0000
1001
,
0000
1000
0000
1001
,
1001
1001
1001
0110
,
0110
0110
0110
1001
,
0000
0001
0010
0100
,
0100
1000
0010
0100
,
0100
0010
1000
0001
,
0001
0010
0100
1000
,
1000
0010
0100
0001
,
0001
0010
0100
1000
,
1000
0100
0010
0001
,
0001
0100
0010
0100
,
0100
0010
1000
0010
,
0010
1000
0001
0010
,
0001
0100
0100
0010
,
0010
0100
0001
0010
,
0100
1000
1000
0100
,
0100
1000
0010
0100
,
0001
1000
1000
0001
,
0001
0100
0010
1000
,
0001
0010
0010
0100
,
0100
1100
0000
0000
,
0000
1000
0010
0100
,
0000
0101
0000
0000
,
0000
0001
1000
0001
,
0000
1001
0000
0000
,
0000
0010
0100
0010
,
0000
0110
0000
0000
,
0000
1000
0001
1000
,
0000
0001
0001
0000
,
0100
0010
0010
0000
,
1000
0001
0001
0000
,
0010
0100
0000
1000
,
0000
0010
0010
0000
,
0100
0001
0001
0000
,
1000
0100
0100
0000
,
1000
0010
0000
0100
,
0000
0001
0000
0000
,
0000
0010
0000
0000
,
0000
0100
0000
0000
,
0000
1000
0000
1000
,
0000
1000
0000
0000
,
0000
0001
0000
0000
,
0000
0100
0000
0000
,
0000
0010
0000
0010
,
0000
0010
0000
0000
,
0000
0010
0000
0000
,
0000
1000
0000
0000
,
0000
1000
0000
0000
,
0000
0001
0000
0001
,
0000
0010
0000
0010
,
0000
0100
0100
1000
,
1000
0002
0000
0000
,
0003
1000
0000
1000
,
0000
0010
0010
0010
,
0000
0100
0000
0100
,
0000
0001
0001
0001
,
0000
0010
0000
0100
,
0000
1000
1000
1000
,
0000
0001
0000
0001
,
0000
0010
0010
0001
,
0001
0100
0100
0100
,
0100
0010
0000
0010
,
0000
1000
1000
1000
,
1000
0001
0000
0001
,
0000
0010
0010
0010
,
0010
0100
0000
0100
,
0000
1000
1000
1000
,
1000
0001
0000
0001
,
0000
1001
0000
0000
,
0000
0110
0000
0000
,
0000
1001
0000
0000
,
0000
0110
0000
0000
,
0000
1100
0000
0000
,
0000
0101
0000
0000
,
0000
1010
0000
0000
,
0000
0011
0000
0000
,
0000
1001
0000
0000
;

//---------------dance-single - ----------------
#NOTEDATA:;
#CHARTNAME:;
#STEPSTYPE:dance-single;
#DESCRIPTION:;
#CHARTSTYLE:;
#DIFFICULTY:Beginner;
#METER:2;
#RADARVALUES:0.114,0.184,0.000,0.000,0.000,114.000,0.000,0.000,0.000,0.000,0.000,0.000,0.000,0.114,0.184,0.000,0.000,0.000,114.000,0.000,0.000,0.000,0.000,0.000,0.000,0.000;
#CREDIT:;
#NOTES:
0000
0000
0000
0000
,
0000
0000
0000
0000
,
0000
0000
0000
0000
,
0000
0000
0000
0000
,
1000
0000
0000
0000
,
0000
0000
0000
0000
,
0001
0000
0000
0000
,
0100
0000
0010
0100
,
0000
0000
0000
0100
,
0000
0000
0000
0100
,
0000
0000
0000
0100
,
0000
0000
0000
0001
,
0000
0000
0000
0001
,
0000
0000
0000
0001
,
0000
0000
0000
0001
,
0000
0000
0000
0010
,
0000
0000
0000
0000
,
0000
0000
0000
0010
,
0000
0000
0000
0000
,
0000
0000
0000
0100
,
0000
0000
0000
0000
,
0000
0000
0000
0100
,
0000
0000
0000
0000
,
0000
0000
0000
1000
,
0000
0000
0000
0001
,
0000
0000
0000
1000
,
0000
0000
0000
0001
,
0000
0000
0000
0100
,
0000
0010
0000
0100
,
0000
0010
0000
1000
,
0000
0001
0000
0010
,
0010
0010
0000
0100
,
0000
1000
0000
1000
,
0000
0001
0000
0000
,
0000
0100
0000
0100
,
0000
0100
0000
0000
,
0000
0010
0000
0010
,
0000
0010
0000
0000
,
0000
1000
0000
1000
,
0000
1000
0000
0000
,
0000
0100
0000
0100
,
0000
0100
0000
0000
,
0000
0010
0000
0010
,
0000
0010
0000
0000
,
0000
0001
0000
0001
,
0000
0001
0000
0000
,
0000
1000
0000
1000
,
0000
1000
0000
0000
,
0000
0010
0000
0100
,
0000
0001
0000
0000
,
0000
0000
0000
0000
,
0000
0010
0000
0000
,
0000
0000
0000
0000
,
0000
0001
0000
0000
,
0000
0000
0000
0000
,
0000
0100
0000
0000
,
0000
0000
0000
0000
,
0000
0010
0000
0000
,
0000
0010
0000
0010
,
0000
1000
0000
0000
,
0000
1000
0000
1000
,
0000
0001
0000
0000
,
0000
0001
0000
0001
,
0000
0010
0000
0000
,
0000
0100
0000
0100
,
0000
1000
0000
0000
,
0000
0000
0000
0000
,
0000
0000
0000
0000
,
0000
0000
0000
0000
,
0000
0001
0000
0000
,
0000
0000
0000
0000
,
0000
0000
0000
0000
,
0000
0000
0000
0000
,
0000
0100
0000
0000
,
0000
0000
0000
0000
,
0000
0010
0000
0000
,
0000
0000
0000
0000
,
0000
1000
0000
1000
,
0000
0100
0000
0100
,
0000
0010
0000
0100
,
0000
0010
0000
0000
,
0000
0001
0000
0000
,
0000
0000
0000
0000
,
0000
0100
0000
0000
,
0000
0000
0000
0000
,
0000
0010
0000
0000
,
0000
0000
0000
0000
,
0000
1000
0000
0000
,
0000
0001
0000
1000
,
0000
0001
0000
0001
,
0000
0010
0000
0010
,
0000
0100
0000
0100
,
0000
1000
0000
1000
,
0000
0010
0000
0010
,
0000
0100
0000
0100
,
0000
0001
0000
0001
,
0000
1000
0000
1000
,
0000
0001
0000
0000
,
0000
0010
0000
0000
,
0000
0100
0000
0000
,
0000
1000
0000
0000
,
0000
0010
0000
0000
,
0000
0100
0000
0000
,
0000
0001
0000
0000
,
0000
1000
0000
0000
,
0000
0001
0000
0000
;
