#TITLE:Call Me Maybe;
#SUBTITLE:;
#ARTIST:Carly Rae Jepsen;
#TITLETRANSLIT:;
#SUBTITLETRANSLIT:;
#ARTISTTRANSLIT:;
#GENRE:;
#CREDIT:;
#BANNER:i believe in you-bn.png;
#BACKGROUND:I believe in you-bg.png;
#LYRICSPATH:;
#CDTITLE:;
#MUSIC:03 Call Me Maybe.mp3;
#OFFSET:0.225630;
#SAMPLESTART:44.305981;
#SAMPLELENGTH:15.000000;
#SELECTABLE:YES;
#BPMS:0.000000=120.000000
;
#STOPS:
;
#BGCHANGES:0.000=[SC2012] - Call Me Maybe.avi=1.000=0=0=1=====,
99999=-nosongbg-=1.000=0=0=0 // don't automatically add -songbackground-
;
#KEYSOUNDS:;
#ATTACKS:;

//---------------dance-single - ----------------
#NOTES:
     dance-single:
     :
     Hard:
     7:
     0.430266,0.372235,0.154454,0.000000,0.030891,370.000000,20.000000,0.000000,0.000000,0.000000,0.000000,0.430266,0.372235,0.154454,0.000000,0.030891,370.000000,20.000000,0.000000,0.000000,0.000000,0.000000:
// measure 0
0000
0000
0000
0000
,  // measure 1
0000
0000
0000
0000
,  // measure 2
0000
0000
1000
0001
0100
0010
1000
0010
,  // measure 3
0100
0001
0000
0100
0010
1000
0001
1000
,  // measure 4
0100
0010
0000
0001
0100
0010
1000
0100
,  // measure 5
0010
0000
0001
0000
0000
0000
1000
0000
0100
0000
0001
0000
0100
0000
0000
1000
,  // measure 6
0000
0010
0000
0100
0001
0010
0100
0010
,  // measure 7
0001
0000
1000
0000
0000
0000
0100
0000
0010
0000
0001
0000
0100
0000
0000
0100
,  // measure 8
0001
1000
0000
0001
1000
0010
1000
0100
,  // measure 9
0010
0000
0001
0000
0000
0000
1000
0000
0010
0000
0001
0000
0010
0000
0000
1000
,  // measure 10
0000
0001
0100
0000
0101
0000
0001
0100
,  // measure 11
0010
0000
1010
0000
1100
0000
0010
1000
,  // measure 12
0001
0000
0101
0000
0110
0000
1000
0010
,  // measure 13
0100
0000
0001
0100
0010
1000
0001
1000
,  // measure 14
0100
1001
0001
0100
,  // measure 15
0010
1000
0000
1000
0100
0000
1000
0000
,  // measure 16
0001
0010
0000
0010
0100
0000
1000
0000
,  // measure 17
0001
1000
0000
1000
0010
0000
0100
0000
,  // measure 18
0010
1001
0001
0100
,  // measure 19
0010
1000
0000
1000
0001
0000
1000
0000
,  // measure 20
0100
0010
0000
0010
0001
0000
0100
0000
,  // measure 21
0010
1000
0000
1000
0100
0000
1000
0010
,  // measure 22
0001
0010
1000
0100
0010
0100
1000
0010
,  // measure 23
0100
0001
0000
0001
0010
0001
0100
0010
,  // measure 24
1000
0100
0000
0100
0010
0001
0001
0100
,  // measure 25
0010
1000
0000
1000
0001
0100
1000
0100
,  // measure 26
0001
0000
0101
0000
1000
0010
0100
0001
,  // measure 27
0010
0100
0000
0100
1000
0010
0001
0010
,  // measure 28
1000
0001
0000
0001
0100
0010
0010
0100
,  // measure 29
0001
1000
0000
1000
0100
0010
0001
0100
,  // measure 30
1000
0100
0001
0100
0000
0100
0000
0010
,  // measure 31
0000
0010
0000
1000
0000
1000
0000
0001
,  // measure 32
0000
0001
1000
0100
0001
0100
0010
0001
,  // measure 33
0001
1000
0000
0001
0100
0010
0100
0001
,  // measure 34
1000
1000
0000
0001
0010
1000
0010
0100
,  // measure 35
1000
0000
1000
0000
0000
0000
0001
0000
0100
0000
0010
0000
1000
0000
0000
0001
,  // measure 36
0000
1000
0000
0010
1000
0010
0100
0100
,  // measure 37
0001
0000
0010
0000
0000
0000
0000
0000
0100
0000
1000
0000
0100
0000
0000
0100
,  // measure 38
1000
0001
0000
1000
0100
0010
0001
0100
,  // measure 39
1000
0000
0100
0000
0000
0000
0010
0000
1000
0000
0001
0000
0100
0000
0000
0010
,  // measure 40
0000
0100
0010
0000
1010
0000
1000
0100
,  // measure 41
0001
0000
0101
0000
1100
0000
0001
1000
,  // measure 42
0001
0000
0110
0000
1001
0000
0001
0100
,  // measure 43
1000
0000
0100
0100
0010
1000
0001
1000
,  // measure 44
0100
0000
1000
0100
0001
0100
1000
0010
,  // measure 45
0100
0010
0000
0010
0100
0001
0010
1000
,  // measure 46
0010
0001
0000
0001
1000
0010
0100
0100
,  // measure 47
0001
1000
0000
1000
0001
0010
0001
0001
,  // measure 48
1000
0000
1010
0000
0010
1000
0001
0100
,  // measure 49
1000
0100
0000
0100
0001
0010
0100
1000
,  // measure 50
0010
0100
0000
0100
0001
1000
1000
0100
,  // measure 51
0010
0001
0000
0001
0100
0010
1000
0001
,  // measure 52
0100
0001
0100
0001
0100
0000
0000
0000
0001
0000
0100
0000
1000
0000
0100
0000
,  // measure 53
0001
1000
1000
0100
0010
0010
0100
0000
,  // measure 54
1010
0000
0100
0001
0100
0010
1000
0000
,  // measure 55
0101
0000
0001
0010
0100
1000
0001
0000
,  // measure 56
0101
0000
1001
0001
1000
0010
0001
0010
,  // measure 57
0100
0001
1000
0100
0010
0010
0100
0000
,  // measure 58
0110
0000
0010
0001
0010
0100
1000
0000
,  // measure 59
1001
0000
1000
0010
0100
0001
1000
0100
,  // measure 60
0001
0100
1000
0000
0000
0000
0000
0000
;

//---------------dance-single - ----------------
#NOTES:
     dance-single:
     :
     Medium:
     5:
     0.335387,0.348971,0.208514,0.015445,0.000000,275.000000,27.000000,2.000000,0.000000,0.000000,0.000000,0.335387,0.348971,0.208514,0.015445,0.000000,275.000000,27.000000,2.000000,0.000000,0.000000,0.000000:
0000
0000
0000
0000
,
0000
0000
0000
0000
,
0000
0001
0100
0001
,
1000
0100
1000
0010
,
0010
0100
0001
0100
,
0100
0010
1000
0001
,
1000
0100
1000
1000
,
0010
0001
0010
1000
,
1000
0100
0010
0001
,
0100
0010
1000
0001
,
1000
0000
0100
0000
1000
0100
1000
0001
,
1000
0000
0001
0000
0100
0000
0001
0100
,
0001
1000
0001
0000
1000
0000
0010
0100
,
0001
0100
0010
0000
1010
0000
0110
0000
,
0000
1001
0001
1000
,
0100
1000
0000
1000
0010
0000
0100
0000
,
0001
0100
0000
0100
0001
0000
1000
0000
,
0100
1000
0000
1000
0100
0000
1000
0000
,
0010
0110
0010
0100
,
0010
0100
0000
0100
0010
0000
1000
0000
,
0100
0010
0000
0010
0100
0000
0010
0000
,
0001
0100
0000
0100
0010
0000
1010
0000
,
0101
2001
3001
0100
,
0001
0100
0000
0100
0010
0000
1000
0000
,
0001
1000
0000
1000
0100
0000
1000
0000
,
0010
0100
0000
0100
0001
0000
1000
0100
,
0010
0001
1000
0000
1000
0000
0010
0000
,
0100
0001
0000
0001
1000
0000
0100
0000
,
0010
0001
0000
0001
0100
0000
0010
0000
,
1000
0100
0000
0100
1000
0000
1000
0010
,
0100
0001
1000
0000
0000
0000
0000
0000
,
0000
0000
0000
0000
,
0000
0000
0001
0000
0010
0000
0001
0100
,
0010
1000
0000
0000
1000
0000
0001
1000
,
0001
1000
0000
0000
0001
0000
0100
0010
,
0100
0010
0000
0000
0010
0000
1000
0001
,
1000
0000
1001
0000
0001
0000
0100
0001
,
0100
0010
0000
0000
0010
0000
1000
0001
,
1000
0001
0000
0000
0100
0000
0001
0100
,
0001
0100
0000
0000
0010
0000
1000
0000
,
0001
0000
1000
0001
1000
0000
0010
0000
,
0110
0000
0010
0100
0010
0000
1000
0000
,
1100
0000
1000
0100
0010
0001
1000
0000
,
1001
0000
0001
0100
0001
0100
0010
1000
,
0001
2001
3100
1000
,
0010
0100
0000
0100
0001
0000
0010
0000
,
0100
1000
0000
1000
0100
0000
0010
0000
,
0001
0100
0000
0100
0001
0000
1000
0001
,
1000
0001
1000
0000
0010
0000
0010
0000
,
0100
0001
0000
0001
0100
0000
1000
0000
,
0100
0001
0000
0001
0010
0000
0100
0000
,
1000
0001
0000
0001
1000
0000
0001
0100
,
1000
0100
0001
0000
1000
0000
0100
1000
,
0010
0100
0001
0000
0101
0000
0011
0000
,
1001
1000
0100
0110
,
1001
0010
0100
0101
,
1001
0000
1010
0000
0010
0000
1000
0100
,
0001
0100
1000
0000
0010
0000
0110
0000
,
1001
0001
0100
0101
,
1001
1000
0010
0110
,
1001
1100
0000
0000
;

//---------------dance-single - ----------------
#NOTES:
     dance-single:
     :
     Easy:
     3:
     0.252643,0.255912,0.100395,0.115841,0.000000,201.000000,13.000000,15.000000,0.000000,0.000000,0.000000,0.252643,0.255912,0.100395,0.115841,0.000000,201.000000,13.000000,15.000000,0.000000,0.000000,0.000000:
0000
0000
0000
0000
,
0000
0000
0000
0000
,
0000
0001
0100
0000
,
0100
0001
1000
0000
,
1000
0100
0010
0000
,
0010
0001
0100
0000
,
0100
0001
1000
0000
,
1000
0001
0010
0000
,
0010
0001
0100
0000
,
0100
0100
0010
0000
,
1000
0001
0101
1000
,
0010
1000
0010
0100
,
1001
0001
0100
1000
,
0100
0001
1000
0110
,
0010
0002
1003
0001
,
0100
0010
2000
3001
,
0100
0001
0020
0031
,
1000
0100
2000
3010
,
0110
1000
0001
0100
,
0001
0100
0020
1030
,
0001
1000
0200
0310
,
0001
0100
0020
1030
,
0001
1000
1000
1000
,
0001
0001
0001
0100
,
0100
0100
0010
0010
,
0010
1000
0001
1000
,
1100
1000
0010
0100
,
0010
0010
0010
0100
,
0100
0100
0010
0100
,
0010
1000
0001
1000
,
0100
1100
0000
0000
,
0000
0000
0000
0000
,
0000
1000
0000
1000
,
0000
0001
0000
0001
,
0000
0100
0000
0100
,
0000
0001
0000
0001
,
0000
1000
0010
0100
,
0000
0001
0100
0010
,
0000
0100
0100
0100
,
0000
0010
0010
0010
,
0000
1000
0001
0100
,
0100
0001
1000
0100
,
0100
1000
0001
0100
,
0100
0001
0010
0100
,
1001
2000
3010
0100
,
0001
1000
0200
1300
,
0010
0100
0002
1003
,
0001
0100
0020
0130
,
0001
2000
3100
0001
,
0100
1000
0020
0130
,
0001
0100
0020
1030
,
0001
0100
0020
0130
,
0001
1000
0100
0100
,
0100
0010
0010
0001
,
0011
0000
0001
1000
,
1100
0000
1000
0001
,
1000
1001
0001
0100
,
1000
0100
0001
0010
,
0011
0000
1000
0100
,
1100
0000
0000
1000
,
1000
1001
0000
0000
;
