#TITLE:Aegis;
#SUBTITLE:-SC 2013 ver-;
#ARTIST:IT medalion;
#TITLETRANSLIT:;
#SUBTITLETRANSLIT:;
#ARTISTTRANSLIT:;
#CREDIT:;
#BANNER:aegisbn.png;
#BACKGROUND:aegisbg.png;
#LYRICSPATH:;
#CDTITLE:;
#MUSIC:Aegis.mp3;
#OFFSET:-0.400;
#SAMPLESTART:54.120;
#SAMPLELENGTH:11.760;
#SELECTABLE:YES;
#BPMS:0.000=324.000,345.000=40.500,349.000=162.000,365.000=324.000;
#STOPS:222.000=0.556
,236.000=0.185
,250.000=0.186
,266.500=0.185
,312.250=0.139
,313.000=0.139
,313.750=0.093
,344.000=0.185
,364.500=0.741
,427.000=0.186
,442.000=0.185
,456.000=0.186
;
#BGCHANGES:;

//---------------dance-single - ----------------
#NOTES:
     dance-single:
     :
     Hard:
     11:
     0.915,1.000,0.766,0.102,0.023:
0000
0000
0000
0000
,
0000
0000
0000
0000
,
0000
0000
0000
0000
,
0000
0000
0000
0000
,
1010
0000
0000
1001
0000
0000
0101
0000
,
0000
1001
0000
1100
,
0110
0000
0000
0011
0000
0000
0110
0000
,
1100
0000
0000
1001
0000
0000
0101
0000
,
0110
0010
0100
0001
,
0100
0010
0100
0001
,
0100
0010
0100
0001
,
1001
0000
0000
1100
0000
0000
0110
0000
,
0010
0100
1000
0100
,
0010
0100
1000
0100
,
0010
0100
1000
0100
,
1100
0000
0000
1001
0000
0000
0101
0000
,
0110
0010
0100
0001
,
0100
0010
0100
0001
,
0100
0010
0100
0001
,
1001
0000
0000
0011
0000
0000
0110
0000
,
0010
0100
1000
0100
,
0010
0100
1000
0100
,
1000
0001
1000
0000
0001
0100
0001
0000
,
1000
0010
0100
0001
1000
0010
0100
0001
,
1000
0100
0010
0000
0100
0010
0001
0000
,
1000
0100
0010
0000
0100
0010
0001
0000
,
1000
0010
0100
0000
0010
0100
0001
0000
,
1000
0010
0100
0000
0010
0100
0001
0000
,
1000
0010
0100
0000
0001
1000
0100
0000
,
0010
0100
1000
0000
0001
0100
0010
0000
,
1000
0001
0100
0000
0001
1000
0100
0000
,
0110
0000
0000
1001
0000
0000
1000
0000
,
0001
0100
0010
0000
0100
0001
1000
0000
,
0100
0010
0001
0000
1000
0010
0100
0000
,
0001
1000
0010
0000
0100
0001
1000
0000
,
0100
0010
0001
0000
1000
0010
0100
0000
,
0001
0100
0010
0000
1000
0010
0100
0000
,
0001
0100
0010
0000
1000
0010
0100
0000
,
0001
0100
0010
1000
0001
0100
0010
1000
,
0001
0100
0010
1000
0001
0100
0010
1000
,
0001
0000
0100
0000
0001
1000
0001
0000
,
1000
0000
0100
0000
0010
0100
0010
0000
,
0100
0000
1000
0000
0001
1000
0001
0000
,
0100
0000
0010
0000
1000
0001
1000
0000
,
0010
0000
0100
0000
0001
1000
0001
0000
,
1000
0000
0100
0000
0010
0001
0010
0000
,
0100
0000
1000
0000
0001
0100
0001
0000
,
1000
0000
0010
0000
0100
0001
0100
0000
,
0001
1000
0001
0100
0000
0000
0010
0000
,
1000
0001
1000
0100
0000
0000
1000
0000
,
0010
1000
0010
0100
0000
0000
0001
0000
,
1000
0001
1000
0100
0000
0000
1000
0000
,
0001
0010
0100
1000
0000
0000
0001
0000
,
1000
0100
0010
0001
0000
0000
1000
0000
,
0001
0100
0001
0000
1000
0100
1000
0000
,
0001
0100
0001
0000
1001
0000
1000
0010
,
0100
0000
0100
0000
0100
0000
0001
1000
,
0100
0000
0100
0000
0100
0000
0010
0001
,
1000
0000
1000
0000
1000
0000
0001
0100
,
0010
0000
0010
0000
0010
1000
0001
0000
,
0001
0000
0001
0000
1000
0100
0010
0000
,
0010
0000
0010
0000
0001
1000
0100
0000
,
0100
0000
0100
0000
1000
0001
0100
0002
,
0200
0000
0000
0303
0001
0000
0100
0000
0010
0000
0000
0000
0010
0000
0000
0000
,
0010
0000
1000
0100
0010
0000
0010
0000
,
0010
0000
0001
0100
0010
0000
0010
0000
,
0010
0000
1001
0000
0000
1100
0011
0000
,
1001
0000
1000
0100
0010
0001
0000
0000
,
1001
0000
0001
0010
0100
1000
0000
0000
,
1000
0010
1000
0000
0001
0100
0001
0000
,
1000
0100
0010
0001
1000
0100
0010
0001
,
1000
0100
0000
1001
0000
0000
0110
0000
,
0000
1001
0010
0110
,
1001
0000
0000
1100
0000
0000
0110
0000
,
0011
0000
0000
1001
0000
0000
1100
0000
,
0100
0010
0000
1001
0000
0000
1010
0000
,
0000
0110
0100
1001
,
0101
0000
0000
0110
0000
0000
1010
0000
,
1001
0000
0000
0110
0000
0000
1001
0000
0010
0000
0100
0000
0000
0000
1001
0000
,
0000
0101
0000
1010
,
0010
0000
0101
0000
0110
0000
0000
1010
,
0000
0000
1001
0000
1100
0000
0000
0110
,
0000
0000
0011
0000
0010
0100
0000
1001
,
0000
0000
1010
0000
1001
0000
0000
0101
,
0000
0000
1010
0000
1001
0000
0000
0110
,
0000
0101
1001
1010
,
0220
0000
0000
0000
0000
0000
0000
0000
0000
0000
0000
0000
0330
0000
0000
0000
2002
0000
0000
0000
0000
0000
0000
0000
0000
0000
0000
0000
0000
0000
0000
3000
0020
0000
0000
0000
0000
0000
0000
0000
0000
0000
0000
0000
0000
0000
0000
0030
2000
0000
0000
0000
0000
0000
0000
0000
0000
0000
0000
0000
0000
0000
0000
3000
,
0200
0000
0000
0000
0000
0000
0000
0000
0000
0000
0000
0000
0000
0000
0000
0300
1003
0000
0000
0000
0000
0000
0000
0000
0010
0000
0000
0000
0000
0000
0000
0000
0100
0000
0000
0000
0000
0000
0000
0000
0001
0000
0000
0000
0000
0000
0000
0000
1000
0000
0000
0000
0000
0000
0000
0000
0010
0000
0000
0000
0000
0000
0000
0000
,
0100
0001
1000
0100
0010
0001
1000
0100
,
0010
0001
2200
0000
0000
0000
3300
0000
,
0001
0010
0100
0000
1000
0000
0001
0000
0100
0000
0001
0000
1000
0010
0100
0001
,
1000
0010
0100
0000
0001
0000
1000
0000
0010
0000
1000
0000
0001
0000
0000
0000
,
0100
0000
0010
1000
0010
0100
0001
0000
,
1000
0000
0100
0010
0100
1000
0001
0000
,
0100
0000
0010
1000
0001
0100
0001
0000
,
1000
0000
0100
0010
0001
0010
0100
0000
,
1000
0000
0001
1000
0010
1000
0001
0000
,
0100
0000
0010
1000
0010
0100
0001
0000
,
1000
0000
0100
0010
0001
0010
0100
0000
,
1000
0000
0001
0100
0001
0000
1000
0000
,
1000
0000
0010
0100
0010
0000
1000
0000
,
1000
0000
0001
0010
0001
0000
0100
0000
,
0100
0000
0010
1000
0010
0000
0100
0000
,
0100
0000
0001
1000
0100
0000
0010
0000
,
0011
0000
0100
1000
0001
0000
0100
0000
,
0110
0000
0010
1000
0001
1000
0010
0100
,
0001
1000
0100
0010
0001
1000
0010
0000
,
1000
0001
1000
0000
0001
0100
0001
0000
,
1000
0100
0010
0001
,
1000
0010
1000
0000
0001
0100
0001
0000
,
1010
0000
0000
0101
0000
0000
1000
0100
,
1000
0000
0001
0010
0001
0000
1000
0000
,
0100
0000
0010
0000
0001
0000
0100
0010
,
0100
0000
0001
1000
0001
0000
0110
0000
,
1001
0000
1010
0000
0100
0001
0100
0000
,
0010
1000
0010
0000
1000
0000
0001
0000
,
0100
0000
0010
0000
1000
0100
1000
0000
,
0001
0100
0001
0000
1100
0000
0000
0011
,
0000
0000
0110
0000
1000
0001
1000
0000
,
0001
0100
0001
1000
0010
1000
0001
0000
,
1000
0100
1000
0000
0001
0010
0100
1000
,
0001
0010
0001
1000
0010
0100
0001
1000
,
0010
1000
0001
1000
0100
0000
0000
0000
;

//---------------dance-single - ----------------
#NOTES:
     dance-single:
     :
     Challenge:
     13:
     1.000,1.000,1.000,0.711,0.042: // measure 1
0000
0000
0000
0000
,  // measure 2
0000
0000
0000
0000
,  // measure 3
0000
0000
0000
0000
,  // measure 4
0000
0000
0000
0000
,  // measure 5
1001
0000
0000
0110
0000
0000
1001
0000
,  // measure 6
0000
0000
1100
0000
0000
0000
0001
1000
,  // measure 7
0101
0000
0000
1010
0000
0000
0101
0000
,  // measure 8
1001
0000
0000
1100
0000
0000
0110
0000
,  // measure 9
0011
0000
1000
0100
0010
0000
1001
0000
,  // measure 10
0100
0010
0001
0000
1010
0000
0100
0010
,  // measure 11
1001
0000
0010
0100
0001
0000
1100
0000
,  // measure 12
0010
1000
0001
1000
0100
0000
1001
0000
,  // measure 13
0011
0000
0100
1000
0010
0000
1001
0000
,  // measure 14
0010
0100
1000
0000
0101
0000
0010
0100
,  // measure 15
1001
0000
0010
0100
0001
0000
0110
0000
,  // measure 16
1000
0001
0000
0001
1000
0000
1000
0100
,  // measure 17
0011
0000
0100
1000
0010
0000
0101
0000
,  // measure 18
1000
0010
0001
0000
0110
0000
1000
0010
,  // measure 19
0101
0000
1000
0100
0010
0000
1001
0000
,  // measure 20
0100
0001
1000
0001
0010
0000
1001
0000
,  // measure 21
1100
0000
0010
0001
1000
0000
0010
0100
,  // measure 22
1001
0000
1000
0001
0110
0000
0001
1000
,  // measure 23
0110
0000
0001
0110
0000
1000
0110
0000
,  // measure 24
2002
3003
0022
0033
2200
3300
2002
3003
,  // measure 25
1000
0010
0100
0000
0100
0000
0100
0000
,  // measure 26
0001
1000
0100
0000
0100
0000
0100
0000
,  // measure 27
0010
0001
1000
0000
1000
0000
1000
0000
,  // measure 28
0001
0100
0010
0000
0010
0000
0010
0000
,  // measure 29
1000
0100
0001
0000
1100
0000
0011
0000
,  // measure 30
1000
0010
0001
0000
1010
0000
0101
0000
,  // measure 31
1000
0100
0010
0000
0001
0100
0010
0000
,  // measure 32
1000
0100
0010
0000
0001
0100
0010
0000
,  // measure 33
1000
0100
0001
0000
1000
0010
0001
0000
,  // measure 34
1000
0100
0010
0000
0001
0100
0010
0000
,  // measure 35
1000
0010
0001
0000
1000
0100
0001
0000
,  // measure 36
0001
0100
0010
0000
0010
1000
0100
0000
,  // measure 37
1000
0100
1000
0000
1000
0100
1000
0000
,  // measure 38
0001
0100
0001
0000
0001
0100
0001
0000
,  // measure 39
0010
0001
0100
0010
1000
0100
0010
0001
,  // measure 40
0100
0010
1000
0100
0010
0001
0100
0010
,  // measure 41
1001
0000
1100
0000
0010
0001
0100
0000
,  // measure 42
1010
0000
1001
0000
0010
0100
0001
0000
,  // measure 43
1100
0000
0110
0000
0001
1000
0010
0000
,  // measure 44
0101
0000
1001
0000
0010
1000
0100
0000
,  // measure 45
0011
0000
0110
0000
1000
0100
0010
0000
,  // measure 46
1001
0000
0101
0000
0010
1000
0001
0000
,  // measure 47
1100
0000
0011
0000
1000
0100
0010
0000
,  // measure 48
1001
0000
0110
0000
1000
0001
0100
0000
,  // measure 49
0001
1000
0001
0100
0000
0000
0101
0000
,  // measure 50
1000
0001
1000
0100
0000
0000
1001
0000
,  // measure 51
0010
1000
0010
0100
0000
0000
0110
0000
,  // measure 52
1000
0001
1000
0100
0000
0000
0011
0000
,  // measure 53
1000
0100
0010
0001
0000
0000
1100
0000
,  // measure 54
0001
0010
0100
1000
0000
0000
0110
0000
,  // measure 55
1001
0011
1100
1001
,  // measure 56
0010
0000
0000
0000
0000
0000
0000
0000
0001
0000
0000
0000
0000
0000
0000
0000
0100
0000
0000
0000
0000
0000
0000
0000
0010
0000
0000
0000
0000
0000
0000
0000
2002
3003
0000
0000
0000
0000
0000
0000
0000
0000
0000
0000
0000
0000
0000
0000
1000
0000
0000
0000
0000
0000
0000
0000
0010
0000
0000
0000
0000
0000
0000
0000
,  // measure 57
0200
0000
0301
1000
0020
0000
1030
0100
,  // measure 58
0002
0000
1003
0010
0002
0000
1003
0010
,  // measure 59
0200
0000
0301
0100
2000
0000
3100
0001
,  // measure 60
0010
0000
1100
0000
0010
0001
0200
0000
,  // measure 61
0310
1000
0002
0000
1003
0100
0020
0000
,  // measure 62
0031
0100
2000
0000
3100
0001
0020
0000
,  // measure 63
0130
1000
0002
0000
1003
0010
0100
0002
,  // measure 64
2000
0000
0000
3003
1001
0000
0000
0000
0110
0000
0000
0000
1000
0000
0100
0000
,  // measure 65
0010
0000
1001
0000
0110
0000
0001
0010
,  // measure 66
0100
0000
1001
0000
0110
0000
1000
0100
,  // measure 67
0010
0000
0000
0000
0000
0000
0000
0000
0000
0000
0000
0000
0000
0000
0000
0000
1001
0000
0000
0000
0000
0000
0000
0000
0000
0000
0000
0000
0000
0000
0000
0000
0100
0000
0000
0000
0000
0000
0000
0000
2002
3003
0000
0000
0000
0000
0000
0000
0110
0000
0000
0000
0000
0000
0000
0000
0000
0000
0000
0000
0000
0000
0000
0000
,  // measure 68
1001
0000
1000
0100
0010
0001
0000
0000
,  // measure 69
1001
0000
0001
0010
0100
1000
0000
0000
,  // measure 70
0001
0101
1000
1100
,  // measure 71
0011
0110
1100
1001
,  // measure 72
0010
1000
0001
0210
0000
0000
0001
0000
,  // measure 73
0300
0000
1000
0000
0010
1000
0100
0010
,  // measure 74
1001
0000
0010
1002
0000
0000
0100
0000
,  // measure 75
1003
0100
0000
0100
0010
0000
1001
0000
,  // measure 76
0100
0001
1000
0120
0000
0000
1000
0000
,  // measure 77
0030
0000
0001
0000
0100
0001
0010
0100
,  // measure 78
1001
0000
0100
2001
0000
0000
0010
0000
,  // measure 79
3001
1000
0000
0010
0100
0000
0001
1000
0010
0000
1000
0000
0001
0000
0210
0000
,  // measure 80
0000
0001
0300
1000
,  // measure 81
0010
1000
0100
0010
1001
0000
0010
1002
,  // measure 82
0000
0000
0100
0000
1003
0100
0000
0100
,  // measure 83
0010
0000
1001
0000
0100
0001
1000
0120
,  // measure 84
0000
0000
1030
0001
2010
0000
0000
3001
,  // measure 85
0100
0001
1000
0100
1002
0000
0000
0103
,  // measure 86
0010
0000
0010
0000
1000
0010
0100
0002
,  // measure 87
2000
0000
0000
0000
0000
0000
0000
0000
0000
0000
0000
0000
3003
0000
0000
0000
2002
0000
0000
0000
0000
0000
0000
0000
0000
0000
0000
0000
0000
0000
0000
3000
0020
0000
0000
0000
0000
0000
0000
0000
0000
0000
0000
0000
0000
0000
0000
0030
2000
0000
0000
0000
0000
0000
0000
0000
0000
0000
0000
0000
0000
0000
0000
3000
,  // measure 88
0200
0000
0000
0000
0000
0000
0000
0000
0000
0000
0000
0000
0000
0000
0000
0300
1003
0000
0000
0000
0000
0000
0000
0000
0010
0000
0000
0000
0000
0000
0000
0000
0100
0000
0000
0000
0000
0000
0000
0000
0001
0000
0000
0000
0000
0000
0000
0000
1000
0000
0000
0000
0000
0000
0000
0000
0100
0000
0000
0000
0000
0000
0000
0000
,  // measure 89
1000
0001
0100
0010
1000
0001
1000
0100
,  // measure 90
0010
0001
0100
0010
2002
0000
0000
0000
0000
0000
0000
0000
3003
0000
0000
0000
,  // measure 91
0010
1000
0001
0100
1010
0000
1001
0000
0101
0000
1001
0000
1100
0000
0110
0000
,  // measure 92
0011
1001
1000
0100
0010
0100
2000
0000
,  // measure 93
3001
0000
0010
0001
0100
0010
0200
0000
,  // measure 94
0301
0000
0010
0100
1000
0100
0020
0000
,  // measure 95
0031
0000
0100
0001
1000
0001
0200
0000
,  // measure 96
0310
0000
1000
0001
0100
0010
0200
0000
,  // measure 97
0301
0000
1000
0100
0010
0100
2000
0000
,  // measure 98
3001
0000
0010
0001
1000
0001
0020
0000
,  // measure 99
0130
0000
1000
0010
0100
0010
2000
0000
,  // measure 100
3001
0000
0010
0100
0010
0000
1001
0000
,  // measure 101
1100
0000
0001
0100
0001
0000
1100
0000
,  // measure 102
1001
0000
0010
1000
0010
0000
1001
0000
,  // measure 103
0101
0000
1000
0100
1000
0000
0101
0000
,  // measure 104
1001
0000
1000
0010
0100
0000
0101
0000
,  // measure 105
1001
0000
1000
0100
0010
0000
0011
0000
,  // measure 106
1001
0000
1000
0100
0001
0100
0010
0001
,  // measure 107
1000
0000
0000
0000
0000
0000
0000
0000
0010
0000
0000
0000
0000
0000
0000
0000
0001
0000
0000
0000
0000
0000
0000
0000
0010
0000
0000
0000
0000
0000
0000
0000
1000
0000
0000
0000
0000
0000
0000
0000
0100
0000
0000
0000
0000
0000
0000
0000
0020
0030
0000
0000
0000
0000
0000
0000
0000
0000
0000
0000
0000
0000
0000
0000
,  // measure 108
1001
0000
0010
2002
3003
0000
0001
0100
,  // measure 109
1000
0000
1000
0100
0010
0000
0010
0100
,  // measure 110
1001
0000
0100
2002
3003
0000
1000
0100
,  // measure 111
0020
0000
0000
0000
0000
0000
0000
0000
0002
0000
0000
0000
0000
0000
0000
0000
0033
0000
0000
0000
0000
0000
0000
0000
2000
0000
0000
0000
0000
0000
0000
0000
0200
3300
0000
0000
0000
0000
0000
0000
0000
0000
0000
0000
0000
0000
0000
0000
1001
0000
0000
0000
0000
0000
0000
0000
0000
0000
0000
0000
0000
0000
0000
0000
,  // measure 112
0100
2002
3003
0000
1000
0010
0001
0000
,  // measure 113
0001
0010
0100
0000
0100
0010
1001
0000
,  // measure 114
0010
2002
3003
0000
0001
0010
1001
0000
,  // measure 115
0220
0330
0000
0000
0000
0000
0000
0000
0000
0000
0000
0000
0000
0000
0000
0000
0100
0000
0000
0000
0000
0000
0000
0000
0010
0000
0000
0000
0000
0000
0000
0000
1001
0000
0000
0000
0000
0000
0000
0000
0000
0000
0000
0000
0000
0000
0000
0000
0010
0000
0000
0000
0000
0000
0000
0000
2002
0000
0000
0000
0000
0000
0000
0000
,  // measure 116
3003
0000
0001
0100
1000
0000
1000
0100
,  // measure 117
0010
0000
0010
0100
1001
0000
0100
2002
,  // measure 118
3003
0000
1000
0100
0020
0002
0033
2000
,  // measure 119
0200
3300
0000
0000
0000
0000
0000
0000
0000
0000
0000
0000
0000
0000
0000
0000
0110
0000
0000
0000
0000
0000
0000
0000
0000
0000
0000
0000
0000
0000
0000
0000
1001
0000
0000
0000
0000
0000
0000
0000
0000
0000
0000
0000
0000
0000
0000
0000
0010
0000
0000
0000
0000
0000
0000
0000
2002
0000
0000
0000
0000
0000
0000
0000
,  // measure 120
3003
0000
0001
0100
1000
0000
1000
0100
,  // measure 121
0010
0000
0010
1000
0100
0001
0100
0010
,  // measure 122
0001
0100
1000
0100
0010
1000
0100
0010
,  // measure 123
0001
0000
1000
0000
0001
1000
0001
1000
0001
0000
0000
0000
0000
0000
0000
0000
;

//---------------dance-single - ----------------
#NOTES:
     dance-single:
     :
     Medium:
     9:
     0.597,0.904,0.055,0.074,0.014:
0000
0000
0000
0000
,
0000
0000
0000
0000
,
0000
0000
0000
0000
,
0000
0000
0000
0000
,
0001
0000
0000
0001
0000
0000
0001
0000
,
0000
1000
0000
0100
,
0010
0000
0000
0001
0000
0000
0010
0000
,
0100
0000
0000
1000
0000
0000
0001
0000
,
0100
0000
0000
0100
0000
0000
0100
0000
,
0000
0010
0000
1000
,
0001
0000
0000
0100
0000
0000
0001
0000
,
1000
0000
0000
0100
0000
0000
1000
0000
,
0001
0000
0000
0001
0000
0000
0001
0000
,
0000
1000
0000
0100
,
0010
0000
0000
0001
0000
0000
0010
0000
,
0100
0000
0000
1000
0000
0000
0100
0000
,
0010
0000
0000
0010
0000
0000
0010
0000
,
0000
0001
0000
1000
,
0001
0000
0000
0100
0000
0000
0001
0000
,
1000
0000
0000
0010
0000
0000
1000
0000
,
0001
0000
0000
0001
0000
0000
0001
0000
,
1000
0000
0000
1000
0000
0000
1000
0000
,
0100
0000
0000
0100
0000
0000
0100
0000
,
1000
0001
0100
0010
,
1000
1000
0001
0001
,
0100
0100
0010
0010
,
1000
1000
0001
0001
,
0010
0010
0100
0100
,
0010
0010
0001
0001
,
1000
1000
0010
0010
,
0100
0100
0001
0001
,
1000
0000
0000
1000
0000
0000
0001
0000
,
0100
0100
0010
0010
,
1000
1000
0001
0001
,
1000
1000
0100
0100
,
0010
0010
0001
0001
,
1000
1000
0010
0010
,
0100
0100
0001
0001
,
1000
1000
0010
0010
,
0100
0100
0001
0001
,
1000
0100
1000
0000
0000
0000
0001
0000
,
0100
0010
0100
0000
0000
0000
0001
0000
,
1000
0100
1000
0000
0000
0000
0100
0000
,
0010
0001
0010
0000
0000
0000
0100
0000
,
1000
0001
1000
0000
0000
0000
0001
0000
,
0100
0010
0100
0000
0000
0000
0001
0000
,
1000
0100
1000
0000
0000
0000
0010
0000
,
0100
0001
0100
0000
0000
0000
0010
0000
,
1000
0001
1000
0001
0000
0000
0100
0000
,
0001
1000
0001
1000
0000
0000
0100
0000
,
0010
0001
0010
0001
0000
0000
1000
0000
,
0010
1000
0010
1000
0000
0000
0001
0000
,
0100
0001
0100
0001
0000
0000
1000
0000
,
0100
1000
0100
1000
0000
0000
0001
0000
,
1000
0010
0100
0001
,
1000
0001
1001
1000
,
0000
1000
0000
0000
0000
0000
0001
0000
,
0100
0010
1000
0001
,
0000
0001
0000
0000
0000
0000
1000
0000
,
0100
0000
0000
0000
0010
0000
0000
0010
,
0000
0000
0001
1000
,
0010
0000
0100
0000
0001
0000
0000
0001
,
0000
0000
1000
0002
,
0000
0000
1003
0000
0000
1000
0000
0000
,
0000
0100
0010
0001
,
1000
0000
0010
0000
0100
0010
0000
0100
,
0001
0000
1000
0001
1000
0001
0200
0000
,
0320
0000
0130
0001
0100
0001
0000
0000
,
1000
0000
0001
0010
0001
0010
0000
0000
,
0001
1000
0010
0100
,
0001
1000
0001
1000
0002
0000
0000
0000
,
1003
0000
0000
1000
0000
0000
1000
0000
,
0000
0000
0001
0000
0100
0000
0001
0100
,
0001
0000
0000
1000
0000
0000
0100
0000
,
0010
0000
0000
0001
0000
0000
0010
0000
,
0100
0000
0000
0100
0000
0000
0100
0000
,
0000
0000
0010
0000
0100
0000
1000
0001
,
1000
0000
0000
0010
0000
0000
0100
0000
,
0001
0000
0000
0001
0000
0000
0001
0000
1000
0000
0000
0000
0000
0000
1000
0000
,
0000
1000
0000
0001
,
1000
0000
0001
1000
0001
0000
0000
0010
,
0000
0000
0100
0000
0010
0000
0000
0001
,
0000
0000
1000
0000
0010
0000
0000
0010
,
0000
0000
0010
0000
0100
0000
0000
0100
,
0000
0000
0100
0000
0001
0000
0000
0001
,
0000
0001
1000
0010
,
0100
1002
0100
0010
,
0100
1003
0010
1000
,
0010
0100
0001
0100
,
0001
2002
0000
3003
,
0002
0000
0000
0000
1003
0000
0010
0000
0100
0000
0001
0000
1000
0010
1000
0000
,
0001
0100
0001
0000
1000
0000
0000
0000
0100
0000
0000
0000
1000
0000
0000
0000
,
0001
0100
0010
0100
,
0001
1000
0100
0010
,
0001
1000
0001
0010
,
0100
1000
0001
1000
,
0100
0010
0100
1000
,
0001
0100
0010
1000
,
0010
0100
0001
1000
,
0100
1000
0001
0100
,
0010
1000
0001
0010
,
0001
1000
0100
0010
,
0001
1000
0100
0010
,
0100
1000
0001
0100
,
0010
1000
0001
0010
,
0100
0010
0001
1000
,
0010
0000
0100
0000
0000
0100
0000
0000
,
0001
0000
0000
0001
0000
0000
0001
0000
,
1000
0100
0010
0001
,
1000
0000
0000
1000
0000
0000
1000
0000
,
1001
0000
0000
0101
0000
0000
0001
0000
,
0000
0001
0000
0000
0001
0000
0010
0000
,
0100
1000
0001
0100
,
0000
0100
0000
0000
0100
0000
0010
0000
,
0110
0000
0000
0000
0100
0000
0000
0100
,
0000
0100
0001
1000
,
0100
0000
0010
0000
0001
0000
0000
0001
,
0000
0000
0001
0000
1000
0000
0000
1000
,
0000
1000
0001
0100
,
0001
0100
0010
1000
,
0010
1000
0001
1000
,
0001
0000
1000
0000
0001
1000
0001
1000
,
0001
1000
0001
1000
0001
0000
0000
0000
;

//---------------dance-single - ----------------
#NOTES:
     dance-single:
     :
     Easy:
     6:
     0.398,0.565,0.074,0.028,0.000:
0000
0000
0000
0000
,
0000
0000
0000
0000
,
0000
0000
0000
0000
,
0000
0000
0000
0000
,
0001
0000
0000
0000
,
0100
0000
0000
0000
,
0001
0000
0000
0000
,
0100
0000
0000
0000
,
0001
0000
0001
0000
,
0001
0100
0001
0000
,
1000
0000
1000
0000
,
1000
0100
1000
0000
,
0001
0000
0001
0000
,
0001
0100
0001
0000
,
1000
0000
1000
0000
,
1001
0000
0000
0000
,
0001
0000
0001
0000
,
0001
0010
0001
0000
,
1000
0000
1000
0000
,
1000
0100
1000
0000
,
0001
0000
0001
0000
,
1000
0000
1000
0000
,
0001
0000
0100
0000
,
0010
0010
1000
1000
,
0001
0100
0001
0000
,
1000
0000
1000
0000
,
0010
0100
0010
0000
,
1000
0000
1000
0000
,
0001
0010
0001
0000
,
1000
0000
1000
0000
,
0100
0010
0100
0000
,
0010
0000
0010
0000
,
0001
1000
0001
0000
,
1000
0000
1000
0000
,
0010
0100
0010
0000
,
1000
0000
1000
0000
,
0001
0100
0001
0000
,
1000
0000
1000
0000
,
0010
0100
0010
0000
,
1000
0000
1000
0000
,
1001
0000
0000
0001
,
0100
0000
0000
0100
,
0010
0000
0000
0010
,
1000
0000
0000
1000
,
0001
0000
0000
0001
,
0010
0000
0000
0010
,
0100
0000
0000
0100
,
1000
0000
0000
0001
,
1000
1000
0000
0010
,
0100
0100
0000
0001
,
1000
1000
0000
0100
,
0010
0010
0000
0001
,
1000
1000
0000
0001
,
0100
0100
0000
0010
,
1000
0001
1000
0001
,
1000
0001
1000
1001
,
0000
0000
0000
0001
,
0100
0001
0000
1000
,
0000
0000
0000
1000
,
0001
0000
1001
0000
,
0000
0000
1000
0010
,
1000
0000
0001
0000
,
0000
0000
0100
0000
,
0000
0110
0000
0000
,
0000
0010
1000
0010
,
0000
0100
0000
0001
,
0000
0100
0000
0000
,
0001
1000
0001
0000
,
1000
0001
1000
0000
,
0001
1000
0001
1000
,
0001
1000
0002
0000
,
1003
0100
1000
0000
,
0001
0100
0001
0000
,
1000
0000
0010
0000
,
0100
0000
0001
0000
,
1000
0010
1000
0000
,
0001
0010
0001
0000
,
1000
0000
0001
0000
,
1001
0000
1000
0001
,
1000
0000
0001
1000
,
0001
0000
1000
0001
,
1000
0000
0001
1000
,
0001
0000
0100
0010
,
0100
0000
0010
0100
,
0010
0000
0100
0010
,
0100
0000
0010
0100
,
0010
0110
0100
0001
,
1000
0010
0010
0010
,
0010
0100
0100
0100
,
0100
2002
0000
3003
,
0001
0000
1000
0000
0001
0000
1000
0001
,
1000
0001
1000
0000
0000
0000
1000
0000
,
0000
0010
0000
0010
,
0000
0100
0000
0100
,
0000
0001
0000
0001
,
0000
1000
0000
1000
,
0000
0100
0000
0100
,
0000
0010
0000
0010
,
0000
0001
0000
0001
,
0000
1000
0000
1000
,
0000
0010
0000
0010
,
0000
0100
0000
0100
,
0000
0001
0000
0001
,
0000
1000
0000
0100
,
0000
0010
0000
0001
,
0000
1000
0000
0100
,
0000
0010
0000
0001
,
1000
0000
1000
0000
,
0001
0000
0001
0000
,
1000
0010
1000
0010
,
1000
0000
0000
0001
,
0000
0001
0000
1000
,
0000
1000
0000
0010
,
0100
0010
0100
0010
,
0000
0000
0100
0000
,
0100
0000
0001
0000
,
0001
0000
1000
0001
,
1000
0001
1000
0000
,
0000
0000
0001
0000
,
0001
0000
1000
0000
,
1000
0000
0001
1000
,
0001
1000
0001
1000
,
0001
1000
0001
0000
;

//---------------dance-single - ----------------
#NOTES:
     dance-single:
     :
     Beginner:
     3:
     0.187,0.452,0.037,0.000,0.000:
0000
0000
0000
0000
,
0000
0000
0000
0000
,
0000
0000
0000
0000
,
0000
0000
0000
0000
,
0001
0000
0000
0000
,
0000
0000
0000
0000
,
0001
0000
0000
0000
,
0000
0000
0000
0000
,
1000
0000
0000
0000
,
1000
0000
0000
0000
,
1000
0000
1000
0000
,
1000
0000
0000
0000
,
0001
0000
0000
0000
,
0001
0000
0000
0000
,
0001
0000
0001
0000
,
1001
0000
0000
0000
,
1000
0000
0000
0000
,
1000
0000
0000
0000
,
1000
0000
1000
0000
,
1000
0000
0000
0000
,
0010
0000
0000
0000
,
0010
0000
0000
0000
,
0010
0000
0010
0000
,
0010
0000
0010
0000
,
0110
0000
0000
0000
,
0100
0000
0000
0000
,
0100
0000
0000
0000
,
0100
0000
0000
0000
,
0001
0000
0000
0000
,
0001
0000
0000
0000
,
0001
0000
0000
0000
,
0001
0000
0000
0000
,
1000
0000
0000
0000
,
1000
0000
0000
0000
,
1000
0000
0000
0000
,
1000
0000
0000
0000
,
0100
0000
0000
0000
,
0100
0000
0000
0000
,
0100
0000
0000
0000
,
0100
0000
0000
0000
,
0110
0000
0000
0000
,
0000
0000
0000
0000
,
1000
0000
0000
0000
,
0000
0000
0000
0000
,
0001
0000
0000
0000
,
0000
0000
0000
0000
,
0100
0000
0000
0000
,
0000
0000
0000
0000
,
0010
0000
0000
0000
,
0010
0000
0000
0000
,
0100
0000
0000
0000
,
0100
0000
0000
0000
,
0001
0000
0000
0000
,
0001
0000
0000
0000
,
1000
0000
0000
0000
,
1000
0000
0000
0000
,
0000
0000
0000
0001
,
0000
0000
0000
0001
,
0000
0000
0000
0001
,
0000
0000
1000
0000
,
0000
0000
1000
0000
,
0000
0000
1000
0000
,
0000
0000
1000
0000
,
0000
0001
0000
0000
,
0000
0001
0000
0000
,
0000
0001
0000
0000
,
0000
0001
0000
0000
,
1000
0000
0000
0000
,
1000
0000
0000
0000
,
1000
0000
1000
0000
,
0001
0000
0001
0000
,
1000
0000
0000
0000
,
1000
0000
0000
0000
,
1000
0000
1000
0000
,
1000
0000
0000
0000
,
0001
0000
0000
0000
,
0001
0000
0000
0000
,
0001
0000
0001
0000
,
0001
0000
0000
0000
,
0000
0000
1000
0000
,
0000
0000
1000
0000
,
1000
0000
1000
0000
,
0000
0000
0010
0000
,
0000
0000
0010
0000
,
0000
0000
0010
0000
,
0010
0000
0010
0000
,
0010
0000
1000
1000
,
1000
0001
0001
0001
,
0001
1000
1000
1000
,
1000
1001
0000
0000
,
0000
0001
0001
0001
,
0001
0000
0000
0000
,
0000
0100
0000
0000
,
0000
0100
0000
0000
,
0000
0100
0000
0000
,
0000
0010
0000
0000
,
0000
0010
0000
0000
,
0000
0010
0000
0000
,
0000
0010
0000
0000
,
0000
1000
0000
0000
,
0000
1000
0000
0000
,
0000
1000
0000
0000
,
0000
1000
0000
0000
,
0000
0001
0000
0000
,
0000
0001
0000
0000
,
0000
0001
0000
0000
,
0000
0001
0000
0000
,
0000
0000
0000
0000
,
1000
0000
0000
0000
,
1000
0000
1000
0000
,
1000
0000
0000
0000
,
0000
0000
0000
0001
,
0000
0000
0000
0001
,
0000
0001
0000
0001
,
0000
0000
0000
0000
,
0000
0000
0100
0000
,
0000
0000
0100
0000
,
0100
0000
0100
0000
,
0000
0000
0010
0000
,
0000
0000
0010
0000
,
0000
0000
0010
0000
,
0010
0000
0100
0000
,
0100
0000
0001
0000
;
