#TITLE:LEVEL5 -judgelight-;
#SUBTITLE:;
#ARTIST:fripSide;
#TITLETRANSLIT:;
#SUBTITLETRANSLIT:;
#ARTISTTRANSLIT:;
#CREDIT:;
#BANNER:bn.png;
#BACKGROUND:bg.png;
#LYRICSPATH:;
#CDTITLE:;
#MUSIC:[SC 2012] - LEVEL5 -judgelight-.mp3;
#OFFSET:-1.033;
#SAMPLESTART:43.984;
#SAMPLELENGTH:12.000;
#SELECTABLE:YES;
#BPMS:0.000=139.500;
#STOPS:;
#BGCHANGES:;

//---------------dance-single - ----------------
#NOTES:
     dance-single:
     :
     Hard:
     8:
     0.497,0.508,0.226,0.246,0.195:
0000
0000
0000
0000
,
0000
0000
0000
0000
,
0000
0000
0000
0000
,
0000
0000
0000
0000
,
0001
0000
0000
0010
0000
0000
0001
0000
1000
0000
0000
0010
0000
0000
1000
0000
,
0001
0000
0000
0100
0000
0000
0001
0000
1000
0000
0000
0100
0000
0000
1000
0000
,
0001
0010
0001
1000
0001
0100
0001
1000
,
0001
0010
1000
0010
0002
0000
0000
0003
,
1001
0000
0000
0000
1000
0000
0010
0000
0100
0000
0000
1100
0000
0000
0100
0000
,
0010
0000
1000
0000
0010
0000
0000
0011
0000
0000
0000
0010
0100
0000
0001
0000
,
0010
0000
0000
1010
0000
0000
0010
0000
0100
0000
0000
0101
0000
0000
0100
0000
,
1000
0000
0000
1001
0000
0000
0001
0000
1000
0000
0100
0000
0001
0000
0100
0000
,
0020
0000
0000
0000
0031
0000
0100
0000
0010
0000
0000
0011
0000
0000
0010
0000
,
0100
0000
0001
0000
1000
0000
0100
0000
0010
0000
0000
0110
0000
0000
0100
0000
,
0002
0000
0203
0000
1300
0100
0010
0001
,
0100
0000
0000
2100
0000
0000
0000
0000
3100
0000
0000
0000
0010
0000
0000
0000
,
1001
0000
0001
0000
1000
0000
0010
0100
,
0101
0000
0000
0001
0000
0000
0010
0000
0000
0000
0100
0000
1000
0000
0001
0000
,
0100
0000
0000
0100
0000
0000
0002
0000
0000
0000
0000
0000
1003
0000
0000
0000
,
0010
0000
0000
0010
0000
0000
1000
0000
0000
0000
0100
0000
0010
0000
0001
0000
,
1000
0000
0000
0010
0000
0000
0100
0000
0002
0000
0000
0000
1003
0000
0000
0000
,
1100
0000
0101
0000
1001
0000
0001
0010
,
0100
0000
1100
0000
1000
0001
0010
0001
,
1000
0000
0010
0100
0001
0000
1000
0100
,
0010
0000
0000
0001
0000
0000
1000
0000
0020
0000
0000
0000
0130
0000
0000
0000
,
0010
1000
0100
1000
0010
0100
0001
0010
,
1000
0010
0001
0100
0010
0000
1001
0000
,
0100
0001
0010
0001
0100
0010
1000
0100
,
0001
0100
1000
0010
0100
0000
1001
0000
,
1000
0100
0010
0100
2000
0000
3001
0000
,
0100
0010
1000
0010
0200
0000
0301
0000
,
1000
0001
0100
0001
0010
0001
0100
0001
,
1000
0000
0000
0001
0000
0000
0100
0000
2002
0000
0000
0000
3003
0000
0000
0000
,
1000
0000
0000
0000
0001
0000
0000
0000
0100
0000
0010
0200
0000
0000
0300
0000
,
1000
0000
0100
0000
0010
0000
0100
0020
0000
0000
0000
0000
0030
0000
1000
0000
,
0001
0000
1000
0200
0000
0000
0300
0000
0001
0000
1000
0020
0000
0000
0030
0000
,
0001
0000
0010
0200
0000
0000
0300
0000
1000
0000
0001
0000
0100
0000
0010
0000
,
1010
0000
0000
0000
1000
0000
0000
0000
0100
0000
1000
0002
0000
0000
0003
0000
,
1000
0000
0010
0000
0100
0000
0001
0000
0010
0000
0001
2000
0000
0000
3000
0000
,
0101
0000
0100
0000
0010
1000
0010
0100
,
0001
0000
0010
0002
0000
0000
0003
0000
1000
0000
0100
0000
0010
0000
0001
0000
,
1001
0000
0000
0000
1000
0000
0100
0000
0010
0000
1000
0010
0000
0000
0001
0000
,
0010
0000
0100
0000
1000
0000
0100
0001
0000
0100
0000
0010
0100
0000
1000
0000
,
0001
0000
0100
0010
0000
0000
0001
0000
0010
0000
1000
0010
0000
0000
0100
0000
,
0001
0000
0100
1000
0000
0000
0000
0000
0001
0000
0010
0000
0100
0000
0001
0000
,
1000
0000
0000
0000
0001
0000
0100
0000
0010
0000
0001
0010
0000
0000
1000
0000
,
0001
0000
0100
0000
0010
0000
0001
0000
0010
0000
1000
0010
0000
0000
1000
0000
,
0001
0000
0010
0000
0100
0001
0100
1000
,
0001
0000
1000
0200
0000
0000
0000
0000
0010
0000
0000
0000
1300
0000
0001
0000
,
0100
0000
0010
0000
0001
0010
1000
0010
,
0100
0000
0001
0020
0000
0000
0000
0000
0100
0000
0000
0000
0031
0000
0000
0000
,
2002
0000
0000
0000
,
0000
0000
0000
0000
,
0000
0000
0000
0000
,
0000
0000
0000
0000
,
3003
0000
0000
0000
;

//---------------dance-single - ----------------
#NOTES:
     dance-single:
     :
     Medium:
     6:
     0.365,0.395,0.144,0.144,0.139:
0000
0000
0000
0000
,
0000
0000
0000
0000
,
0000
0000
0000
0000
,
0000
0000
0000
0000
,
1000
0100
0100
0010
,
0001
0010
0010
0100
,
1000
0010
1000
0000
0001
0100
0001
0000
,
1000
0100
0010
0001
2000
0000
0000
3000
,
1001
0000
0000
0000
0001
0000
0000
0000
0010
0000
0000
0010
0000
0000
0100
0000
,
1000
0001
1001
1000
,
0001
0100
0001
0000
1000
0010
1000
0000
,
0001
1000
1100
0011
,
1001
0000
0000
0000
1000
0000
0000
0000
0010
0000
0000
0010
0000
0000
0100
0000
,
0001
0000
0000
0000
1000
0000
0000
0000
0001
0000
0000
0001
0000
0000
0000
0000
,
0011
0100
1010
0001
,
1000
0000
0000
0020
0000
0000
0030
0000
0100
0000
0000
0000
0001
0000
0000
0000
,
2002
3003
1000
0100
,
0010
0000
0000
0100
0000
0000
0010
0000
0000
0000
0000
0000
0001
0000
0000
0000
,
0100
0000
0000
0010
0000
0000
0100
0000
0000
0000
0000
0000
0001
0000
0000
0000
,
1000
0000
0000
0010
0000
0000
1000
0000
0000
0000
0000
0000
0100
0000
0000
0000
,
0010
0000
0000
0001
0000
0000
0010
0000
0200
0000
0000
0000
0000
0000
0000
0000
,
1300
0000
0010
0000
1000
0000
0100
0010
,
0100
0000
1000
0000
0001
1000
0010
1000
,
0002
0000
0003
0010
0001
0000
0000
0100
,
0010
0000
0000
1000
0000
0000
0010
0000
2000
0000
0000
0000
0000
0000
3000
0000
,
0001
0000
0010
0001
0010
0000
0100
0010
,
0100
0000
1000
0100
1000
0000
0002
0000
,
1003
0000
0001
0100
0001
0000
0100
0010
,
0100
0000
0010
1000
0010
0000
2000
0000
,
3001
0000
0010
0100
1000
0000
1001
0000
,
0001
0000
0100
0010
1000
0000
0001
0010
,
0100
1000
0100
0010
,
0001
0000
0000
1000
0000
0000
0001
0000
0020
0000
0000
0000
0000
0000
0000
0000
,
0031
0000
0000
0000
0100
0000
0000
0000
0010
0000
0000
0100
0000
0000
0000
0000
,
0001
0000
1000
0000
0001
0000
0000
0010
0000
0000
0000
0000
0001
0000
0000
0000
,
1000
0000
0000
0100
0000
0000
0000
0000
0010
0000
0000
0100
0000
0000
0000
0000
,
1000
0000
0000
0001
0000
0000
0000
0000
0100
0000
0000
0000
0010
0000
0000
0000
,
1010
0000
0000
0000
1000
0000
0000
0000
0001
0000
0000
1000
0000
0000
0000
0000
,
0100
0000
0010
0000
0001
0000
0000
0000
1000
0000
0000
0001
0000
0000
0000
0000
,
1000
0010
0100
0001
,
0010
0000
0000
0100
0000
0000
0000
0000
1000
0000
0001
0000
1000
0000
0000
0000
,
0011
0000
0000
0000
0001
0000
0010
0000
0100
0000
0000
0100
0000
0000
1000
0000
,
0001
0000
0000
0000
1000
0000
0000
1000
0000
0000
0000
0000
0010
0000
0000
0000
,
0100
0000
0000
0100
0000
0000
0001
0000
1000
0000
0000
1000
0000
0000
0001
0000
,
0010
0000
0000
0010
0000
0000
0100
0000
1000
0000
0000
0000
1010
0000
0000
0000
,
0101
0000
0000
0000
0100
0000
0010
0000
1000
0000
0000
1000
0000
0000
0100
0000
,
0010
0000
0001
0000
0010
0000
0000
0000
0100
0000
0000
0100
0000
0000
0010
0000
,
0001
0000
0100
0000
0010
1000
0010
0000
,
1000
0000
0000
0002
0000
0000
0000
0000
0010
0000
0000
0000
0013
0000
0000
0000
,
0001
0000
0100
0000
0010
1000
0010
0000
,
1000
0000
0000
0002
0000
0000
0000
0000
0010
0000
0000
0000
0013
0000
0000
0000
,
0202
0000
0000
0000
,
0000
0000
0000
0000
,
0000
0000
0000
0000
,
0000
0000
0000
0000
,
0303
0000
0000
0000
;

//---------------dance-single - ----------------
#NOTES:
     dance-single:
     :
     Easy:
     4:
     0.276,0.395,0.226,0.216,0.000: // measure 1
0000
0000
0000
0000
,  // measure 2
0000
0000
0000
0000
,  // measure 3
0000
0000
0000
0000
,  // measure 4
0000
0000
0000
0000
,  // measure 5
1000
0000
1000
0000
,  // measure 6
0100
0000
0100
0000
,  // measure 7
0010
0010
0001
0001
,  // measure 8
1000
0010
2020
3030
,  // measure 9
0101
0000
0001
0000
,  // measure 10
1000
0100
0010
0000
,  // measure 11
0000
0011
0000
1100
,  // measure 12
1001
0000
1000
0010
,  // measure 13
0100
0000
0010
0000
,  // measure 14
1000
0001
0010
0000
,  // measure 15
0110
0000
1001
0000
,  // measure 16
0202
0000
0000
0303
,  // measure 17
1001
0000
1000
0000
,  // measure 18
0001
0010
0001
1000
,  // measure 19
0001
0100
0002
0000
,  // measure 20
1003
0100
1000
0001
,  // measure 21
1000
0010
2000
0000
,  // measure 22
3001
0010
0100
1000
,  // measure 23
0100
0010
0001
0100
,  // measure 24
0202
0303
2020
3030
,  // measure 25
2002
0000
0000
3003
,  // measure 26
1000
1000
0100
0100
,  // measure 27
0010
0010
0001
1100
,  // measure 28
0001
0001
0100
0100
,  // measure 29
0010
0010
1000
0011
,  // measure 30
1000
1000
0200
0300
,  // measure 31
0010
0010
0002
0003
,  // measure 32
1100
0000
0011
0000
,  // measure 33
2002
0000
3003
0000
,  // measure 34
0001
0100
0001
0001
,  // measure 35
1000
0100
0010
0000
,  // measure 36
0000
1001
0000
0110
,  // measure 37
1100
0000
0001
1000
,  // measure 38
0010
0100
0010
0010
,  // measure 39
1000
0001
0010
0010
,  // measure 40
0100
1000
0100
1000
,  // measure 41
0002
0000
0103
0010
,  // measure 42
1001
0001
1000
1000
,  // measure 43
0100
0010
0100
1000
,  // measure 44
0001
0001
1000
1000
,  // measure 45
0001
0010
0100
0100
,  // measure 46
1000
0100
0010
0010
,  // measure 47
0001
0100
0010
0010
,  // measure 48
1000
0001
0010
0001
,  // measure 49
2000
0000
3001
0000
,  // measure 50
0001
0100
0001
1000
,  // measure 51
0020
0000
0130
0000
,  // measure 52
2002
0000
0000
0000
,  // measure 53
0000
0000
0000
0000
,  // measure 54
0000
0000
0000
0000
,  // measure 55
0000
0000
0000
0000
,  // measure 56
3003
0000
0000
0000
;

//---------------dance-single - ----------------
#NOTES:
     dance-single:
     :
     Beginner:
     1:
     0.141,0.198,0.103,0.031,0.000: // measure 1
0000
0000
0000
0000
,  // measure 2
0000
0000
0000
0000
,  // measure 3
0000
0000
0000
0000
,  // measure 4
0000
0000
0000
0000
,  // measure 5
0010
0000
0000
0000
,  // measure 6
1000
0000
0000
0000
,  // measure 7
0001
0000
0000
0000
,  // measure 8
0100
0000
0000
0000
,  // measure 9
1001
0000
1000
0000
,  // measure 10
0001
0000
0000
0000
,  // measure 11
0010
0000
0010
0000
,  // measure 12
0100
0000
0000
0000
,  // measure 13
0010
0000
0010
0000
,  // measure 14
0001
0000
0000
0000
,  // measure 15
1000
0000
1000
0000
,  // measure 16
0010
0000
0000
0000
,  // measure 17
0110
0000
0000
0000
,  // measure 18
1001
0000
0001
0000
,  // measure 19
1000
0000
0000
0000
,  // measure 20
0010
0000
0100
0000
,  // measure 21
0010
0000
0000
0000
,  // measure 22
1000
0000
0010
0000
,  // measure 23
1000
0000
0010
0000
,  // measure 24
0100
0000
0001
0000
,  // measure 25
0200
0000
0000
0300
,  // measure 26
0001
0000
0010
0000
,  // measure 27
0100
0100
0100
0000
,  // measure 28
1000
0000
0010
0000
,  // measure 29
0100
0100
0100
0000
,  // measure 30
0001
0001
0001
0000
,  // measure 31
1000
1000
1000
0000
,  // measure 32
1001
0000
0000
0000
,  // measure 33
0110
0000
0000
0000
,  // measure 34
1001
0000
0001
0000
,  // measure 35
0010
0000
0000
0000
,  // measure 36
0100
0000
0100
0000
,  // measure 37
1000
0000
0000
0000
,  // measure 38
0001
0000
0001
0000
,  // measure 39
1000
0000
1000
0000
,  // measure 40
0010
0000
0010
0000
,  // measure 41
1000
0000
0000
0000
,  // measure 42
1001
0000
1000
0000
,  // measure 43
0100
0100
0100
0000
,  // measure 44
1000
0000
1000
0000
,  // measure 45
0001
0001
0001
0000
,  // measure 46
0100
0000
0100
0000
,  // measure 47
0001
0001
0001
0000
,  // measure 48
1000
0000
0001
0000
,  // measure 49
1001
0000
0000
0000
,  // measure 50
0010
0000
0100
0000
,  // measure 51
0110
0000
0000
0000
,  // measure 52
2002
0000
0000
0000
,  // measure 53
0000
0000
0000
0000
,  // measure 54
0000
0000
0000
0000
,  // measure 55
0000
0000
0000
0000
,  // measure 56
3003
0000
0000
0000
;
