#TITLE:milky ice bear;
#SUBTITLE:;
#ARTIST:S-C-U;
#TITLETRANSLIT:;
#SUBTITLETRANSLIT:;
#ARTISTTRANSLIT:;
#GENRE:;
#CREDIT:Silverhawke;
#MENUCOLOR:;
#METERTYPE:DDR;
#BANNER:[REFLEC BEAT] - milky ice bear.png;
#BACKGROUND:[REFLEC BEAT] - milky ice bear-bg.png;
#LYRICSPATH:;
#CDTITLE:cdtitle.png;
#MUSIC:[REFLEC BEAT] - milky ice bear.mp3;
#OFFSET:-0.028;
#SAMPLESTART:68.584;
#SAMPLELENGTH:15.000;
#SELECTABLE:YES;
#LISTSORT:;
#BPMS:0.000=147.000;
#STOPS:95.000=0.408
;
#BGCHANGES:;
#ATTACKS:;

//---------------dance-single - ----------------
#NOTES:
     dance-single:
     :
     Hard:
     9:
     0.620,0.555,0.271,0.114,0.433: // measure 1
0000
0000
0000
0000
,  // measure 2
0000
0000
0000
0000
,  // measure 3
0000
0000
0000
0000
,  // measure 4
0000
0000
0000
0000
,  // measure 5
2000
0000
0000
3010
0000
0100
0000
0002
,  // measure 6
0000
0000
0000
0000
0000
0003
0000
0220
,  // measure 7
0000
0000
0000
0000
0000
0000
0000
0330
,  // measure 8
0000
0000
0001
0000
0001
0000
1000
0100
0000
1000
0001
0000
0100
0000
0010
0000
,  // measure 9
1000
0000
1000
0000
0001
0000
0001
0100
0000
0100
0010
0000
1000
0000
1000
0000
,  // measure 10
0001
0000
0001
0000
1000
0000
1000
0100
0000
0100
0010
0000
0001
0000
0001
0000
,  // measure 11
0100
0000
0100
0000
0010
0000
0010
1000
0000
1000
0001
0000
0010
0000
0010
0000
,  // measure 12
0100
0000
0100
0000
0010
0000
0010
0001
0000
0001
1000
0000
0010
0000
0010
0000
,  // measure 13
0100
0000
0001
0000
0100
0000
0001
0010
0000
0010
0001
0000
0100
0000
0010
0000
,  // measure 14
1000
0000
0100
0000
1000
0000
0010
0100
0000
0100
0010
0000
1000
0000
0001
0000
,  // measure 15
0010
0000
0100
0000
0010
0000
0001
0100
0000
0100
0001
0000
1000
0000
1001
0000
,  // measure 16
0000
0010
0100
1000
0010
0100
0010
1000
,  // measure 17
0100
0000
0000
0100
0000
0000
0100
0000
1000
0000
0000
1000
0000
0000
1000
0000
,  // measure 18
0001
0000
0000
0001
0000
0000
0001
0000
0100
0000
0000
0100
0000
0000
0100
0000
,  // measure 19
0010
0000
0000
0010
0000
0000
0010
0000
1000
0000
0000
1000
0000
0000
1000
0000
,  // measure 20
0001
0000
0000
0001
0000
0000
0001
0000
0010
0000
0000
0010
0000
0000
0010
0000
,  // measure 21
0100
0000
0000
0100
0000
0000
1100
0000
1000
0000
0000
1000
0000
0000
1010
0000
,  // measure 22
0010
0000
0000
0010
0000
0000
0011
0000
0001
0000
0000
0001
0000
0000
0101
0000
,  // measure 23
0100
0000
0000
0100
0000
0000
0110
0000
0010
0000
0000
0010
0000
0000
0011
0000
,  // measure 24
1000
0000
0000
0101
0000
0000
0001
0000
0000
1100
0000
0000
1001
0000
0001
0000
,  // measure 25
0100
0010
0000
0100
0010
0000
1000
0001
0000
1000
0100
0000
0010
0000
0010
0000
,  // measure 26
0001
0000
0001
0000
1000
0000
0000
0010
0000
0000
0200
0000
0000
0000
0301
0000
,  // measure 27
0001
0000
1000
0100
1000
0010
0100
0100
,  // measure 28
0001
0000
0001
0000
1000
0000
0000
1100
0000
0000
1001
0000
0000
0000
1000
0000
,  // measure 29
0010
0100
0000
0010
0100
0000
0001
1000
0000
0001
0010
0000
0100
0000
0100
0000
,  // measure 30
1000
0000
1000
0000
0010
0000
0000
0100
0000
0000
0002
0000
0000
0000
0013
0000
,  // measure 31
0010
0000
0100
1000
0100
0010
0001
0001
,  // measure 32
0001
0010
0000
1000
0010
0000
0001
0100
,  // measure 33
0010
0000
1000
0100
0000
0100
0010
0000
0001
0000
0100
0000
0001
0000
0100
0000
,  // measure 34
0001
0000
0010
0100
0000
0100
1000
0000
0000
0000
0001
0000
0100
0000
0001
0000
,  // measure 35
0010
0000
0001
0010
0000
0001
0100
0000
0010
0000
1000
0000
0100
0000
0100
0000
,  // measure 36
1000
0000
0010
0100
0000
0100
0001
0000
1000
0000
1000
0000
0001
0000
0010
0000
,  // measure 37
0100
0000
1000
0001
0000
1000
0001
0000
0100
0000
0010
0000
1000
0000
0010
0000
,  // measure 38
1000
0000
0001
0100
0000
0100
0010
0000
0000
0000
1000
0000
0100
0000
1000
0000
,  // measure 39
0001
0000
1000
0001
0000
1000
0001
0000
0100
0000
0010
0000
0100
0000
0001
0000
,  // measure 40
1000
0000
0001
1000
0000
0001
1000
0000
0100
0000
0010
0000
0100
0000
1000
0000
,  // measure 41
0001
0000
1000
0001
0000
1000
0001
0000
0010
0000
0100
0000
2000
0000
0000
0000
,  // measure 42
0001
0000
0000
0001
0000
0001
0000
0000
3001
0000
0000
0000
1000
0000
1000
0000
,  // measure 43
0001
0000
0001
0000
0100
0000
0000
0110
0000
0000
1010
0000
0000
0000
0001
0000
,  // measure 44
0010
0000
0000
0000
0001
0000
0000
0101
0000
0000
0110
0000
0000
0000
0010
0000
,  // measure 45
1000
0000
0100
0010
0000
0010
0100
0000
1000
0000
0010
0000
0100
0000
0001
0000
,  // measure 46
1000
0101
0000
2200
0000
3300
0000
0001
,  // measure 47
0010
0000
0000
0000
0100
0000
0000
1100
0000
0000
1010
0000
0000
0010
0100
0000
,  // measure 48
0001
0000
0100
0010
0000
0010
0100
0000
0001
0000
0010
0000
0100
0000
1000
0000
,  // measure 49
0010
0000
1000
0100
0000
0100
0010
0000
0100
0000
1000
0000
0000
0000
0001
0000
,  // measure 50
0100
0010
1000
0010
0100
0001
1000
1000
,  // measure 51
0001
0000
0001
0000
0010
0000
0000
0110
0000
0000
1100
0000
0000
0000
0001
0000
,  // measure 52
0100
0000
0000
0000
0001
0000
0000
0011
0000
0000
0110
0000
0000
0000
0100
0000
,  // measure 53
1000
0000
0010
0100
0000
0100
0010
0000
1000
0000
0100
0000
0010
0000
0001
0000
,  // measure 54
1000
0011
0000
2020
0000
3030
0000
0001
,  // measure 55
0100
0000
0000
0000
0010
0000
0000
1010
0000
0000
1100
0000
0000
0100
0010
0000
,  // measure 56
0001
0000
0010
0100
0000
0100
0010
0000
0001
0000
0100
0000
0010
0000
1000
0000
,  // measure 57
0100
0000
1000
0010
0000
0010
0100
0000
0010
0000
1000
0000
0000
0000
0001
0000
,  // measure 58
0001
0000
1000
0010
0000
1000
0001
0000
0010
0000
0100
0000
1000
0000
1000
0000
,  // measure 59
0001
0000
0001
0010
0000
0010
0100
0000
1000
0000
1000
0000
0001
0000
0001
0000
,  // measure 60
1000
0000
1000
0010
0000
0010
0100
0000
0001
0000
0001
0000
0010
0000
0010
0000
,  // measure 61
0100
0000
0100
1000
0000
1000
0001
0000
0100
0000
0100
0000
0010
0000
0010
0000
,  // measure 62
0100
0000
0100
0001
0000
0001
1000
0000
0100
0000
0100
0000
0010
0000
0001
0000
,  // measure 63
0010
0000
0001
0100
0000
0100
0001
0000
0010
0000
0100
0000
1000
0000
0010
0000
,  // measure 64
1000
0000
0100
0010
0000
0010
0100
0000
1000
0000
0001
0000
0100
0000
0010
0000
,  // measure 65
0100
0000
0001
0010
0000
0010
0001
0000
1000
0000
1001
0000
0000
0000
0010
0000
,  // measure 66
0100
1000
0001
0100
0010
2002
0000
0000
,  // measure 67
0000
0000
0000
3003
;

//---------------dance-single - ----------------
#NOTES:
     dance-single:
     :
     Medium:
     7:
     0.518,0.496,0.052,0.227,0.227: // measure 1
0000
0000
0000
0000
,  // measure 2
0000
0000
0000
0000
,  // measure 3
0000
0000
0000
0000
,  // measure 4
0000
0000
0000
0000
,  // measure 5
0020
0000
0000
0100
0000
1000
0000
0200
,  // measure 6
0000
0000
0000
0000
0000
0330
0000
2002
,  // measure 7
0000
0000
0000
0000
0000
0000
0000
3003
,  // measure 8
0000
0000
0001
0000
0100
0000
0000
0010
0000
0000
0100
0000
0001
0000
0100
0000
,  // measure 9
0010
0000
0010
0000
1000
0000
0000
0100
0000
0000
1000
0000
0010
0000
0010
0000
,  // measure 10
0100
0000
0100
0000
0001
0000
0000
0010
0000
0000
0001
0000
0100
0000
0100
0000
,  // measure 11
0010
0000
0010
0000
1000
0000
0000
0001
0000
0000
1000
0000
0100
0000
0100
0000
,  // measure 12
0010
0000
0001
0000
0100
0000
0000
0010
0000
0000
0100
0000
0001
0000
0100
0000
,  // measure 13
0010
0000
1000
0000
0100
0000
0000
0010
0000
0000
0100
0000
1000
0000
0010
0000
,  // measure 14
0100
0000
0001
0000
0010
0000
0000
0100
0000
0000
0010
0000
0001
0000
0100
0000
,  // measure 15
0010
0000
1000
0000
0001
0000
0000
0010
0000
0000
0100
0000
1000
0000
1001
0000
,  // measure 16
0000
1000
0010
0100
0001
0100
0010
1000
,  // measure 17
0002
0000
0000
0010
0023
0000
0000
0100
,  // measure 18
0230
0000
0000
1000
2300
0000
0000
0001
,  // measure 19
3002
0000
0000
0100
0203
0000
0000
0010
,  // measure 20
0320
0000
0000
1000
2030
0000
0000
0100
,  // measure 21
3200
0000
0000
0010
0000
0000
0010
0000
0320
0000
0000
0001
0000
0000
0001
0000
,  // measure 22
0032
0000
0000
1000
0000
0000
1000
0000
2003
0000
0000
0010
0000
0000
0010
0000
,  // measure 23
3020
0000
0000
0100
0000
0000
0100
0000
0230
0000
0000
0001
0000
0000
0001
0000
,  // measure 24
0301
0000
0000
1000
0000
0000
0010
0000
0000
0100
0000
0000
1001
0000
0001
0000
,  // measure 25
0100
0000
0010
0100
0001
0000
0010
0010
,  // measure 26
0100
0000
0100
0000
1000
0000
0000
0001
0000
0000
0200
0000
0000
0000
0000
0000
,  // measure 27
0310
0000
1000
0100
0010
0000
0001
0001
,  // measure 28
0100
0000
0010
0000
1000
0000
0000
0100
0000
0000
0010
0000
0001
0000
0100
0000
,  // measure 29
0010
0000
1000
0100
0010
0000
0001
0001
,  // measure 30
1000
0000
1000
0000
0100
0000
0000
0010
0000
0000
0002
0000
0000
0000
0000
0000
,  // measure 31
0103
0000
0010
1000
0100
0000
0001
0001
,  // measure 32
0100
1000
0000
0100
1000
0000
0001
0100
,  // measure 33
0010
0000
1000
0100
0000
0000
1000
0000
0010
0000
0100
0000
0001
0000
0010
0000
,  // measure 34
0001
0000
0100
0001
0000
0001
0100
0000
0000
0000
0000
0000
0000
0000
0001
0000
,  // measure 35
1000
0000
0001
0100
0000
0000
0010
0000
1000
0000
0001
0000
0010
0000
0010
0000
,  // measure 36
0001
0000
0100
0010
0000
0010
0100
0000
0001
0000
0001
0000
0000
0000
1000
0000
,  // measure 37
0001
0000
0100
0010
0000
0000
0100
0000
0001
0000
1000
0000
0010
0000
0100
0000
,  // measure 38
0001
0000
0010
0100
0000
0100
1000
0000
0000
0000
0000
0000
0000
0000
0001
0000
,  // measure 39
0100
0000
0001
0100
0000
0000
0010
0000
1000
0000
0100
0000
0000
0000
1000
0000
,  // measure 40
0100
0000
1000
0100
0000
0000
0010
0000
0001
0000
0100
0000
0000
0000
0010
0000
,  // measure 41
0100
0000
0010
0100
0000
0010
0100
0000
0001
0000
1000
0000
0100
0000
0000
0000
,  // measure 42
0010
0000
0000
0100
0000
0100
0000
0000
0010
0000
0000
0000
0001
0000
0100
0000
,  // measure 43
0001
0000
0100
0000
0010
0000
0000
0010
0000
0000
0010
0000
0000
0000
1000
0000
,  // measure 44
0100
0000
0000
0000
0010
0000
0000
0010
0000
0000
0010
0000
0000
0000
0001
0000
,  // measure 45
0100
0000
1000
0100
0001
0000
0010
0100
,  // measure 46
1000
0001
0000
2002
3003
0000
0000
0100
,  // measure 47
0010
0000
0000
0000
0100
0000
0000
0100
0000
0000
0100
0000
0000
0000
0001
0000
,  // measure 48
0010
0000
0001
0100
0000
0000
0001
0000
1000
0000
0100
0000
1000
0000
0010
0000
,  // measure 49
0100
0000
0001
1000
0000
0000
0001
0000
0010
0000
0100
0000
0000
0000
1000
0000
,  // measure 50
1000
0100
0100
0010
0010
0001
1000
0100
,  // measure 51
1000
0000
0100
0000
0010
0000
0000
0010
0000
0000
0010
0000
0000
0000
0001
0000
,  // measure 52
0100
0000
0000
0000
0010
0000
0000
0010
0000
0000
0010
0000
0000
0000
1000
0000
,  // measure 53
0100
0000
0001
0100
1000
0000
0010
0100
,  // measure 54
0001
1000
0000
2002
3003
0000
0000
0100
,  // measure 55
0010
0000
0000
0000
0100
0000
0000
0100
0000
0000
0100
0000
0000
0000
1000
0000
,  // measure 56
0010
0000
1000
0100
0000
0000
1000
0000
0001
0000
0100
0000
0001
0000
0010
0000
,  // measure 57
0100
0000
1000
0001
0000
0000
1000
0000
0010
0000
0100
0000
0000
0000
0001
0000
,  // measure 58
0001
0000
0000
1000
0000
0000
0001
0000
0010
0000
0001
0000
0100
0000
0100
0000
,  // measure 59
0010
0000
0010
1000
0000
0000
0001
0000
0010
0000
0010
0000
0001
0000
0001
0000
,  // measure 60
0100
0000
0010
0100
0000
0000
0001
0000
0010
0000
0100
0000
1000
0000
0001
0000
,  // measure 61
1000
0000
0100
0010
0000
0000
0100
0000
1000
0000
0001
0000
0000
0000
0100
0000
,  // measure 62
0100
0000
0010
1000
0000
0000
0010
0000
0100
0000
0001
0000
0010
0000
0010
0000
,  // measure 63
0100
0000
0100
1000
0000
0000
0001
0000
0100
0000
0100
0000
0001
0000
0001
0000
,  // measure 64
0010
0000
0010
0100
0000
0000
1000
0000
0001
0000
0001
0000
0100
0000
0100
0000
,  // measure 65
0010
0000
0010
1000
0000
0000
0001
0000
0010
0000
0100
0000
0000
0000
1000
0000
,  // measure 66
0100
0001
1000
0010
0001
2002
0000
0000
,  // measure 67
0000
0000
0000
3003
;

//---------------dance-single - ----------------
#NOTES:
     dance-single:
     :
     Easy:
     5:
     0.330,0.373,0.105,0.035,0.000: // measure 1
0000
0000
0000
0000
,  // measure 2
0000
0000
0000
0000
,  // measure 3
0000
0000
0000
0000
,  // measure 4
0000
0000
0000
0000
,  // measure 5
1000
0000
0000
0100
0000
0010
0000
0001
,  // measure 6
0000
0000
0000
0000
0000
0000
0000
2002
,  // measure 7
0000
0000
0000
3003
,  // measure 8
0000
0001
0100
0000
0010
0000
0100
0000
,  // measure 9
0001
0010
0001
0000
1000
0000
0001
0000
,  // measure 10
1000
0010
1000
0000
0001
0000
1000
0000
,  // measure 11
0001
0100
0001
0000
1000
0000
0001
0000
,  // measure 12
0010
0000
0010
0000
0100
1000
0001
0000
,  // measure 13
1000
0100
1000
0000
0010
0000
0100
0000
,  // measure 14
0001
0100
0001
0000
0010
0000
0100
0000
,  // measure 15
1000
0010
0100
0000
0001
1000
0001
1000
,  // measure 16
0000
0010
0100
0000
0001
0000
1001
0000
,  // measure 17
0100
0000
0110
0000
,  // measure 18
0001
0000
1001
0000
,  // measure 19
0010
0000
0110
0000
,  // measure 20
1000
0000
1001
0000
,  // measure 21
0001
0000
0010
0000
,  // measure 22
1000
0000
0100
0000
,  // measure 23
0001
0000
0100
0000
,  // measure 24
1000
0000
0010
0000
,  // measure 25
0001
0000
0000
0000
1000
0000
0001
0001
,  // measure 26
0001
0100
0110
0000
,  // measure 27
0001
0000
0000
0000
0001
0000
1000
0100
,  // measure 28
1000
0000
0010
0000
0010
0000
0100
0001
,  // measure 29
0100
0000
0010
0000
1000
0000
0100
0100
,  // measure 30
0100
0010
0110
0000
,  // measure 31
1000
0000
0000
0000
1000
0000
0001
0100
,  // measure 32
0001
0100
0110
0000
,  // measure 33
0001
0000
0000
0000
0001
0000
0100
0010
,  // measure 34
0100
0000
0001
1000
0100
0000
0000
0000
,  // measure 35
1000
0000
0000
0000
1000
0000
0100
0010
,  // measure 36
0100
0000
1000
0001
0100
0000
0000
0000
,  // measure 37
1000
0000
0000
0000
1000
0000
0010
0100
,  // measure 38
0010
0000
1000
0001
0010
0000
0000
0000
,  // measure 39
0001
0000
0000
0000
0001
0010
0001
0000
,  // measure 40
1000
0000
0000
0000
1000
0010
1000
0000
,  // measure 41
0001
0000
0000
0000
0001
0010
0200
0000
,  // measure 42
0000
0000
0300
1000
,  // measure 43
1000
0000
1000
0100
0010
0000
0001
0000
,  // measure 44
0001
0000
0001
0100
0010
0000
1000
0000
,  // measure 45
0001
0000
1000
0000
0001
0000
0100
0010
,  // measure 46
0100
0110
0000
0001
,  // measure 47
0001
0000
0010
0000
0100
0000
1000
0010
,  // measure 48
1000
0000
0001
0010
0001
0000
1000
0000
,  // measure 49
0100
0000
0010
0001
1000
0000
0001
0000
,  // measure 50
0001
0200
0300
0001
,  // measure 51
0001
0000
0001
0100
0010
0000
1000
0000
,  // measure 52
1000
0000
1000
0100
0010
0000
0001
0000
,  // measure 53
1000
0000
0001
0000
1000
0000
0100
0010
,  // measure 54
0100
0110
0000
1000
,  // measure 55
1000
0000
0010
0000
0100
0000
0001
0010
,  // measure 56
0001
0000
1000
0010
1000
0000
0001
0000
,  // measure 57
0100
0000
0010
1000
0001
0000
0000
1000
,  // measure 58
0100
0000
0010
0000
0100
0000
1000
0010
,  // measure 59
1000
0000
0001
0000
1000
0000
0001
0010
,  // measure 60
0001
0000
1000
0000
0001
0000
1000
0100
,  // measure 61
1000
0001
1000
0010
,  // measure 62
0010
0000
0100
0001
1000
0000
0001
0100
,  // measure 63
0001
0000
0010
0000
0100
0000
1000
0100
,  // measure 64
1000
0000
0010
0000
0100
0000
0001
0010
,  // measure 65
0100
0000
1000
0001
1000
0001
0000
0010
,  // measure 66
0100
0000
1000
0000
1001
0100
0000
0000
;

//---------------dance-single - ----------------
#NOTES:
     dance-single:
     :
     Beginner:
     2:
     0.139,0.172,0.000,0.000,0.000: // measure 1
0000
0000
0000
0000
,  // measure 2
0000
0000
0000
0000
,  // measure 3
0000
0000
0000
0000
,  // measure 4
0000
0000
0000
0000
,  // measure 5
0000
0000
0000
0000
,  // measure 6
0000
0000
0000
0000
,  // measure 7
0000
0000
0000
0000
,  // measure 8
0000
0100
0000
0100
,  // measure 9
0000
0001
0000
0001
,  // measure 10
0000
1000
0000
1000
,  // measure 11
0000
0001
0000
0001
,  // measure 12
0000
0100
0100
0100
,  // measure 13
0000
0001
0000
0001
,  // measure 14
0000
1000
0000
1000
,  // measure 15
0000
0001
0000
0001
,  // measure 16
0000
0100
0000
0100
,  // measure 17
0100
0000
0000
0000
,  // measure 18
0001
0000
0000
0000
,  // measure 19
1000
0000
0000
0000
,  // measure 20
0100
0000
0000
0000
,  // measure 21
0010
0000
0010
0000
,  // measure 22
0001
0000
0001
0000
,  // measure 23
1000
0000
1000
0000
,  // measure 24
0100
0000
0000
0000
,  // measure 25
0001
0000
0001
0000
,  // measure 26
1000
0000
1000
0000
,  // measure 27
0001
0000
0001
0001
,  // measure 28
0000
0001
0000
0000
,  // measure 29
1000
0000
1000
0000
,  // measure 30
0001
0000
0001
0000
,  // measure 31
0100
0000
0100
0100
,  // measure 32
0000
0100
0000
0000
,  // measure 33
0010
0000
0010
0000
,  // measure 34
1000
0000
1000
0000
,  // measure 35
0001
0000
0001
0000
,  // measure 36
0010
0000
0010
0000
,  // measure 37
0100
0000
0100
0000
,  // measure 38
1000
0000
1000
0000
,  // measure 39
0010
0000
0010
0000
,  // measure 40
0100
0000
0100
0000
,  // measure 41
0001
0000
0001
0000
,  // measure 42
0000
0000
0000
0010
,  // measure 43
0000
0010
0000
0100
,  // measure 44
0000
0100
0000
1000
,  // measure 45
0000
1000
0000
0001
,  // measure 46
0000
0000
0000
0100
,  // measure 47
0000
0100
0000
0010
,  // measure 48
0000
0010
0000
1000
,  // measure 49
0000
1000
0000
0000
,  // measure 50
0001
0000
0001
0001
,  // measure 51
0000
0001
0000
0100
,  // measure 52
0000
0100
0000
0010
,  // measure 53
0000
0010
0000
1000
,  // measure 54
0000
0000
0000
0001
,  // measure 55
0000
0001
0000
1000
,  // measure 56
0000
1000
0000
0100
,  // measure 57
0000
0100
0000
0000
,  // measure 58
0100
0000
0100
0000
,  // measure 59
0001
0000
0001
0000
,  // measure 60
1000
0000
1000
0000
,  // measure 61
0001
0000
0001
0000
,  // measure 62
0100
0100
0100
0000
,  // measure 63
0001
0000
0001
0000
,  // measure 64
1000
0000
1000
0000
,  // measure 65
0001
0000
0001
0000
,  // measure 66
0100
0000
0100
0000
;

//---------------dance-double - ----------------
#NOTES:
     dance-double:
     :
     Hard:
     9:
     0.572,0.642,0.087,0.157,0.267:
00000000
00000000
00000000
00000000
,
00000000
00000000
00000000
00000000
,
00000000
00000000
00000000
00000000
,
00000000
00000000
00000000
00000000
,
20000000
00000000
00000000
31000000
00000000
00100000
00000000
00002000
,
00000000
00000000
00000000
00000000
00000000
00003000
00000000
00022000
,
00000000
00000000
00000000
00000000
00000000
00000000
00000000
00033000
,
00000000
00000000
00010000
00000000
00000100
00000000
00010000
00001000
00000000
00000000
01000000
00000000
00010000
00000000
00100000
00000000
,
00010000
01000000
10000000
01000000
00010000
00010000
00001000
00001000
,
00100000
10000000
01000000
10000000
00100000
00100000
00010000
00010000
,
00001000
00000010
00000001
00000010
00001000
00001000
00010000
00010000
,
00000000
00000000
00001000
00000000
00010000
00000000
00000100
00010000
00000000
00000000
00000010
00000000
00001000
00000000
00000100
00000000
,
00010000
01000000
10000000
01000000
00010000
00010000
00001000
00001000
,
00000100
00000010
00001000
00000010
00000100
00000100
00001000
00001000
,
00010000
00100000
10000000
00100000
00010000
00010000
00001000
00001000
,
00000000
00010000
00001000
00000100
00010000
00100000
00010000
01000000
,
00100000
00000000
00000000
00100000
00000000
00000000
00100000
00000000
01000000
00000000
00000000
01000000
00000000
00000000
01000000
00000000
,
00001000
00000000
00000000
00001000
00000000
00000000
00001000
00000000
00010000
00000000
00000000
00010000
00000000
00000000
00010000
00000000
,
00000010
00000000
00000000
00000010
00000000
00000000
00000010
00000000
00000100
00000000
00000000
00000100
00000000
00000000
00000100
00000000
,
00002000
00000100
00010000
00103000
,
00001000
00000000
00000000
00001000
01000000
00000000
00001000
00000000
00010000
00000000
00000000
00010000
00000100
00000000
00010000
00000000
,
00001000
00000000
00000000
00001000
00100000
00000000
00001000
00000000
00010000
00000000
00000000
00010000
00000010
00000000
00010000
00000000
,
00001000
00000000
00000000
00001000
01000000
00000000
00100000
00000000
01000000
00000000
00000000
01000000
00001000
00000000
00010000
00000000
,
00010100
00000000
00000000
00000000
00000000
00000000
00011000
00000000
00000000
00000000
00000000
00000000
01001000
00000000
00000000
00000000
00000000
00000000
01100000
00000000
00000000
00000000
00000000
00000000
20200000
30300000
00000000
00000000
00100000
00000000
00000000
00000000
,
01000000
00010000
00000000
01000000
00010000
00000000
00100000
00001000
00000000
00100000
00001000
00000000
00010000
00000000
00010000
00000000
,
00000100
00000000
00000100
00000000
00000010
00000000
00000000
00000001
00000000
00000000
00000100
00000000
00000000
00000000
00000010
00000000
,
00001000
00000100
00010000
00001000
00100000
00010000
01000000
01000000
,
00100000
00000000
00100000
00000000
10000000
00000000
00000000
00010000
00000000
00000000
10010000
00000000
00000000
00000000
10000000
00000000
,
01000000
00100000
00000000
01000000
00100000
00000000
00001000
00010000
00000000
00001000
00010000
00000000
00000100
00000000
00000100
00000000
,
00001000
00000000
00001000
00000000
00000010
00000000
00000000
00000100
00000000
00000000
00001000
00000000
00000000
00000000
00010000
00000000
,
00100000
10000000
01000000
00100000
00001000
00010000
00000100
00000100
,
00000010
00000001
00000000
00000010
00000001
00000000
00001000
00000100
,
00010000
00000000
00000000
00001000
00000000
00000000
00001000
00000000
01000000
00000000
00010000
00000000
00100000
00000000
01000000
00000000
,
10000000
00000000
00000000
01000000
00000000
00000000
01000000
00000000
00100000
00000000
00001000
00000000
00010000
00000000
00000100
00000000
,
00001000
00000000
00000000
00000010
00000000
00000000
00000010
00000000
00000100
00000000
00000001
00000000
00000010
00000000
00000100
00000000
,
00010000
00000000
00000000
00001000
00000000
00000000
00001000
00000000
01000000
00000000
10000000
00000000
01000000
00000000
00001000
00000000
,
00010000
00000000
00000100
00010000
00000000
00000000
00001000
00000000
01000000
00000000
00010000
00000000
00100000
00000000
01000000
00000000
,
10000000
00000000
01000000
00100000
00000000
00000000
00010000
00000000
01000000
00000000
00001000
00000000
00010000
00000000
00000100
00000000
,
00000010
00000000
00000100
00001000
00000000
00000000
00000100
00000000
00000010
00000000
00000001
00000000
00000100
00000000
00001000
00000000
,
00010000
00000000
00000100
00010000
00000000
00000000
00001000
00000000
01000000
00000000
00010000
00000000
00100000
00000000
01000000
00000000
,
10000000
00000000
01000000
00100000
00000000
00010000
00001000
00000000
00000100
00000000
00000010
00000000
00000002
00000000
00000000
00000000
,
00001000
00000000
00000000
00001000
00000000
00001000
00000000
00000000
00001003
00000000
00000000
00000000
00000001
00000000
00001000
00000000
,
00000001
00000000
00001000
00000000
00000100
00000000
00000000
00010000
00000000
00000000
00002000
00000000
00003000
00000000
01000000
00000000
,
00100000
00000000
00000000
00000000
10000000
00000000
00000000
01000000
00000000
00000000
00200000
00000000
00300000
00000000
00001000
00000000
,
00010000
00000000
00001000
00010000
00000000
00010000
00000100
00000000
00000010
00000000
00000001
00000000
00000100
00000000
00000010
00000000
,
00001000
00000100
00000000
00022000
00033000
00000000
00000000
00001000
,
01000000
00000000
00000000
00000000
00010000
00000000
00000000
00100000
00000000
00000000
01000000
00000000
00000000
01000000
10000000
00000000
,
01000000
00000000
00100000
00010000
00000000
00010000
01000000
00000000
00001000
00000000
00010000
00000000
00000100
00000000
00000010
00000000
,
00000001
00000000
00000100
00000010
00000000
00000010
00000100
00000000
00000001
00000000
00001000
00000000
00000000
00000000
00000001
00000000
,
00000010
00000100
00001000
00010000
00100000
01000000
10000000
00010000
,
10000000
00000000
00010000
00000000
01000000
00000000
00000000
00001000
00000000
00000000
00020000
00000000
00030000
00000000
00000100
00000000
,
00000010
00000000
00000000
00000000
00000001
00000000
00000000
00000100
00000000
00000000
00000020
00000000
00000030
00000000
00010000
00000000
,
00001000
00000000
00010000
00001000
00000000
00001000
01000000
00000000
00100000
00000000
10000000
00000000
01000000
00000000
00100000
00000000
,
00010000
01000000
00000000
00022000
00033000
00000000
00000000
00010000
,
00000100
00000000
00000000
00000000
00001000
00000000
00000000
00000010
00000000
00000000
00000100
00000000
00000000
00000100
00000001
00000000
,
00000100
00000000
00000010
00001000
00000000
00001000
00000100
00000000
00010000
00000000
00001000
00000000
01000000
00000000
00100000
00000000
,
10000000
00000000
01000000
00100000
00000000
00100000
01000000
00000000
10000000
00000000
00010000
00000000
00000000
00000000
10000000
00000000
,
01000000
00000000
00100000
01000000
00000000
00000000
10000000
00000000
00100000
00000000
00010000
00000000
00001000
00000000
01000000
00000000
,
00100000
01000000
00001000
00001000
00000100
00000100
00000010
00001000
,
00010000
00001000
00000010
00000010
00000100
00000100
00000001
00000100
,
00010000
00000100
00001000
00001000
00010000
00010000
00000000
00001000
,
01000000
00000000
00001000
00010000
00000000
00000000
00001000
00000000
00100000
00000000
01000000
00000000
10000000
00000000
01000000
00000000
,
00010000
01000000
00100000
00100000
00001000
00001000
00010000
00000010
,
00000100
00000010
00010000
00010000
01000000
01000000
00001000
00000100
,
00000001
00000100
00001000
00001000
00010000
00010000
00000000
10000000
,
00100000
01000000
00010000
00001000
00000010
00000202
00000000
00000000
,
00000000
00000000
00000000
00000303
;

//---------------dance-double - ----------------
#NOTES:
     dance-double:
     :
     Medium:
     6:
     0.447,0.409,0.140,0.184,0.026:
00000000
00000000
00000000
00000000
,
00000000
00000000
00000000
00000000
,
00000000
00000000
00000000
00000000
,
00000000
00000000
00000000
00000000
,
00000001
00000000
00000000
00000010
00000000
00000100
00000000
00000020
,
00000000
00000000
00000000
00000000
00000000
00000030
00000000
00002000
,
00000000
00000000
00000000
00000000
,
00003000
00010000
00001000
00010000
00000000
00001000
01000000
00001000
,
00100000
00000000
01100000
00000000
01000000
10000000
00010000
00000000
,
01000000
00000000
01001000
00000000
00001000
00010000
00000100
00000000
,
00001000
00000000
00001010
00000000
00000010
00000100
00000001
00000000
,
00000010
00000100
00001000
00000000
00000100
00001000
00000001
00000000
,
00000100
00000000
00000110
00000000
00000010
00010000
00001000
00000000
,
00010000
00000000
00011000
00000000
00001000
01000000
00010000
00000000
,
00100000
00000000
01100000
00000000
01000000
10000000
00010000
01000000
,
00000000
01000000
00010000
00000000
00010000
00100000
00001000
00000000
,
00020000
00000000
00030200
00000000
,
00000320
00000000
00000032
00000000
,
00000203
00000000
00000320
00000000
,
00001030
00000100
00010000
01000000
,
00200000
00000000
00000000
00010000
00320000
00000000
00000000
10000000
,
20030000
00000000
00000000
00100000
30200000
00000000
00000000
01000000
,
01300000
00000000
00000000
00010000
00000000
00000000
00010000
00000000
10000000
00000000
00000000
01000000
00000000
00000000
01000000
00000000
,
00100000
00000000
00000000
00000000
00000000
00000000
00010000
00000000
00000000
00000000
00000000
00000000
00100000
00000000
00000000
00000000
00000000
00000000
01000000
00000000
00000000
00000000
00000000
00000000
20000000
30000000
00000000
00000000
01000000
00000000
00000000
00000000
,
00100000
00000000
00100000
00010000
01000000
00000000
01000000
00001000
,
01000000
00001000
00010000
00000000
00010100
00000000
00000100
00000000
,
00001000
00000000
00000010
00000100
00000001
00000000
00000010
00000100
,
00001000
00000100
00000010
00000000
00000011
00000000
00000001
00000100
,
00000010
00000000
00000010
00001000
00000100
00000000
00000100
00010000
,
00000100
00010000
00001000
00000000
00101000
00000000
00100000
00010000
,
01000000
00000000
01000000
00100000
10000000
00000000
01000000
00100000
,
01000000
00100000
00000000
00100000
00001000
00000000
00010000
00000100
,
00001000
00000100
00000000
00001000
00000010
00000000
00000100
00000001
,
00000010
00000100
00000000
00000100
00001000
00000000
00000100
00010000
,
00001000
00010000
00000000
00001000
00100000
00000000
00100000
00010000
,
01000000
00100000
00000000
00100000
20000000
00000000
31000000
00100000
,
00001000
00010000
00000000
00001000
00010000
00000000
00000100
00010000
,
00000010
00001000
00000000
00000100
00000010
00000000
00000001
00000100
,
00000010
00000100
00000000
00000001
00001000
00000000
00000100
00010000
,
00001000
00010000
00000000
00001000
01000000
00000000
00010000
00100000
,
01000000
10000000
00000000
01000000
00010000
00002000
00000000
00000000
,
00010000
00000000
00000000
00010000
00000000
00010000
00000000
00000000
00013000
00000000
00000000
00000000
00001000
00000000
00001000
00000000
,
00001000
00001000
00010000
00000000
00000100
00000000
00001000
00000010
,
00000100
00000010
00000110
00000001
,
00000100
00000000
00001000
00000000
00010000
00000000
01000000
10000000
,
00010000
01000000
00000000
02200000
00000000
03300000
00000000
10000000
,
01000000
00000000
00100000
00000000
01000000
00000000
10000000
00010000
,
01000000
00000000
00001000
00010000
00000100
00000000
00001000
00000010
,
00001000
00000010
00000100
00000001
00000010
00000000
00000001
00000100
,
00001000
00000000
00010000
01000000
10000000
00000000
00010000
00010000
,
00010000
00010000
01000000
00000000
01001000
00000000
00001000
00010000
,
00000100
00000010
00000011
00000001
,
00000100
00000000
00001000
00000000
00010000
00000000
00100000
10000000
,
00010000
00100000
00000000
02200000
00000000
03300000
00000000
10000000
,
01000000
00000000
00100000
00000000
00001000
00000000
00010000
00000100
,
00010000
00000000
00000100
00001000
00000100
00000000
00001000
00000010
,
00000100
00000001
00000000
00000001
00000010
00000000
00000100
00010000
,
00001000
00000000
00010000
00000000
00011000
00000000
00001000
01000000
,
00100000
00000000
00100000
10000000
01000000
00000000
01000000
00100000
,
00001000
00000000
00001000
00010000
00000100
00000000
00000100
00001000
,
00000010
00000000
00000010
00000100
00000001
00000000
00000010
00000100
,
00000010
00000100
00010000
00001000
00010000
00000000
00001000
01000000
,
00010000
00000000
01000000
00010000
00100000
00000000
00100000
01000000
,
10000000
00000000
10000000
01000000
00010000
00000000
00010000
00001000
,
00010000
00000000
00010000
00000100
00010000
00001000
00000000
01000000
,
00010000
00000000
00100000
01000000
10000000
22000000
00000000
00000000
,
00000000
00000000
00000000
33000000
;

//---------------dance-double - ----------------
#NOTES:
     dance-double:
     :
     Easy:
     4:
     0.312,0.321,0.026,0.035,0.000:
00000000
00000000
00000000
00000000
,
00000000
00000000
00000000
00000000
,
00000000
00000000
00000000
00000000
,
00000000
00000000
00000000
00000000
,
00010000
00000000
00001000
00000000
,
01000000
00000000
00010000
00000000
,
20020000
00000000
00000000
00000000
,
30030000
10000000
01000000
00010000
,
00001000
00000000
00010000
00000000
00000100
00000100
00001000
00000000
,
00000010
00000000
00000100
00000000
00000001
00000001
00001000
00000000
,
00000100
00000000
00010000
00000000
00001000
00001000
01000000
00000000
,
00010000
00100000
01000000
10000000
,
00010000
00000000
01000000
00000000
00001000
00001000
00010000
00000000
,
00000100
00000000
00001000
00000000
00000010
00000010
00000100
00000000
,
00000001
00000000
00000100
00000000
00001000
00000000
00010000
00010000
,
00000000
00100000
10000000
10010000
,
00010000
00000000
01000000
00000000
,
00001000
00000000
00010000
00000000
,
00000100
00000000
00001000
00000000
,
00000010
00000010
00000100
00000100
,
00000001
00000010
00000001
00000010
,
00000100
00010000
00000100
00010000
,
00001000
00100000
00001000
00100000
,
00010000
01000000
00100000
01100000
,
10000000
00000000
10000000
01000000
,
00010000
00001000
00000100
00000001
,
00001000
00000000
00001000
00000010
,
00010000
00001000
01000000
00010000
,
00100000
00000000
00001000
00010000
,
00000100
00001000
00000010
00000100
,
00000001
00000000
00001000
00000100
,
00010000
00001000
01000000
00010000
,
00100000
00000000
01000000
00000000
10000000
00000000
00010000
01000000
,
00010000
00100000
00001000
00000000
,
00001000
00000000
00010000
00000000
00000100
00000000
00001000
00000001
,
00001000
00000010
00000100
00000001
,
00000010
00000000
00000100
00000000
00010000
00000000
00001000
01000000
,
00001000
00100000
00010000
00000000
,
00100000
01000000
10000000
01000000
,
00100000
00001000
00010000
00001000
,
00100000
00001000
00010000
00000100
,
00000020
00000000
00000000
00000000
00000030
00000000
00000100
00000100
,
00000100
00000010
00000001
00000100
,
00000010
00000000
00010000
00000000
00001000
00000000
01000000
00010000
,
01000000
00010000
10000000
01000000
,
00100000
00010000
00000000
00010000
00000000
00000000
00000000
00000000
,
10000000
01000000
00100000
00001000
,
00010000
00000000
00000100
00000000
00000010
00000000
00000001
00000001
,
00000001
00000000
00001000
00000000
00000010
00000000
00000000
00000100
,
00000010
00000000
00001000
00000000
00000100
00000000
00010000
00010000
,
00010000
00001000
01000000
00010000
,
00100000
00000000
01000000
00000000
10000000
00000000
00010000
01000000
,
00010000
10000000
01000000
00100000
,
00001000
00010000
00000000
00010000
00000000
00000000
00000000
00000000
,
00000100
00000000
00001000
00000000
00000010
00000000
00000100
00000001
,
00000100
00000000
00000010
00000000
00001000
00000000
00000100
00000100
,
00000100
00000000
00010000
00000000
00001000
00000000
00000000
00010000
,
00001000
00000000
01000000
00000000
00010000
00000000
00100000
01000000
,
00100000
00001000
00010000
00000100
,
00001000
00000000
00000010
00000000
00000100
00000000
00000001
00000010
,
00000001
00000100
00000010
00000000
,
00000010
00000000
00001000
00000000
00000100
00000000
00010000
00001000
,
00010000
00001000
01000000
00010000
,
00100000
00000000
01000000
00000000
10000000
00000000
00100000
01000000
,
00100000
00000000
10000000
00000000
01000000
00100000
00000000
00100000
,
00001000
00000000
00010000
00000000
00001000
00020000
00000000
00000000
,
00000000
00000000
00000000
00030000
;
