#TITLE:anemone;
#SUBTITLE:;
#ARTIST:S-C-U feat. Qrispy Joybox;
#TITLETRANSLIT:;
#SUBTITLETRANSLIT:;
#ARTISTTRANSLIT:;
#CREDIT:;
#BANNER:anemone.png;
#BACKGROUND:anemone-bg.png;
#LYRICSPATH:;
#CDTITLE:;
#MUSIC:anemone.ogg;
#OFFSET:-1.015;
#SAMPLESTART:0.030;
#SAMPLELENGTH:12.000;
#SELECTABLE:YES;
#BPMS:0.000=200.000,112.000=100.000,120.000=200.000,184.000=100.000,200.000=200.000;
#STOPS:200.000=0.910
;
#BGCHANGES:;

//---------------dance-single - ----------------
#NOTES:
     dance-single:
     :
     Hard:
     9:
     0.664,0.758,0.525,0.050,0.129: // measure 1
0000
0000
0000
0000
,  // measure 2
0000
0000
0000
0000
,  // measure 3
0000
0000
0000
0000
,  // measure 4
0000
0000
0000
0000
,  // measure 5
0000
0000
0000
0000
,  // measure 6
0000
0000
0000
0000
,  // measure 7
1000
0100
0010
0001
0000
0000
1000
0010
,  // measure 8
0100
0001
0000
0100
0010
1000
0001
0000
,  // measure 9
0100
0010
0100
0000
0010
0100
0000
1001
,  // measure 10
0000
1000
0001
1000
0000
0001
1000
0010
,  // measure 11
0100
0001
0010
0000
0001
1000
0001
0010
,  // measure 12
0000
0010
0001
1000
0000
0010
1000
0100
,  // measure 13
0010
0010
0001
1000
0000
0110
0000
1001
,  // measure 14
0000
0001
0100
0000
1010
0000
1010
0000
,  // measure 15
0001
0100
0010
1000
0000
0000
0100
0010
,  // measure 16
0001
1000
0000
1000
0001
0010
0100
0000
,  // measure 17
1001
0000
1000
0000
2100
0000
3000
0100
,  // measure 18
0000
0010
0000
0001
0000
0001
0100
0001
,  // measure 19
0010
0100
1000
0000
1002
0000
0003
0100
,  // measure 20
0000
0010
0000
1000
0100
0010
0001
1000
,  // measure 21
0100
0000
1000
0000
0012
0000
0000
1003
,  // measure 22
0000
0010
0000
1000
0000
0100
0000
0000
,  // measure 23
0010
0001
0010
0000
0001
1000
0000
1000
,  // measure 24
0100
0000
0100
0010
0000
0010
0001
0000
,  // measure 25
1000
0000
0100
0000
0021
0000
0000
0031
,  // measure 26
0000
0010
0000
0010
0100
0010
0001
0010
,  // measure 27
0100
0000
0100
0000
2010
0000
0000
3100
,  // measure 28
0000
0010
0000
0100
0000
1000
0010
0100
,  // measure 29
0110
0001
0100
1000
0100
0001
0100
0010
,  // measure 30
1001
1010
1100
0101
,  // measure 31
0110
0000
1000
0010
1000
0010
0000
0110
,  // measure 32
0000
0110
0000
0110
0000
0001
0010
0100
,  // measure 33
1000
0000
0001
0100
0010
1000
0000
1100
,  // measure 34
0000
1100
0000
1100
0000
0100
0010
0100
,  // measure 35
1000
0000
0001
1000
0001
0010
0000
0011
,  // measure 36
0000
0110
0000
1100
0000
1000
0001
0100
,  // measure 37
0010
0000
0100
0001
0010
0100
0000
1010
,  // measure 38
0000
1100
0000
0101
0000
0001
0100
0010
,  // measure 39
0100
0001
0100
0000
0001
0000
0010
0000
0100
0010
0100
0000
0010
0000
0001
0000
,  // measure 40
0100
0001
0100
0000
0001
0000
1000
0000
0100
1000
0100
0000
1000
0000
0010
0000
,  // measure 41
0100
0001
0100
0000
0010
0000
1000
0000
0010
0100
0010
0000
0100
0000
0001
0000
,  // measure 42
0010
0001
0010
0000
0100
0000
1000
0000
0001
0100
0001
0000
0010
0000
0100
0000
,  // measure 43
0010
0001
1000
0000
0010
0000
0100
0000
0010
1000
0001
0000
0010
0000
0100
0000
,  // measure 44
0010
0001
0100
0000
0010
0000
1000
0010
0100
0000
0001
0000
1000
0000
0100
0000
,  // measure 45
0010
0001
1000
0010
0000
1001
0000
0011
,  // measure 46
0000
0001
0100
0010
0100
0001
0100
0010
,  // measure 47
0100
0000
0000
0110
0000
0000
0100
0000
0000
1010
0000
0000
0011
0000
0000
1000
,  // measure 48
0100
0000
1000
0010
0000
0100
0001
0000
0001
1000
0000
1010
0000
0000
0010
0000
,  // measure 49
0110
0000
0000
1000
0000
0000
0101
0000
0000
0100
0000
0000
0011
0000
0000
0001
,  // measure 50
0010
0000
0010
0100
0000
0100
1000
0000
1000
0010
0000
0010
1000
0000
0010
0000
,  // measure 51
1010
0000
1000
0010
1000
0000
0001
1000
,  // measure 52
0000
1001
0000
1000
0010
1000
0000
0001
,  // measure 53
0010
0100
1000
0001
1000
0000
0010
1000
,  // measure 54
0001
0010
0000
0010
0001
1000
0000
1000
,  // measure 55
0010
1000
0100
0010
0100
1000
0000
0101
,  // measure 56
0000
1010
0000
0010
0110
0000
0011
0000
,  // measure 57
1100
0000
1000
1000
0100
0100
0000
0000
,  // measure 58
0010
0010
0100
0100
0000
1000
1000
0100
,  // measure 59
0010
0000
0001
0010
0100
0000
1000
0010
,  // measure 60
0000
0110
0000
0010
1000
1010
0000
1000
,  // measure 61
0100
0010
0001
0001
0100
0000
0100
0001
,  // measure 62
0100
0001
0000
0010
0100
0010
0000
0001
,  // measure 63
1000
0001
0010
0010
0100
0100
0000
1100
,  // measure 64
0000
0101
0000
0001
0011
0000
1010
0000
,  // measure 65
1100
0000
0001
0001
1000
1000
0000
0000
,  // measure 66
1000
1000
0001
0001
0000
0001
1000
0001
,  // measure 67
1000
0000
0001
0001
0100
0100
0000
0000
,  // measure 68
0010
0010
1000
1000
0000
0001
0010
0100
,  // measure 69
1000
0000
1000
1000
0010
0010
0000
0000
,  // measure 70
0100
0100
0001
0001
0000
1000
0010
1000
,  // measure 71
0010
0000
1000
1000
0100
1000
0000
0000
,  // measure 72
0001
0001
0100
0001
0000
0000
0100
0100
,  // measure 73
0001
0100
0000
0000
0010
0100
0010
0110
;

//---------------dance-single - ----------------
#NOTES:
     dance-single:
     :
     Medium:
     7:
     0.452,0.469,0.079,0.050,0.000:
0000
0000
0000
0000
,
0000
0000
0000
0000
,
0000
0000
0000
0000
,
0000
0000
0000
0000
,
0000
0000
0000
0000
,
0000
0000
0000
0000
,
1000
0000
0100
0010
0000
0000
0010
0000
,
0001
1000
0000
0001
0010
1000
0000
0000
,
1000
0000
0010
0000
0001
1000
0000
1001
,
0000
1000
0000
0010
0000
1000
0010
1000
,
0010
1000
0001
0100
,
0010
0000
1000
0010
0000
1000
0010
1000
,
0100
0000
0001
1000
0001
0000
1000
0010
,
1000
0010
1000
0000
0001
0100
0001
0000
,
1000
0000
0010
1000
0000
0000
0010
0000
,
1000
0010
0000
0001
0010
0100
1000
0000
,
1000
0000
0020
0000
1030
0000
0000
1000
,
0000
0100
0000
0010
0000
0001
0100
0001
,
0000
0000
2000
0000
3010
0000
0000
1000
,
0000
0010
0000
0001
0010
0001
0000
0001
,
1000
0001
2000
0000
3010
0000
0000
0001
,
0000
0001
0000
0100
0000
0100
0001
0100
,
0001
0100
0010
0000
0010
0100
0000
0100
,
0001
0000
0001
1000
0000
0000
0000
0000
,
1000
0000
0002
0000
1003
0000
0000
0010
,
0000
0100
0000
1000
0100
1000
0000
1000
,
0010
1000
0020
0000
0130
0000
0000
0001
,
0000
0010
0000
0100
0000
1000
0100
0010
,
1010
0000
0000
0000
,
1001
1001
0110
0110
,
1000
0001
1000
0001
,
1000
0000
0010
0000
1000
0000
0010
1000
,
0010
0100
0001
0100
,
0001
0000
0001
0000
0010
0000
0100
0010
,
0001
0010
0100
1000
,
1000
0000
0100
0000
1000
0000
0001
1000
,
0100
0010
0001
0001
,
0010
0000
0001
0000
1000
0000
0100
1000
,
0100
0010
0100
0000
0100
1000
0100
0000
,
1000
0010
1000
0000
1000
0001
1000
0000
,
0010
0001
0010
0000
0010
0100
0010
0000
,
1000
0001
1000
0000
0010
1000
0010
0000
,
0100
0001
0100
0000
0010
0100
0010
0000
,
1000
0100
1000
0000
0010
0100
0010
0000
,
0001
0010
0001
0010
0000
1001
0000
1000
,
0000
0100
0000
0010
0000
0001
0000
1000
,
1100
0000
0000
0000
,
0000
0000
0000
0000
,
0000
0000
0000
0000
,
0000
0000
0000
0000
,
0000
1000
0100
0010
,
0001
1000
0010
0100
,
0010
1000
0001
0010
,
0100
1000
0001
1000
,
0010
1000
0001
0010
,
1000
0010
0001
0010
,
0001
0000
1000
0100
1000
0100
0000
0000
,
0001
0010
0001
0010
0000
0010
0100
0010
,
0100
1000
0100
1000
,
0100
0010
0001
0010
,
0001
0010
0100
1000
,
0100
0010
0001
0010
,
0001
0010
0100
1000
,
0100
0010
0100
1000
,
0100
0000
0010
0100
0010
0100
0000
0000
,
0100
1000
0100
1000
0000
0001
1000
0001
,
1000
0000
0010
1000
0010
1000
0000
0000
,
0100
0001
0100
0001
0000
0010
0100
0010
,
0100
0000
0001
0010
0100
1000
0000
0000
,
1000
0100
0010
0001
0000
0010
1000
0010
,
1000
0000
1000
0010
0100
0001
0000
0000
,
0001
0100
0010
1000
0000
0000
1000
0001
,
0010
0100
0000
0000
0100
0010
0001
1000
;

//---------------dance-single - ----------------
#NOTES:
     dance-single:
     :
     Easy:
     5:
     0.364,0.469,0.000,0.000,0.000:
0000
0000
0000
0000
,
0000
0000
0000
0000
,
0000
0000
0000
0000
,
0000
0000
0000
0000
,
0000
0000
0000
0000
,
0000
0000
0000
0000
,
1000
0010
0000
0001
,
1000
0000
0000
0100
0000
0010
0000
0000
,
1000
0100
1000
0100
,
0010
0001
0010
0001
,
1000
0100
0010
0001
,
1000
0010
0100
0001
,
0010
0001
1000
0010
,
1000
0001
0100
0001
,
0010
0001
0000
1000
,
0001
0000
0000
0010
0000
0001
0000
0000
,
1000
0001
1000
0010
,
0100
0010
0001
0100
,
0010
0100
0010
0100
,
1000
0100
1000
0100
,
0010
0100
0010
0001
,
0010
0001
0010
0100
,
0010
0100
1000
0100
,
0010
0100
0010
1000
,
0010
1000
0010
1000
,
0010
1000
0010
0100
,
0001
0100
0001
0100
,
0001
0100
0001
0100
,
0001
0010
0001
0010
0001
0010
0001
0010
,
0001
0010
0100
1000
,
0001
0010
0001
0010
,
0100
1000
0100
1000
,
0001
1000
0001
1000
,
0010
1000
0010
1000
,
0100
1000
0001
0100
,
0001
1000
0100
1000
,
0010
0100
0010
0001
,
1000
0010
1000
0010
,
0100
0010
0100
0000
0100
1000
0100
0000
,
0100
0001
0100
0000
0001
0010
0001
0000
,
0001
0100
0001
0000
0001
1000
0001
0000
,
1000
0100
1000
0000
1000
0010
1000
0000
,
1000
0001
1000
0000
0010
1000
0010
0000
,
0100
0001
0100
0000
0001
0010
0001
0000
,
1000
0100
1000
0000
0100
0010
0100
0000
,
0010
0001
0010
0000
0010
0100
0010
0000
,
1000
0000
0000
0000
,
0000
0000
0000
0000
,
0000
0000
0000
0000
,
0000
0000
0000
0000
,
0000
1000
0100
1000
,
0100
0010
0001
0010
,
0100
1000
0001
0100
,
0010
1000
0010
1000
,
0010
0100
0010
0100
,
0010
0001
0010
0100
,
1000
0001
1000
0000
,
1000
0000
0010
0000
0000
1000
0000
0010
,
0000
0001
0010
0100
,
1000
0001
0010
0100
,
1000
0001
0100
0010
,
1000
0001
0100
0010
,
1000
0001
0010
0100
,
1000
0100
1000
0010
,
0100
0010
0001
0000
,
1000
0000
0010
0000
0000
0100
0000
0001
,
0000
0010
0100
0000
,
0001
0000
0010
0000
0000
0100
0000
1000
,
0000
0100
0010
0000
,
0010
0000
1000
0000
0000
0001
0000
0100
,
0000
0100
0010
0000
,
0001
0010
0000
1000
,
0001
0000
0010
0100
;

//---------------dance-single - ----------------
#NOTES:
     dance-single:
     :
     Beginner:
     2:
     0.086,0.216,0.020,0.000,0.000:
0000
0000
0000
0000
,
0000
0000
0000
0000
,
0000
0000
0000
0000
,
0000
0000
0000
0000
,
0000
0000
0000
0000
,
0000
0000
0000
0000
,
1000
0000
0000
0010
,
0000
0000
0000
1000
0000
0000
0000
0000
,
0001
0000
0000
0000
,
0000
0000
0000
0000
,
1000
0000
0000
0000
,
0000
0000
0000
0000
,
0100
0000
0000
0000
,
0000
0000
0000
0000
,
0010
0000
0000
1000
,
0000
0000
0000
0010
0000
0000
0000
0000
,
0000
1000
0000
0000
,
0000
0000
0000
0000
,
0000
0010
0000
0000
,
0000
0000
0000
0000
,
0000
0001
0000
0000
,
0000
0000
0000
0000
,
0000
0100
0000
0000
,
0000
0000
0000
0000
,
0000
1000
0000
0000
,
0000
0000
0000
0000
,
0000
0001
0000
0000
,
0000
0000
0000
0000
,
1001
0000
0000
0000
,
1000
0000
1010
0000
,
0010
0000
0000
0000
,
0000
0000
0000
0000
,
1000
0000
0000
0000
,
0000
0000
0000
0000
,
0001
0000
0000
0000
,
0000
0000
0000
0000
,
0100
0000
0000
0000
,
0000
0000
0000
0000
,
0010
0000
0000
0000
,
0000
0000
0000
0000
,
1000
0000
0000
0000
,
0000
0000
0000
0000
,
0001
0000
0000
0000
,
0000
0000
0000
0000
,
0010
0000
0000
0000
,
0000
0000
0000
0000
,
0100
0000
0000
0000
,
0001
0000
0000
0000
,
1000
0000
0000
0000
,
0100
0000
0000
0000
,
0010
1000
0000
0000
,
0000
0010
0000
0000
,
0000
1000
0000
0000
,
0000
0001
0000
0000
,
0000
0010
0000
0000
,
0000
0100
0000
0000
,
0000
1000
0000
0000
,
0010
0000
0000
0000
0000
1000
0000
0000
,
0000
0010
0000
0000
,
0000
0001
0000
0000
,
0000
0100
0000
0000
,
0000
0010
0000
0000
,
0000
0100
0000
0000
,
0000
1000
0000
0000
,
0000
0001
0000
0000
,
1000
0000
0000
0000
0000
0100
0000
0000
,
0000
0010
0000
0000
,
1000
0000
0000
0000
0000
0001
0000
0000
,
0000
0001
0000
0000
,
0100
0000
0000
0000
0000
1000
0000
0000
,
0000
0100
0000
0000
,
0001
0000
0000
0010
,
0000
0000
1000
0000
;
