#VERSION:0.81;
#TITLE:Valanga;
#SUBTITLE:;
#ARTIST:DJ TOTTO;
#TITLETRANSLIT:;
#SUBTITLETRANSLIT:;
#ARTISTTRANSLIT:;
#GENRE:;
#ORIGIN:;
#CREDIT:;
#BANNER:Valanga.png;
#BACKGROUND:Valanga-bg.png;
#PREVIEWVID:;
#JACKET:Valanga-jacket.png;
#CDIMAGE:;
#DISCIMAGE:;
#LYRICSPATH:;
#CDTITLE:;
#MUSIC:Valanga.ogg;
#OFFSET:-0.023;
#SAMPLESTART:20.623;
#SAMPLELENGTH:11.694;
#SELECTABLE:YES;
#BPMS:0.000=46.500,
8.000=93.000,
23.500=186.000,
136.000=46.500,
137.875=186.000,
265.500=46.500;
#STOPS:23.500=0.161,
88.000=0.081,
88.250=0.242,
88.500=0.081,
88.750=0.242,
89.000=0.081,
89.250=0.242,
89.500=0.081,
89.750=0.242,
92.000=0.081,
92.250=0.242,
92.500=0.081,
92.750=0.242,
93.000=0.081,
93.250=0.242,
93.500=0.081,
93.750=0.242,
96.000=0.081,
96.250=0.242,
96.500=0.081,
96.750=0.242,
97.000=0.081,
97.250=0.242,
97.500=0.081,
97.750=0.242,
100.000=0.081,
100.250=0.242,
100.500=0.081,
100.750=0.242,
101.000=0.081,
101.250=0.242,
101.500=0.081,
101.750=0.242,
137.875=0.121;
#DELAYS:;
#WARPS:;
#TIMESIGNATURES:0.000=1=4,
8.000=2=4,
24.000=4=4,
88.000=2=4,
104.000=4=4,
136.000=1=4,
138.000=4=4;
#TICKCOUNTS:0.000=4;
#COMBOS:0.000=1;
#SPEEDS:0.000=1.000=0.000=0;
#SCROLLS:0.000=1.000;
#FAKES:;
#LABELS:0.000=Song Start;
#BGCHANGES:;
#KEYSOUNDS:;
#ATTACKS:
;

//---------------dance-single - ----------------
#NOTEDATA:;
#CHARTNAME:;
#STEPSTYPE:dance-single;
#DESCRIPTION:;
#CHARTSTYLE:;
#DIFFICULTY:Hard;
#METER:9;
#RADARVALUES:0.699,0.751,0.094,0.394,0.279,514.000,11.000,46.000,0.000,0.000,0.000,0.000,0.000,0.699,0.751,0.094,0.394,0.279,514.000,11.000,46.000,0.000,0.000,0.000,0.000,0.000;
#CREDIT:;
#NOTES:
0000
0000
0000
0000
,
0000
0000
0000
0000
,
0001
0000
0000
0100
0000
0010
0100
0000
0000
0010
0100
0000
0010
1000
0100
0000
,
0010
0000
0000
0001
0000
0010
0001
0000
0000
0010
0001
0000
1000
0001
0000
0000
,
0100
0000
0000
0010
0000
1000
0001
0000
0000
0010
0100
0000
1000
0001
0100
0010
,
1000
0001
0010
0100
1000
0010
0100
0001
1000
0001
1000
0001
1000
0001
1000
0000
,
0001
0100
0010
0000
1000
0100
0001
0000
,
0100
1000
0010
0000
0100
0001
0010
0100
,
1000
0010
0100
0000
0010
1000
0010
0000
,
1000
0000
0100
0000
0010
0000
0000
0000
0001
0100
0001
0000
0001
1000
0001
0000
,
0010
0100
1000
0000
1000
0010
0100
0000
,
0100
0010
1000
0000
1000
0010
0100
0001
,
0010
0001
0100
0001
0010
0100
0001
0100
,
1000
0000
0010
0000
0100
0000
0010
0000
1000
0000
0001
0000
0100
0010
0100
0010
,
0100
0000
0001
0000
0010
0000
0100
0000
1000
0000
0010
0000
0100
0000
0010
1000
,
0010
0100
0010
1000
0100
0010
0001
0100
,
0001
0000
0010
0000
0001
0000
0010
0000
0100
0000
1000
0000
0001
0000
0010
0100
,
0010
0100
0001
0100
1000
0010
0100
0001
,
0100
0010
1000
0010
0100
0010
1000
0100
,
0010
0100
1000
0100
0010
0100
1000
0100
,
0010
0001
0100
0001
0010
0001
0100
0010
,
0001
0010
1000
0001
0100
0010
1000
0001
,
1000
1000
0010
0010
0100
0100
0001
0001
0010
0000
0100
0000
1000
0000
0010
0000
,
0100
0000
0000
0100
0000
0000
0010
0000
0000
0010
0000
0000
1000
0000
0000
1000
0000
0000
0001
0000
0000
0001
0000
0000
1000
0000
0000
0000
0001
0000
0000
0000
1000
0000
0000
0000
0001
0000
0000
0000
1000
0000
0000
0000
0001
0000
0000
0000
,
0010
0010
0100
0100
1000
1000
0001
0001
0100
0000
1000
0000
0100
0000
0001
0000
,
1000
1000
0100
0100
0010
0010
0001
0001
0100
0000
0010
0000
0100
0000
0010
0000
,
0100
0010
1000
0100
0010
0100
1000
0010
,
0100
0001
0010
0002
0100
0100
0100
0103
,
0010
1000
0010
0100
0001
1000
0100
0010
,
0001
0000
0000
0100
0000
0000
0010
0000
0000
1000
0000
0000
0100
0000
1000
0000
0100
0000
1000
0000
0100
0000
1000
0000
,
0100
0010
0001
0100
0010
0001
0010
1000
,
0100
0001
1000
0020
0001
0001
0001
0031
,
1000
0100
1000
0010
0100
0010
1000
0100
,
0010
0001
0100
0010
1000
0001
1000
0001
,
1000
0000
0000
0000
0000
0000
0000
0000
0000
0000
0000
0000
0000
0000
0000
0000
0000
0000
0000
0000
0000
0000
0001
1000
0001
0000
1000
0000
0001
0000
1000
0000
0002
0000
0000
0000
0000
0000
0000
0000
0000
0000
0000
0000
0000
0000
0000
0000
0203
0000
0000
0000
0000
0000
0000
0000
0000
0000
0000
0000
0000
0000
0000
0000
,
0310
1000
0010
0002
0000
0023
0000
1030
,
0100
0000
0010
0000
0001
0000
1000
0000
0200
0000
0000
0320
0000
0000
0230
0000
,
0000
2300
0000
0000
3010
0000
0100
0000
0010
0000
1000
0000
0001
0000
0010
0000
,
0001
0000
0010
0000
0100
0000
1000
0100
1000
0000
0010
0000
0100
0000
0010
0000
,
1000
0001
0010
0200
0000
2300
0000
3020
,
0230
0000
0300
0002
0000
0000
0023
0000
0130
0000
1000
0000
0010
0000
0100
0000
,
0002
0000
0000
0023
0000
0000
0230
0000
1300
0000
0100
0000
0010
0000
0001
0000
,
0100
0000
0010
0100
0010
0000
1000
0000
0001
0000
1000
0001
1000
0000
0001
0000
,
0010
0100
1000
0020
0000
0230
0000
0310
,
0100
0000
1000
0000
0100
0000
0001
0000
0020
0000
0000
0032
0000
0000
0023
0000
,
0000
0230
0000
0000
0320
0000
0032
0000
2003
0000
0000
0000
3010
0000
0100
0001
,
0100
0001
1000
0001
2000
0000
3020
0000
,
0130
0010
0100
0002
0000
0023
0000
0031
,
0010
0001
0200
0000
0310
1000
0001
0200
,
0000
0000
0000
0300
0101
0000
1001
0000
,
0001
1000
0100
0010
0001
0100
0001
0100
,
0001
1000
0001
1000
0100
1000
0100
1000
,
0010
1000
0001
0100
0010
1000
0010
1000
,
0001
1000
0001
1000
0001
0010
0001
0010
,
0100
1000
0001
0100
0010
0001
0010
1000
,
0010
0001
0010
1000
0100
0001
0100
1000
,
0100
0001
0100
1000
0001
0010
0001
0010
,
0001
0100
0001
0100
0010
1000
0100
0010
,
1000
0010
0001
1000
0010
0010
0020
0000
,
0100
0100
0230
0000
0001
0001
0302
0000
,
0013
0020
0031
0002
1003
1000
2000
0000
,
0001
0001
3002
0000
0010
0010
0023
0000
,
0100
0230
1300
2000
3001
1000
0001
1000
,
0001
1000
0001
1000
0010
0100
0010
0100
,
0010
0100
0010
1000
1001
1001
0000
1001
,
1001
0000
1001
1001
0000
1001
1001
0000
,
0010
0100
0010
0220
0000
0000
0000
0000
,
0000
0000
0000
0330
0000
0000
0000
0000
;

//---------------dance-single - ----------------
#NOTEDATA:;
#CHARTNAME:;
#STEPSTYPE:dance-single;
#DESCRIPTION:;
#CHARTSTYLE:;
#DIFFICULTY:Challenge;
#METER:10;
#RADARVALUES:0.806,1.000,0.266,0.017,0.561,625.000,31.000,2.000,0.000,0.000,0.000,0.000,0.000,0.806,1.000,0.266,0.017,0.561,625.000,31.000,2.000,0.000,0.000,0.000,0.000,0.000;
#CREDIT:;
#NOTES:
// measure 0
0000
0000
0000
0000
,  // measure 1
0000
0000
0000
0000
,  // measure 2
1000
0010
0010
0100
0001
0001
0010
0100
0100
1000
0010
0010
1000
0010
0100
0001
,  // measure 3
0010
1000
1000
0010
0001
0001
0100
0010
0010
1000
0100
0100
1000
0100
0010
0001
,  // measure 4
0100
0001
0100
0010
0100
0010
1000
0010
1000
0100
1000
0100
0010
0100
1000
0010
,  // measure 5
0100
0000
0001
0000
0010
0000
0100
0000
1000
0000
0010
0000
0100
0000
0001
0000
1000
0001
1000
0001
1000
0001
1000
0001
1000
0001
1000
0001
1000
0000
0000
0000
,  // measure 6
0001
0000
0100
0000
0010
0000
1000
0010
1000
0000
0100
0000
0010
0000
0100
1000
,  // measure 7
0100
0000
0010
0000
0001
0000
0100
0001
0100
0000
0001
0000
0010
0001
0010
0001
,  // measure 8
1000
0000
0010
0000
0100
0000
0001
1000
0001
0000
1000
0000
0001
0000
0100
0010
,  // measure 9
0100
0000
0010
0000
1000
0000
0100
0000
1000
0001
1000
0000
0001
1000
0001
0000
,  // measure 10
0010
0000
0001
0010
0001
0000
0100
0000
0010
0000
1000
0010
1000
0000
0010
0000
,  // measure 11
0100
0000
0010
1000
0010
0000
1000
0000
0100
0000
0010
0000
0001
0000
0100
0000
,  // measure 12
0010
1000
0010
0001
0010
1000
0100
0001
,  // measure 13
0100
0000
1000
0000
0010
0000
0100
0000
0001
0000
0010
0000
0100
1000
0100
1000
,  // measure 14
0100
0000
0001
0000
0100
0000
1000
0000
0010
0000
0100
0000
0010
0000
1000
0001
,  // measure 15
1000
0001
0100
1000
0100
0001
0010
0100
,  // measure 16
0010
0000
0001
0000
0100
0000
0010
0000
1000
0000
0100
0000
1000
0000
0010
1000
,  // measure 17
0010
0100
1000
0100
0001
0100
0010
0100
,  // measure 18
0001
0000
0010
0000
0100
0000
1000
0000
0010
0000
0100
0000
0001
0000
1000
0100
,  // measure 19
1000
0001
0100
0010
0001
0010
1000
0001
,  // measure 20
0100
0010
0100
0001
0010
0100
0010
0001
,  // measure 21
1000
0000
0010
0000
0100
0000
0001
0000
1000
0001
1000
0001
1000
0001
1000
0001
,  // measure 22
1000
1001
0001
0101
0100
0110
0010
1010
1000
0010
1000
0010
1000
0010
1000
0010
,  // measure 23
1000
0000
0000
1010
0000
0000
1000
0000
0000
1001
0000
0000
0001
0000
0000
0011
0000
0000
0010
0000
0000
0110
0000
0000
0100
0000
0000
0000
1000
0000
0000
0000
0100
0000
0000
0000
1000
0000
0000
0000
0100
0000
0000
0000
1000
0000
0000
0000
,  // measure 24
0100
1100
1000
1010
0010
0110
0100
0110
0010
0100
0010
0100
0010
0100
0010
0100
,  // measure 25
0010
0110
0100
0101
0001
1001
1000
1001
0001
1000
0001
1000
0001
1000
0001
1000
,  // measure 26
0001
0001
0100
0010
0010
1000
0100
0100
,  // measure 27
1000
0000
0001
0000
0001
0000
0010
0000
0100
1000
0100
1000
0100
1000
0100
1000
,  // measure 28
0100
0100
0010
0001
0001
1000
0010
0010
,  // measure 29
0100
0000
0000
0001
0000
0000
0001
0000
0000
0100
0000
0000
0001
0000
0100
0000
0001
0000
0100
0000
0001
0000
0100
0000
,  // measure 30
0001
0001
1000
0100
0100
1000
0010
0010
,  // measure 31
0100
0001
0001
0100
0001
0010
0100
1000
,  // measure 32
0010
0100
0001
1000
0100
0010
0001
1000
,  // measure 33
0010
0100
1000
0100
0001
1000
0001
1000
,  // measure 34
0001
0000
0000
0000
0000
0000
0000
0000
0000
0000
0000
0000
0000
0000
0000
0000
0000
0000
0000
0000
0000
0000
1000
0001
1000
0000
0001
0000
1000
0000
0001
0000
1000
0000
0000
0000
0000
0000
0000
0000
0010
0000
0000
0000
0000
0000
0000
0000
0100
0000
0000
0000
0000
0000
0000
0000
0001
0000
0000
0000
0000
0000
0000
0000
,  // measure 35
0010
0000
0100
0000
0010
0000
0001
0010
0001
0000
0100
0000
0010
0000
1000
0000
,  // measure 36
0001
0000
0100
0000
0010
0000
0100
0000
0001
0010
0000
0010
0100
0000
0100
1000
,  // measure 37
0000
1000
0001
0000
1000
0000
0010
0000
0100
0000
1000
0000
0100
0000
0001
0100
,  // measure 38
0001
0000
0010
0000
0100
0000
1000
0100
1000
0000
0010
0000
0100
0000
1000
0000
,  // measure 39
0100
0000
0001
0000
0010
0000
0100
1000
0100
0000
1000
0000
0010
0000
1000
0000
,  // measure 40
0100
0010
0001
0100
0010
0100
0001
0100
,  // measure 41
0010
0000
0100
0000
0001
0000
1000
0100
1000
0000
0010
0000
1000
0000
0001
1000
,  // measure 42
0001
0000
0100
0010
0100
0000
0001
0100
0001
0000
0100
0010
0100
0000
0010
1000
,  // measure 43
0010
0000
1000
0000
0001
0000
1000
0000
0000
0000
0100
0000
0000
0000
0010
0001
,  // measure 44
0010
0000
0001
0000
0100
0000
0010
0000
1000
0100
0000
0100
0010
0000
0010
0001
,  // measure 45
0000
0001
0100
0000
0010
0000
1000
0000
0001
0000
0100
0000
0010
0000
1000
0100
,  // measure 46
1000
0000
0010
0000
0100
0000
0001
1000
0001
0000
0010
0000
0100
0000
1000
0000
,  // measure 47
0010
0000
0100
0010
0100
0000
0001
1000
0010
0000
1000
0000
0100
0000
0010
0001
,  // measure 48
0010
0001
1000
0010
0100
0001
0010
0100
,  // measure 49
0010
0001
0100
0010
1000
0100
1000
0010
,  // measure 50
1000
0000
0100
0000
1000
0001
1000
0001
1000
0000
0010
0000
1000
0000
0010
0000
,  // measure 51
0100
0010
0100
0010
0100
0001
0100
0001
,  // measure 52
0010
1000
0010
0001
1000
0100
1000
0100
,  // measure 53
0010
0100
0010
0100
0010
0001
0010
0001
,  // measure 54
0100
1000
0100
0001
0010
0100
0010
0100
,  // measure 55
1000
0001
1000
0001
0100
0010
0100
0010
,  // measure 56
1000
0100
0010
0001
1000
0010
1000
0100
,  // measure 57
0010
0001
0100
1000
0100
0001
0010
1000
,  // measure 58
0010
0001
1000
0001
1000
0010
1010
0000
,  // measure 59
0001
0010
0011
0000
0010
0100
0110
0000
,  // measure 60
0100
1000
0010
1000
0100
0010
0011
0000
,  // measure 61
0001
0100
0110
0000
0001
0100
0101
0000
,  // measure 62
0001
0010
0100
1000
0010
0100
0010
0100
,  // measure 63
0001
0000
0100
0000
0001
0000
0100
0001
0010
0000
0001
0000
0010
0000
0001
0000
,  // measure 64
1000
0000
0001
0000
1000
0001
1000
0000
0101
0000
0101
0000
0000
0000
1010
0000
,  // measure 65
1010
0000
1100
1100
0000
0110
0110
0000
,  // measure 66
0010
0001
0100
2002
0000
0000
0000
0000
,  // measure 67
0000
0000
0000
3003
0000
0000
0000
0000
;

//---------------dance-single - ----------------
#NOTEDATA:;
#CHARTNAME:;
#STEPSTYPE:dance-single;
#DESCRIPTION:;
#CHARTSTYLE:;
#DIFFICULTY:Medium;
#METER:8;
#RADARVALUES:0.445,0.512,0.231,0.017,0.103,334.000,27.000,2.000,0.000,0.000,0.000,0.000,0.000,0.445,0.512,0.231,0.017,0.103,334.000,27.000,2.000,0.000,0.000,0.000,0.000,0.000;
#CREDIT:;
#NOTES:
0000
0000
0000
0000
,
0000
0000
0000
0000
,
0001
0000
0000
0010
0000
0000
0100
0000
0000
1000
1000
0000
0010
0010
0000
0000
,
0100
0000
0000
0010
0000
0000
1000
0000
0000
0000
0001
0000
1000
0001
0000
0000
,
0010
0000
0000
0001
0000
0000
0100
0000
0000
0010
0010
0000
1000
0001
1000
0001
,
1000
0000
0100
0000
1000
0000
0010
0000
0100
0000
0001
0000
1000
0001
1000
0000
,
0100
0110
0010
0011
,
0001
0101
0100
0010
,
1000
1010
0010
1010
,
1000
0000
1001
0000
0001
1000
0001
1000
,
0001
0011
0001
1001
,
1000
1010
0010
1010
,
1000
0001
0010
0100
,
1000
0000
0010
0000
0100
0010
1000
0001
,
0010
0000
0100
0000
1000
0000
0010
0100
,
0010
0100
0001
0010
,
0001
0000
0100
0000
0010
0000
1000
0010
,
1000
0100
1000
0010
,
0100
0000
0001
0000
0010
0000
0100
0010
,
0100
0000
1000
0100
1000
0000
0010
0000
,
0100
0010
1000
0001
,
0010
0001
0100
0010
,
0100
0010
1000
0100
0010
0000
0100
0000
,
1000
0010
0100
0001
0010
0000
0001
0000
,
0010
0001
0100
0010
0100
0000
0010
0000
,
1000
0001
0100
0010
1000
0000
0001
0000
,
0010
0001
0100
0010
,
1000
0000
0001
0000
0010
0001
0010
0001
,
0010
0001
0100
0010
,
0100
0000
0000
0001
0000
0000
1000
0001
1000
0001
1000
0001
,
1000
0010
0100
0001
,
0101
0001
0010
0100
,
1100
1000
1001
0001
,
0101
0100
0110
0010
,
1001
0000
0000
0000
0000
0000
0000
0000
0000
0000
0000
1000
0001
1000
0001
1000
0001
0000
0000
0000
0000
0000
0000
0000
0100
0000
0000
0000
0000
0000
0000
0000
,
0001
0100
0010
0100
0001
0000
0100
0000
,
0010
0000
0000
0000
1000
0000
0000
0000
0001
0000
0000
0010
0000
0000
0001
0000
,
0000
0100
0000
0000
0010
0000
1000
0000
0100
0000
0000
0000
1000
0000
0000
0000
,
0001
0010
0100
1000
0001
0000
0010
0000
,
0001
0000
0100
0010
0000
0010
0000
0010
,
1000
0000
0000
0010
0000
0000
1000
0000
0020
0000
0000
0000
0000
0000
0000
0000
,
1030
0000
0000
0001
0000
0000
1000
0000
0002
0000
0000
0000
0000
0000
0000
0000
,
0013
0001
0100
0001
0010
0000
0110
0000
,
0100
0000
1000
0010
0000
0100
0000
0010
,
1000
0000
0000
0000
0001
0000
0000
0000
0010
0000
0000
0001
0000
0000
0100
0000
,
0000
0010
0000
0000
1000
0000
0001
0000
0010
0000
0000
0000
0010
0000
0001
0000
,
0100
0010
1000
0001
0100
0000
0010
0000
,
0100
0000
0001
0010
0000
0100
0000
0010
,
0001
0000
0100
0000
0010
1000
0001
0010
,
0000
0001
0100
0100
,
0010
0100
0010
0100
0010
0000
1010
0000
,
1000
1001
0001
0011
,
0010
0100
0010
0100
0010
0000
0110
0000
,
0100
1100
1000
1001
,
0001
1000
0001
1000
0001
0000
0101
0000
,
0001
0011
0010
0110
,
0100
1100
1000
0010
,
0100
0010
1000
0001
,
0010
0001
1000
0010
0100
0000
0100
0000
,
0010
0010
1000
1000
,
0001
0010
0100
1000
0010
0000
0010
0000
,
0100
0100
0001
0001
,
0100
0010
1000
0001
0010
0000
0010
0000
,
0010
0000
0010
0001
0100
0000
0100
0000
,
0100
0000
0100
0010
1000
0010
0000
0010
,
0100
0000
0100
0001
0000
0001
0010
0000
,
0100
1000
0010
0100
0000
0000
0000
0000
;

//---------------dance-single - ----------------
#NOTEDATA:;
#CHARTNAME:;
#STEPSTYPE:dance-single;
#DESCRIPTION:;
#CHARTSTYLE:;
#DIFFICULTY:Easy;
#METER:6;
#RADARVALUES:0.295,0.313,0.094,0.051,0.000,224.000,11.000,6.000,0.000,0.000,0.000,0.000,0.000,0.295,0.313,0.094,0.051,0.000,224.000,11.000,6.000,0.000,0.000,0.000,0.000,0.000;
#CREDIT:;
#NOTES:
0000
0000
0000
0000
,
0000
0000
0000
0000
,
1000
0000
0010
0000
0100
0100
0100
0000
,
0001
0000
0010
0000
0001
0001
0001
0000
,
0100
0000
0010
0000
1000
1000
1000
0000
,
0001
0000
0100
0000
0010
1000
0001
1000
,
0100
0100
0010
0010
,
0001
0001
0100
0001
,
0010
0010
0100
0100
,
1000
1000
0010
0100
,
0010
0010
1000
1000
,
0001
0001
0010
0001
,
0100
0010
1000
0100
,
0001
0100
1000
0010
,
0100
0100
0001
0010
,
0011
0000
0010
0100
,
1000
1000
0010
0100
,
0101
0000
0001
0010
,
0001
0100
0010
1000
,
1010
0000
0010
1000
,
0100
0010
0001
0100
,
0010
0000
1000
0001
,
0020
0000
0130
0100
,
0200
0000
1300
0001
,
2000
0000
3010
0010
,
0020
0000
0130
0010
,
0100
0000
0001
0000
,
0010
0000
0001
0010
,
0001
0000
0100
0000
,
0010
0000
1000
0010
,
1000
0000
0001
0000
,
0010
0000
0001
0000
,
0100
0010
1000
0001
,
0010
0100
1000
0001
,
1001
0000
1000
1000
,
0010
0010
0100
0000
,
0010
1000
0001
0001
,
0010
0010
0100
0000
,
0010
0001
0100
0100
,
0010
0010
1000
1000
,
0001
1000
0001
0000
,
0010
0100
0010
0000
,
0001
0100
0010
0010
,
1000
0100
1000
0000
,
0001
0001
0100
0000
,
0010
0000
0110
0000
,
0010
0100
0001
0001
,
0010
0010
0100
0100
,
1000
0001
1001
0000
,
0000
0000
1000
0001
,
0010
0100
1000
0000
,
1000
0000
0010
0000
,
0010
0100
0001
0000
,
0001
0000
0100
0000
,
0100
0010
1000
0000
,
1001
0000
0001
0000
,
1001
1001
1000
1000
,
0100
0100
0010
0100
,
1000
0010
0100
0010
,
1000
0100
0010
0100
,
1000
1000
0001
0010
,
0001
0100
0010
1000
,
0001
0001
0002
0010
,
0100
0010
2003
0100
,
0010
0000
0100
0000
3001
0000
0000
1001
,
0000
0000
1000
0000
0000
1001
0000
0000
,
0001
1000
0001
1000
0000
0000
0000
0000
;

//---------------dance-single - ----------------
#NOTEDATA:;
#CHARTNAME:;
#STEPSTYPE:dance-single;
#DESCRIPTION:;
#CHARTSTYLE:;
#DIFFICULTY:Beginner;
#METER:3;
#RADARVALUES:0.185,0.199,0.000,0.000,0.000,151.000,0.000,0.000,0.000,0.000,0.000,0.000,0.000,0.185,0.199,0.000,0.000,0.000,151.000,0.000,0.000,0.000,0.000,0.000,0.000,0.000;
#CREDIT:;
#NOTES:
0000
0000
0000
0000
,
0000
0000
0000
0000
,
1000
0000
0000
0010
,
0010
0000
0000
0100
,
0100
0000
0000
0001
,
0001
0010
0100
1000
,
0010
0000
0010
0000
,
0100
0000
0001
0001
,
0001
0000
1000
0000
,
0100
0000
0010
0010
,
0001
0000
0100
0000
,
0010
0000
1000
1000
,
1000
0000
0100
0000
,
1000
0000
0010
0000
,
0100
0000
0100
0000
,
0100
0000
0000
0000
,
0001
0000
0001
0000
,
0001
0000
0000
0000
,
1000
0000
1000
0000
,
1000
0000
0000
0000
,
0100
0000
0100
0000
,
0010
0000
0010
0000
,
0001
0000
0100
0000
,
0100
0000
0010
0000
,
0010
0000
0100
0000
,
0100
0000
0010
0000
,
0010
0000
1000
0000
,
0100
0000
1000
1000
,
1000
0000
0010
0000
,
0100
0000
0001
0001
,
0001
0000
0001
0000
,
1000
0000
1000
0000
,
0100
0000
0010
0000
,
0001
0000
0100
0000
,
0010
0000
1000
0000
,
0100
0000
1000
0000
,
0010
0010
0010
0000
,
0100
0000
0001
0000
,
1000
1000
1000
0000
,
0100
0000
1000
0000
,
0010
0010
0010
0000
,
0100
0100
0100
0000
,
0001
0001
0001
0000
,
1000
0000
0100
0000
,
1000
1000
1000
0000
,
0010
0000
0100
0000
,
0001
0001
0001
0000
,
1000
0000
0100
0000
,
1000
0000
0001
0000
,
0000
0000
1000
0001
,
1000
0001
1000
0000
,
0100
0000
1000
0000
,
0010
0010
0010
0000
,
0100
0000
0001
0000
,
1000
1000
1000
0000
,
0100
0000
1000
0000
,
0010
0010
0010
0000
,
0100
0000
0001
0000
,
0010
0010
0010
0000
,
0001
0000
1000
0000
,
0010
0010
0010
0000
,
0100
0000
0001
0000
,
1000
0000
0100
0100
,
0100
0100
0010
0010
,
0010
0010
0001
0000
,
1000
0000
0010
0000
,
0100
0000
0000
0010
0000
0000
0000
0000
;
