#TITLE:スパンコール;
#SUBTITLE:;
#ARTIST:Yukky feat. Rio Kuniyoshi;
#TITLETRANSLIT:Spangles;
#SUBTITLETRANSLIT:;
#ARTISTTRANSLIT:;
#GENRE:;
#CREDIT:;
#BANNER:spangles-bn.png;
#BACKGROUND:;
#LYRICSPATH:;
#CDTITLE:;
#MUSIC:spangles.mp3;
#OFFSET:-5.700;
#SAMPLESTART:72.852;
#SAMPLELENGTH:12.000;
#SELECTABLE:YES;
#BPMS:0.000=200.000;
#STOPS:;
#BGCHANGES:;
#KEYSOUNDS:;

//---------------dance-single - Blank----------------
#NOTES:
     dance-single:
     Blank:
     Hard:
     8:
     0.535,0.304,0.039,0.535,0.010: // measure 1
0010
1000
0001
0001
,  // measure 2
0010
0100
1000
1000
,  // measure 3
0010
0100
0010
0010
,  // measure 4
1000
0001
0100
0100
,  // measure 5
0001
0010
0100
0100
,  // measure 6
1000
0001
1000
1000
,  // measure 7
0010
0100
0001
0001
,  // measure 8
1000
0000
0000
0001
0000
0000
1000
0000
,  // measure 9
0010
0000
0100
1000
0000
1000
0100
0001
,  // measure 10
1000
0000
0100
0000
0010
0001
0000
0001
,  // measure 11
0100
0000
0010
1000
0000
1000
0001
0010
,  // measure 12
0001
0010
0100
1000
,  // measure 13
0010
0000
0100
0001
0000
0001
1000
0001
,  // measure 14
0100
0000
0010
0000
1000
0000
0001
0100
,  // measure 15
0010
0000
1000
0100
0000
0100
1000
0000
,  // measure 16
0001
0100
0010
1000
,  // measure 17
0001
0001
0000
0000
0100
0000
0010
0010
,  // measure 18
0000
1000
0100
1000
,  // measure 19
0010
0010
0000
0000
1000
0000
0001
0001
,  // measure 20
0000
0010
0100
0001
,  // measure 21
0100
0100
0000
0000
1000
0000
0010
0000
,  // measure 22
0010
0100
1000
0100
,  // measure 23
0000
0001
0010
0001
1000
0100
1000
0002
,  // measure 24
0000
0000
0000
0000
,  // measure 25
2003
0000
3020
0000
,  // measure 26
0230
0000
0302
0000
,  // measure 27
1003
0000
0100
2000
0000
0000
0000
0000
,  // measure 28
3020
0000
0000
0130
,  // measure 29
0002
0000
0023
0000
,  // measure 30
0230
0000
2300
0000
,  // measure 31
3002
0000
0000
0000
0203
0000
0000
0010
,  // measure 32
0310
0000
1000
0001
1000
0000
0100
0000
,  // measure 33
0020
0001
0230
1000
,  // measure 34
0320
0001
0230
1000
,  // measure 35
0301
0000
0100
1000
0000
1000
0010
0000
,  // measure 36
0100
0000
0001
1000
0001
1000
0100
0000
,  // measure 37
0010
0001
0000
1000
0000
0010
0100
0000
,  // measure 38
0001
0010
0001
0010
0000
0010
0001
0000
,  // measure 39
1000
0000
0000
0000
0000
0000
0010
0000
0000
0000
0000
0000
0000
0000
0000
0000
0100
0000
0000
0000
0000
0000
0000
0000
0001
0000
0000
0000
0000
0000
0010
0000
0000
0001
0000
0000
0000
0000
0000
0000
0000
0000
0100
0000
0000
0000
0000
0000
,  // measure 40
0010
0000
1000
0000
0100
1000
0001
0000
,  // measure 41
0100
0010
0100
0000
0001
1000
0001
0000
,  // measure 42
0010
0100
1000
0001
,  // measure 43
0100
0000
0010
1000
0000
1000
0001
0000
,  // measure 44
0010
0001
1000
0001
0100
0000
0010
0000
,  // measure 45
2000
0000
3100
0000
,  // measure 46
0020
0000
0031
0000
,  // measure 47
0200
0000
0010
0000
0300
0000
0010
2000
,  // measure 48
0000
0000
3001
0000
,  // measure 49
0020
0230
2300
3002
,  // measure 50
0203
0000
0010
1000
,  // measure 51
0301
0000
0010
0100
0000
0100
1000
0000
,  // measure 52
0001
0000
0100
0010
0000
0010
1000
0000
,  // measure 53
0001
0010
1000
0010
0002
0000
1000
0000
,  // measure 54
0103
0010
1000
0001
,  // measure 55
0010
0001
0010
0001
0000
0001
1000
0000
,  // measure 56
0010
0100
0020
0000
0000
0000
0000
0000
,  // measure 57
2030
3100
0002
0013
,  // measure 58
2000
3100
0002
0013
,  // measure 59
1000
0000
0100
1000
0000
1000
0001
0000
,  // measure 60
0100
0000
0010
1000
0000
1000
0001
0000
,  // measure 61
0020
0130
2000
3001
,  // measure 62
0200
0310
0110
0110
,  // measure 63
1001
0000
0100
0000
0010
0000
0001
1000
,  // measure 64
0001
0000
0100
0000
0010
1000
0000
1000
,  // measure 65
0002
0010
0103
1000
,  // measure 66
0010
0000
0100
0001
0000
0001
1000
0000
,  // measure 67
0200
1000
0301
0100
,  // measure 68
1000
0000
0001
0100
0000
0100
0010
0000
,  // measure 69
1000
0002
0203
0320
,  // measure 70
2030
3002
0023
0130
,  // measure 71
1000
0002
0203
2300
,  // measure 72
3200
0320
2030
3002
,  // measure 73
0023
0000
0000
0100
0000
0000
0130
0000
,  // measure 74
2000
0000
0000
0001
0000
0000
3001
1000
,  // measure 75
0001
0000
1000
0000
0001
0000
0100
0010
,  // measure 76
0100
0000
0010
0000
0100
0001
0100
0002
,  // measure 77
0000
0000
1003
0000
0100
0000
1000
0001
,  // measure 78
1000
0000
0000
2002
0000
0000
0000
0000
,  // measure 79
3003
0000
0000
0000
;

//---------------dance-single - Blank----------------
#NOTES:
     dance-single:
     Blank:
     Medium:
     5:
     0.331,0.301,0.019,0.078,0.000: // measure 1
0010
1000
0100
1000
,  // measure 2
0001
0100
0010
1000
,  // measure 3
0001
0010
0100
1000
,  // measure 4
0001
0100
1000
0100
,  // measure 5
0010
1000
0001
0010
,  // measure 6
0100
1000
0001
0100
,  // measure 7
0010
0100
0001
1000
,  // measure 8
0100
0000
0000
0020
0000
0000
0030
0000
,  // measure 9
0100
1000
0010
0001
,  // measure 10
1000
0100
0001
0000
,  // measure 11
0010
0100
1000
0001
,  // measure 12
0100
0010
1000
0000
,  // measure 13
0100
0001
0100
0010
,  // measure 14
0001
1000
0010
0100
,  // measure 15
0001
0000
1000
0000
,  // measure 16
0010
0100
0010
0000
,  // measure 17
1000
0100
0010
0001
,  // measure 18
1000
0000
0010
0000
,  // measure 19
0100
0001
0010
0100
,  // measure 20
1000
0000
0001
0000
,  // measure 21
0100
0010
1000
0001
,  // measure 22
1000
0000
0010
0000
,  // measure 23
0100
0100
0001
0001
,  // measure 24
0000
0000
0000
0000
,  // measure 25
1000
0100
1000
0000
,  // measure 26
0001
0100
0001
0000
,  // measure 27
0010
0000
0010
0000
,  // measure 28
0100
0000
0100
0000
,  // measure 29
1000
0010
0001
0010
,  // measure 30
1000
0100
0001
0100
,  // measure 31
1000
0000
0001
0000
,  // measure 32
0100
0000
0010
0000
,  // measure 33
0100
0001
0010
0001
,  // measure 34
1000
0010
0100
0010
,  // measure 35
1000
0100
0010
0001
,  // measure 36
0100
0010
1000
0000
,  // measure 37
0001
0010
0100
1000
,  // measure 38
0010
0100
0001
0000
,  // measure 39
0100
0010
1000
0001
,  // measure 40
0010
0100
1000
0000
,  // measure 41
0010
0000
1000
0000
,  // measure 42
0100
0000
0001
0000
,  // measure 43
0100
0000
1000
0000
,  // measure 44
0010
0000
0100
0000
,  // measure 45
0010
0000
1000
0000
,  // measure 46
0001
0000
0010
0000
,  // measure 47
0100
0000
1000
0000
,  // measure 48
0001
0000
0100
0000
,  // measure 49
0010
0000
0100
0000
,  // measure 50
0001
1000
0100
0000
,  // measure 51
0010
0000
0001
0000
,  // measure 52
1000
0010
0100
0000
,  // measure 53
1000
0000
0100
0000
,  // measure 54
0001
0000
0010
0000
,  // measure 55
0100
0000
0000
1000
0000
0000
0001
0000
,  // measure 56
0100
0220
0000
0330
,  // measure 57
0010
1000
0100
0001
,  // measure 58
1000
0010
0001
0100
,  // measure 59
0010
1000
0100
1000
,  // measure 60
0010
0100
0001
0100
,  // measure 61
0010
1000
0100
0001
,  // measure 62
0100
1000
0010
0100
,  // measure 63
0002
0000
1000
0000
,  // measure 64
0010
0000
0103
0000
,  // measure 65
0010
1000
0100
0100
,  // measure 66
0000
1000
0001
0000
,  // measure 67
0100
0010
0100
0100
,  // measure 68
0000
0001
0010
0000
,  // measure 69
0100
1000
0010
0000
,  // measure 70
0100
1000
0001
0000
,  // measure 71
0010
0000
0100
0000
,  // measure 72
0001
1000
0100
0010
,  // measure 73
0002
0000
1000
0000
,  // measure 74
1000
0000
1003
0000
,  // measure 75
0020
0000
0130
0000
,  // measure 76
0200
0000
0301
0000
,  // measure 77
0002
0000
0000
0000
,  // measure 78
1003
0000
0000
1001
0000
0000
0000
0000
;

//---------------dance-single - Blank----------------
#NOTES:
     dance-single:
     Blank:
     Easy:
     2:
     0.172,0.075,0.019,0.088,0.000: // measure 1
0010
0000
0000
0000
,  // measure 2
1000
0000
0000
0000
,  // measure 3
0001
0000
0000
0000
,  // measure 4
0010
0000
0000
0000
,  // measure 5
0100
0000
0000
0000
,  // measure 6
1000
0000
0000
0000
,  // measure 7
0010
0000
0000
0000
,  // measure 8
0100
0000
0000
0000
,  // measure 9
0001
0000
0000
0000
,  // measure 10
0001
0000
0000
0000
,  // measure 11
1000
0000
0100
0000
,  // measure 12
1000
0000
0000
0000
,  // measure 13
0010
0000
0000
0000
,  // measure 14
0010
0000
0000
0000
,  // measure 15
0100
0000
0001
0000
,  // measure 16
0100
0000
0000
0000
,  // measure 17
0010
0000
1000
0000
,  // measure 18
0100
0000
0000
0000
,  // measure 19
0010
0000
0001
0000
,  // measure 20
0100
0000
0000
0000
,  // measure 21
0001
0000
1000
0000
,  // measure 22
0100
0000
0000
0000
,  // measure 23
0010
0000
0001
0000
,  // measure 24
2002
0000
3003
0000
,  // measure 25
0001
0000
1000
0000
,  // measure 26
0001
0000
1000
0000
,  // measure 27
0001
0000
0000
0000
,  // measure 28
1000
0000
0000
0000
,  // measure 29
0010
0000
0100
0000
,  // measure 30
0010
0000
0100
0000
,  // measure 31
0010
0000
0000
0000
,  // measure 32
0100
0000
0000
0000
,  // measure 33
0001
0000
0010
0000
,  // measure 34
0100
0000
1000
0000
,  // measure 35
0001
0000
0002
0000
,  // measure 36
0000
0000
0003
0000
,  // measure 37
0100
0000
0010
0000
,  // measure 38
0100
0000
1000
0000
,  // measure 39
0100
0000
0001
0000
,  // measure 40
2000
0000
3000
0000
,  // measure 41
0100
0000
0000
0000
,  // measure 42
0010
0000
0001
0000
,  // measure 43
0010
0000
0000
0000
,  // measure 44
0100
0000
0000
0000
,  // measure 45
1000
0000
0000
0000
,  // measure 46
0010
0000
0100
0000
,  // measure 47
0010
0000
0000
0000
,  // measure 48
1000
0000
0000
0000
,  // measure 49
0001
0000
0000
0000
,  // measure 50
0010
0000
0001
0000
,  // measure 51
1000
0000
0000
0000
,  // measure 52
0100
0000
0000
0000
,  // measure 53
0010
0000
0000
0000
,  // measure 54
0001
0000
0000
0000
,  // measure 55
1000
0000
0000
0000
,  // measure 56
0010
0010
0000
0000
,  // measure 57
0100
0000
0100
0000
,  // measure 58
0100
0000
0100
0000
,  // measure 59
0001
0000
1000
0000
,  // measure 60
0100
0000
0010
0000
,  // measure 61
0001
0000
0001
0000
,  // measure 62
0001
0000
1000
0000
,  // measure 63
0020
0000
0000
0000
,  // measure 64
0030
0000
0000
0000
,  // measure 65
0100
0000
0001
0000
,  // measure 66
0100
0000
0100
0000
,  // measure 67
0001
0000
1000
0000
,  // measure 68
0001
0000
0001
0000
,  // measure 69
1000
0000
0010
0000
,  // measure 70
1000
0000
1000
0000
,  // measure 71
0100
0000
0001
0000
,  // measure 72
0010
0000
1000
0000
,  // measure 73
0002
0000
0000
0000
,  // measure 74
1003
0000
0000
0000
,  // measure 75
0200
0000
0310
0000
,  // measure 76
0002
0000
1003
0000
,  // measure 77
0020
0000
0000
0000
,  // measure 78
0130
0000
0000
1001
0000
0000
0000
0000
;

//---------------dance-single - Blank----------------
#NOTES:
     dance-single:
     Blank:
     Beginner:
     1:
     0.097,0.075,0.029,0.058,0.000: // measure 1
0010
0000
0000
0000
,  // measure 2
1000
0000
0000
0000
,  // measure 3
0010
0000
0000
0000
,  // measure 4
0000
0000
0000
0000
,  // measure 5
0100
0000
0000
0000
,  // measure 6
0001
0000
0000
0000
,  // measure 7
0100
0000
0000
0000
,  // measure 8
0000
0000
0000
0000
,  // measure 9
0010
0000
0000
0000
,  // measure 10
1000
0000
0000
0000
,  // measure 11
0001
0000
0000
0000
,  // measure 12
0000
0000
0000
0000
,  // measure 13
0010
0000
0000
0000
,  // measure 14
0100
0000
0000
0000
,  // measure 15
1000
0000
0000
0000
,  // measure 16
0000
0000
0000
0000
,  // measure 17
0001
0000
0000
0000
,  // measure 18
0001
0000
0000
0000
,  // measure 19
0001
0000
0000
0000
,  // measure 20
0000
0000
0000
0000
,  // measure 21
1000
0000
0000
0000
,  // measure 22
1000
0000
0000
0000
,  // measure 23
1000
0000
0000
0000
,  // measure 24
0000
0000
0000
0000
,  // measure 25
0010
0000
0000
0000
,  // measure 26
0010
0000
0000
0000
,  // measure 27
0020
0000
0000
0000
,  // measure 28
0030
0000
0000
0000
,  // measure 29
0100
0000
0000
0000
,  // measure 30
0100
0000
0000
0000
,  // measure 31
0200
0000
0000
0000
,  // measure 32
0300
0000
0000
0000
,  // measure 33
0001
0000
0000
0000
,  // measure 34
0001
0000
0000
0000
,  // measure 35
0002
0000
0000
0000
,  // measure 36
0003
0000
0000
0000
,  // measure 37
1000
0000
0000
0000
,  // measure 38
1000
0000
0000
0000
,  // measure 39
2000
0000
0000
0000
,  // measure 40
3000
0000
0000
0000
,  // measure 41
0010
0000
0000
0000
,  // measure 42
0100
0000
0000
0000
,  // measure 43
0010
0000
0000
0000
,  // measure 44
0000
0000
0000
0000
,  // measure 45
1000
0000
0000
0000
,  // measure 46
0001
0000
0000
0000
,  // measure 47
1000
0000
0000
0000
,  // measure 48
0000
0000
0000
0000
,  // measure 49
0100
0000
0000
0000
,  // measure 50
0010
0000
0000
0000
,  // measure 51
0100
0000
0000
0000
,  // measure 52
0000
0000
0000
0000
,  // measure 53
1000
0000
0000
0000
,  // measure 54
0001
0000
0000
0000
,  // measure 55
1000
0000
0000
0000
,  // measure 56
0000
0000
0000
0000
,  // measure 57
1001
0000
0000
0000
,  // measure 58
0110
0000
0000
0000
,  // measure 59
0100
0000
0000
0000
,  // measure 60
0100
0000
0000
0000
,  // measure 61
1000
0000
0000
0000
,  // measure 62
0001
0000
0000
0000
,  // measure 63
0020
0000
0000
0000
,  // measure 64
0030
0000
0000
0000
,  // measure 65
0100
0000
0000
0000
,  // measure 66
1000
0000
0000
0000
,  // measure 67
0001
0000
0000
0000
,  // measure 68
0000
0000
0000
0000
,  // measure 69
0100
0000
0000
0000
,  // measure 70
0010
0000
0000
0000
,  // measure 71
1000
0000
0000
0000
,  // measure 72
0001
0000
0000
0000
,  // measure 73
0020
0000
0000
0000
,  // measure 74
0030
0000
0000
0000
,  // measure 75
0100
0000
0000
0000
,  // measure 76
1000
0000
0000
0000
,  // measure 77
0001
0000
0000
0000
,  // measure 78
1001
0000
0000
0000
;
