#TITLE:ROUND!;
#SUBTITLE:;
#ARTIST:WESTARENA by MLREC;
#TITLETRANSLIT:;
#SUBTITLETRANSLIT:;
#ARTISTTRANSLIT:;
#GENRE:;
#CREDIT:;
#BANNER:round!-bn.png;
#BACKGROUND:round!-bg.png;
#LYRICSPATH:;
#CDTITLE:;
#MUSIC:ROUND.mp3;
#OFFSET:-9.620;
#SAMPLESTART:41.819;
#SAMPLELENGTH:12.000;
#SELECTABLE:YES;
#BPMS:0.000=134.000,136.000=134.000;
#STOPS:100.000=0.440
,149.000=0.440
,178.000=0.440
;
#BGCHANGES:;
#KEYSOUNDS:;

//---------------dance-single - Blank----------------
#NOTES:
     dance-single:
     Blank:
     Hard:
     8:
     0.485,0.398,0.239,0.018,0.174: // measure 1
0010
0000
1000
0000
0001
0000
0100
0000
0001
0000
0010
0001
0000
0000
1000
0000
,  // measure 2
0010
0000
0100
0000
1000
0000
0100
0000
0001
0000
1000
0000
0100
0000
0010
0001
,  // measure 3
0000
0100
0000
0010
0000
1000
0000
0001
,  // measure 4
0000
0010
0000
0100
0000
1000
0000
0001
,  // measure 5
0100
0000
0010
0000
1000
0000
0100
0000
1000
0000
0001
0100
0000
0000
0010
0000
,  // measure 6
1000
0000
0100
0000
0010
0000
0100
0000
1000
0000
0001
0000
0100
0000
0010
1000
,  // measure 7
0000
0001
0000
0010
0000
0100
0000
1000
,  // measure 8
0000
0001
0000
0100
0000
0010
1000
0001
,  // measure 9
0010
0000
0100
1000
0000
0000
0010
0000
0100
0000
0001
1000
0000
0000
0100
0000
,  // measure 10
0010
0000
0100
1000
0000
0000
0010
0000
0100
0000
0001
0000
0100
0000
0010
0000
,  // measure 11
1000
0000
0001
1000
0000
0000
0010
0000
0100
0000
0001
0010
0000
0000
0001
0000
,  // measure 12
0100
0000
0010
0000
1000
0000
0001
0000
0010
0000
0000
0000
0100
1000
0100
1000
,  // measure 13
0001
0000
0000
0100
0000
0000
0010
0000
1000
0000
0000
0100
0000
0000
0010
0000
,  // measure 14
0001
0000
0100
0000
0010
0000
0100
0001
0000
0000
1000
0000
0100
0000
0010
0000
,  // measure 15
0001
0000
0100
0000
0010
1000
0100
1000
,  // measure 16
0000
1000
0001
0100
0000
0010
1000
0001
,  // measure 17
0000
0001
0010
0100
1000
0000
1000
0001
,  // measure 18
0100
0000
0100
0000
0010
0000
0000
1000
,  // measure 19
1001
0110
1001
0110
,  // measure 20
0010
0000
1000
0000
0100
0000
1000
0001
0000
0000
0100
0000
0010
0000
0100
0000
,  // measure 21
0110
1001
0110
1001
,  // measure 22
0010
0000
0001
0000
0100
0000
0010
1000
0000
0000
1000
0000
0010
0000
0100
0000
,  // measure 23
0001
0000
0010
0000
0001
0000
0000
1000
0000
0000
0010
0000
0100
0000
0001
0000
,  // measure 24
0010
0000
0000
0000
0100
0000
0000
1001
0000
0000
0000
0000
0000
0100
0000
0001
,  // measure 25
1000
0010
0000
0100
0001
1000
0000
0100
,  // measure 26
1001
0000
0010
1000
0001
0010
1100
0000
,  // measure 27
0011
0000
0001
0010
0100
1000
0001
0100
,  // measure 28
0010
0100
0001
1000
0100
0010
0001
0000
,  // measure 29
0100
0000
0000
0000
0010
0000
1000
0000
0100
0000
1000
0000
0001
0000
0010
0001
,  // measure 30
0010
0001
0010
0000
0100
0000
1000
0000
0001
0100
0001
0000
1000
0000
0001
0000
,  // measure 31
0100
0010
0000
0010
0100
0001
1000
0100
,  // measure 32
0010
0000
0100
1000
0100
0000
0001
0000
0100
0000
1000
0000
0010
0000
0100
0001
,  // measure 33
0100
0000
0010
1000
0010
0000
0000
0000
1000
0000
0100
0000
1000
0000
0010
0000
,  // measure 34
0001
0000
0010
0000
0100
0000
0001
0000
1000
0000
0001
0000
1000
0000
0010
1000
,  // measure 35
0000
0000
0001
0000
0010
0000
0001
0010
0000
0000
0100
0000
1000
0000
0001
0000
,  // measure 36
0100
0000
0010
0100
0000
0000
0001
0000
0100
0000
0010
0000
1000
0000
0100
0000
,  // measure 37
1000
0001
0100
0010
1000
0001
2002
0000
,  // measure 38
0000
0000
3003
0100
0101
0000
0011
0000
,  // measure 39
1010
0000
0000
0000
1100
0000
0000
0000
0100
0000
0001
0000
0010
0000
0100
1000
,  // measure 40
0000
1000
0010
0100
1100
0000
1010
0000
,  // measure 41
0011
0000
0101
0000
0100
0010
1000
0001
,  // measure 42
0000
0000
0010
0000
0100
0000
1000
0000
0001
0000
0100
0000
0010
0000
1000
0001
,  // measure 43
0000
0000
0010
0000
0100
0000
1000
0000
0001
0000
0000
0000
0100
0000
0000
0110
,  // measure 44
0000
0000
0000
0000
0000
0010
0000
1000
0001
0000
0010
0000
0000
0000
0100
0000
,  // measure 45
1000
0001
0000
0100
0110
0000
0010
1000
,  // measure 46
0100
0000
1000
0001
1000
0000
0000
0000
0001
0000
0000
0000
0100
0000
0010
0000
,  // measure 47
0000
0000
0010
0000
1000
0100
1000
0000
0000
0000
1000
0000
0001
0000
0100
0000
,  // measure 48
0000
0100
0110
0000
1001
0000
0100
0010
,  // measure 49
0000
0000
0100
0000
0010
0001
0010
0000
0000
0000
0010
0000
0001
1000
0001
0000
,  // measure 50
0100
0010
1000
0001
0000
0001
0100
0010
,  // measure 51
0000
0010
1000
0100
0000
0010
0001
0000
,  // measure 52
1001
0000
0000
0000
;

//---------------dance-single - Blank----------------
#NOTES:
     dance-single:
     Blank:
     Medium:
     5:
     0.314,0.187,0.110,0.000,0.028: // measure 1
0010
0010
1000
0100
,  // measure 2
1000
1000
0001
0100
,  // measure 3
0001
0001
0010
0001
,  // measure 4
0100
0100
0100
0000
,  // measure 5
0010
1000
0100
0100
,  // measure 6
1000
0001
0010
0010
,  // measure 7
0001
1000
0001
0001
,  // measure 8
1000
0010
0100
0000
,  // measure 9
0010
0000
1000
0000
0100
0001
0100
0000
,  // measure 10
0010
0001
1000
0010
,  // measure 11
0100
0000
1000
0000
0100
0010
0100
0000
,  // measure 12
0001
1000
0100
0010
,  // measure 13
0001
0000
1000
0000
0010
1000
0010
0000
,  // measure 14
0100
0000
0001
0000
0010
0001
0010
0000
,  // measure 15
0100
1000
0100
0010
,  // measure 16
0001
1000
0010
0100
,  // measure 17
0001
0001
1000
1000
,  // measure 18
0100
0000
0100
0000
0100
0000
0000
0010
,  // measure 19
0001
1001
1000
1001
,  // measure 20
0001
0100
1000
0100
0010
0000
1000
0000
,  // measure 21
0100
0110
0010
0110
,  // measure 22
0100
1000
0100
1000
0001
0000
0100
0000
,  // measure 23
0010
1000
0100
0100
,  // measure 24
1000
0000
0000
0000
0000
0000
0000
1001
0000
0000
0000
0000
0000
0010
0000
0000
,  // measure 25
0100
0010
1000
0001
,  // measure 26
1001
0000
1000
0001
1000
0000
0010
0000
,  // measure 27
0100
0001
0010
0100
,  // measure 28
1000
0000
0001
0100
0001
0000
0100
0000
,  // measure 29
1000
0100
0010
1000
,  // measure 30
0100
0000
0010
0001
1000
0000
0010
0000
,  // measure 31
0100
0000
0001
1000
0100
1000
0010
0000
,  // measure 32
0100
0000
0001
0100
1000
0100
0010
0000
,  // measure 33
1000
0000
0001
0010
0100
1000
0001
0000
,  // measure 34
0100
0000
0000
0000
0010
0000
0000
0000
1000
0000
0000
0000
0001
0000
0000
0100
,  // measure 35
0000
0000
0000
0000
0010
0000
0000
1000
0000
0000
0000
0000
0001
0000
0000
0000
,  // measure 36
0010
0100
1000
0010
,  // measure 37
0100
0001
1000
0100
,  // measure 38
0100
0100
1000
1010
,  // measure 39
0010
0000
1010
0000
0010
0100
0001
0100
,  // measure 40
0010
1000
0001
0011
,  // measure 41
0010
0000
0011
0000
0010
0001
0100
0010
,  // measure 42
1000
0001
0100
0010
,  // measure 43
1000
0000
0100
0000
0010
0000
0000
0000
0001
0000
0000
0000
1000
0000
0000
1001
,  // measure 44
0000
0000
0000
0000
0000
0010
0000
0000
0100
0000
0000
0000
0001
0000
0000
0000
,  // measure 45
0010
0100
1000
0001
,  // measure 46
0100
0010
1000
0100
,  // measure 47
0100
0000
1000
0000
0010
0000
0100
0001
,  // measure 48
0100
0010
1000
0001
,  // measure 49
0001
0000
0010
0100
0010
0000
0100
1000
,  // measure 50
0100
1000
0010
0100
,  // measure 51
0001
0010
0100
1000
,  // measure 52
1001
0000
0000
0000
;

//---------------dance-single - Blank----------------
#NOTES:
     dance-single:
     Blank:
     Easy:
     4:
     0.231,0.140,0.037,0.000,0.000: // measure 1
0010
0000
1000
0000
,  // measure 2
0100
1000
0001
0100
,  // measure 3
0010
0000
1000
0000
,  // measure 4
0001
1000
0100
0010
,  // measure 5
0001
0000
0100
0000
,  // measure 6
0010
0100
0001
1000
,  // measure 7
0100
0000
0010
0000
,  // measure 8
0100
1000
0010
0100
,  // measure 9
0001
0001
1000
1000
,  // measure 10
0100
0100
0100
0000
,  // measure 11
0010
0000
0001
0000
,  // measure 12
1000
0001
0100
0000
,  // measure 13
0010
0010
0100
0100
,  // measure 14
0001
1000
0001
0000
,  // measure 15
0010
0000
0100
0000
,  // measure 16
1000
1000
0001
0001
,  // measure 17
0100
0010
1000
0001
,  // measure 18
0010
0000
0000
0000
,  // measure 19
0100
0100
0100
0100
,  // measure 20
1000
0010
0000
0100
,  // measure 21
1000
1000
1000
1000
,  // measure 22
0010
0001
0100
1000
,  // measure 23
0001
0100
0010
0100
,  // measure 24
0001
0000
1001
0000
,  // measure 25
0100
0010
0100
0010
,  // measure 26
0110
0000
0000
0001
,  // measure 27
0100
0010
1000
0100
,  // measure 28
0010
0001
0000
0010
,  // measure 29
1000
0100
0001
0010
,  // measure 30
0100
1000
0000
0010
,  // measure 31
0100
1000
0010
0001
,  // measure 32
0100
0010
0100
0001
,  // measure 33
1000
0100
0010
0001
,  // measure 34
1000
0010
0000
0100
,  // measure 35
0100
0001
0001
1000
,  // measure 36
0100
1000
0000
0010
,  // measure 37
0000
0100
0000
0001
,  // measure 38
0000
1001
1000
0100
,  // measure 39
1000
0100
1000
0010
,  // measure 40
0001
0100
0010
0001
,  // measure 41
0010
0001
0100
1000
,  // measure 42
0010
0001
1000
0010
,  // measure 43
0100
0001
1000
0000
,  // measure 44
1001
0000
0100
0010
,  // measure 45
0001
1000
0010
0010
,  // measure 46
0100
0001
0100
0010
,  // measure 47
0100
1000
0010
0001
,  // measure 48
0100
0010
1000
0010
,  // measure 49
0001
0100
1000
0010
,  // measure 50
0100
0001
1000
0001
,  // measure 51
0010
0100
1000
0001
;

//---------------dance-single - Blank----------------
#NOTES:
     dance-single:
     Blank:
     Beginner:
     1:
     0.098,0.047,0.073,0.000,0.000: // measure 1
0010
0000
0000
0000
,  // measure 2
0100
0000
0000
0000
,  // measure 3
0001
0000
0000
0000
,  // measure 4
1000
0000
0000
0000
,  // measure 5
0100
0000
0000
0000
,  // measure 6
0010
0000
0000
0000
,  // measure 7
0001
0000
0000
0000
,  // measure 8
1000
0000
0000
0000
,  // measure 9
0010
0000
0000
0000
,  // measure 10
0100
0000
0000
0000
,  // measure 11
0001
0000
0000
0000
,  // measure 12
1000
0000
0000
0000
,  // measure 13
0100
0000
0000
0000
,  // measure 14
0010
0000
0000
0000
,  // measure 15
0001
0000
0000
0000
,  // measure 16
1000
0000
0000
0000
,  // measure 17
0010
0000
0000
0000
,  // measure 18
0100
0000
0000
0000
,  // measure 19
0110
0000
0000
0000
,  // measure 20
1001
0000
0000
0000
,  // measure 21
0110
0000
0000
0000
,  // measure 22
1001
0000
0000
0000
,  // measure 23
0010
0000
0100
0000
,  // measure 24
0010
0000
0000
0000
,  // measure 25
1000
0000
0001
0000
,  // measure 26
1000
0000
0000
0001
,  // measure 27
0000
0001
0000
0001
,  // measure 28
0000
0000
0000
1000
,  // measure 29
0000
1000
0000
1000
,  // measure 30
0000
0000
0000
0010
,  // measure 31
0000
0010
0000
0010
,  // measure 32
0000
0000
0000
0100
,  // measure 33
0000
0100
0000
0100
,  // measure 34
0000
0000
0000
0001
,  // measure 35
0000
0000
0000
0010
,  // measure 36
0000
0000
0000
0100
,  // measure 37
0000
0000
0000
1000
,  // measure 38
0000
0000
1001
0000
,  // measure 39
0000
0000
0110
0000
,  // measure 40
0000
0000
1001
0000
,  // measure 41
0000
0000
0110
0000
,  // measure 42
0000
0000
0010
0000
,  // measure 43
0100
0000
0010
0000
,  // measure 44
0000
0000
1000
0000
,  // measure 45
0001
0000
1000
0000
,  // measure 46
0000
0001
0000
0010
,  // measure 47
0000
0100
0000
1000
,  // measure 48
0000
0010
0000
0001
,  // measure 49
0000
0100
0000
1000
,  // measure 50
0000
0001
0000
0100
,  // measure 51
0000
0010
0000
1000
,  // measure 52
1000
0000
0000
0000
;
