#TITLE:Playing With Fire;
#SUBTITLE:;
#ARTIST:kors k;
#TITLETRANSLIT:;
#SUBTITLETRANSLIT:;
#ARTISTTRANSLIT:;
#GENRE:;
#CREDIT:;
#BANNER:Playing With Fire NSFW-banner.png;
#BACKGROUND:Playing With Fire NSFW.png;
#LYRICSPATH:;
#CDTITLE:;
#MUSIC:[Beat the Heat] - Playing With Fire.mp3;
#OFFSET:-6.093;
#SAMPLESTART:61.500;
#SAMPLELENGTH:15.000;
#SELECTABLE:YES;
#BPMS:0.000=160.000
;
#STOPS:
;
#BGCHANGES:;
#KEYSOUNDS:;
#ATTACKS:;

//---------------dance-single - ----------------
#NOTES:
     dance-single:
     :
     Hard:
     9:
     0.584,0.536,0.049,0.078,0.278,406.000,5.000,8.000,0.000,0.000,0.000,0.584,0.536,0.049,0.078,0.278,406.000,5.000,8.000,0.000,0.000,0.000:
0000
0000
0000
0000
,
1001
0000
0001
0100
1000
0000
1000
0100
,
0001
0000
1000
0100
0001
0000
0001
0100
,
1000
0010
0100
0001
1000
0100
0010
0001
,
0100
0000
0100
0000
0010
0000
1000
0001
2000
0000
0001
0000
3001
0000
0000
0000
,
0001
0000
0010
0000
0001
0000
0100
0000
0010
0000
1000
0100
0000
0100
1000
0000
,
0010
0001
0010
1000
0100
1000
0001
0000
,
0010
0000
0100
0000
0010
0000
0001
0000
0100
0000
0010
1000
0000
0010
1000
0000
,
0100
0100
0010
0010
0100
0010
0100
0000
,
1000
0000
0010
0000
1000
0000
0100
0000
0010
0000
0001
0100
0000
0100
0001
0000
,
0010
1000
0010
0001
0100
0001
1000
0000
,
0001
0010
0100
0100
0010
0001
0100
0010
,
1000
0000
0000
0100
0000
0000
0010
0000
0010
0000
0001
0000
0000
1001
0000
0000
,
0001
0100
0001
1000
0100
1000
0010
0010
,
0100
0001
0100
0010
1000
0010
0100
0100
,
0001
0000
0010
0000
0000
0100
0000
0000
0010
0000
0000
0010
0000
0000
0001
0000
,
1000
0000
0010
0000
0000
0100
0000
0000
0010
0000
0000
0010
0000
0000
1000
0000
,
0001
0010
1000
0001
0100
1000
0001
0001
,
1000
0010
0001
1000
0100
0001
1000
1000
,
0001
0000
0010
0000
0000
0100
0000
0000
0010
0000
0000
0010
0000
0000
0001
0000
,
1000
0000
0010
0000
0000
0100
0000
0000
0010
0000
0000
0010
0000
0000
1000
0000
,
0001
0001
0000
0010
0010
0000
1000
1000
,
0000
0100
0100
0000
0001
0001
0000
1000
,
1000
0000
0100
0100
0000
0001
0001
0000
,
0010
0010
0000
1000
1000
0000
0001
0001
,
1000
0100
0010
0100
1000
0100
0010
0100
,
1000
0010
0100
0010
1000
0010
0100
0010
,
1000
0100
1000
0100
0010
0001
0010
0001
,
1000
0010
0100
0001
0000
0001
1001
0000
,
0002
0000
0000
0103
0000
0000
0000
0000
,
0020
0000
0000
1000
0000
0100
0000
0001
,
0000
0100
0200
0000
0330
0000
0000
0001
,
0010
0010
0100
1000
0010
0010
0100
0001
,
2000
0000
0000
3100
0000
0000
0000
0000
,
0020
0000
0000
0001
0000
0100
0000
1000
,
0000
0100
0200
0000
0330
0000
0000
0000
,
1000
0000
0000
0010
0000
0000
0100
0000
0000
0100
0000
0000
0001
0000
0000
0000
,
1000
0000
0000
0100
0000
0000
1000
0000
0000
0010
0000
0000
0100
0000
0001
0000
,
0010
0000
0000
0100
0000
0000
0010
0000
0000
0010
0001
0000
0100
0000
0100
0000
,
0001
0000
0000
0010
0000
0000
0001
0000
0000
0100
0000
0000
0010
0000
1000
0000
,
0100
0000
0000
0010
0000
0000
0100
0000
0000
0100
1000
0000
0010
0000
0010
0000
,
1000
0000
0000
0100
0000
0000
0010
0000
0001
0000
0000
0100
0000
0000
0010
0000
,
1000
0000
0000
0010
0000
0000
0100
0000
0001
0000
0000
0010
0000
0000
0100
0000
,
1000
0000
0010
0100
0000
0010
0100
0000
0001
1000
0000
0001
1000
0000
0001
0000
,
1002
0000
0000
0000
0000
1000
1003
0000
,
0001
0100
1000
0100
0001
0010
0001
0010
,
0100
0000
1000
0000
0010
0000
1000
0000
0100
0000
0000
0010
0000
0000
0001
0000
,
0100
0000
0010
1000
0000
0010
1000
0000
0100
0010
0000
0100
0010
0000
0001
0000
,
0000
0010
0010
0100
1000
0010
0100
0010
,
1000
0100
0001
0100
1000
0010
1000
0010
,
0100
0000
0001
0000
0010
0000
0001
0000
0100
0000
0000
0010
0000
0000
1000
0000
,
0100
0000
0010
0001
0000
0010
0001
0000
0100
0010
0000
0100
0010
0000
1000
0000
,
0000
0000
0010
0000
0010
0000
0100
0000
0001
0000
0000
0010
0000
0000
0100
0000
,
1000
0010
0001
0010
1000
0100
1000
0100
,
0010
0000
0001
0000
0100
0000
0001
0000
0010
0000
0000
0100
0000
0000
1000
0000
,
0010
0000
0100
0001
0000
0100
0001
0000
0010
0100
0000
0010
0100
0000
1000
0000
,
0000
0010
0010
0100
0001
0010
0100
0010
,
0001
0100
1000
0100
0001
0010
0001
0010
,
0100
0000
1000
0000
0010
0000
1000
0000
0100
0000
0000
0010
0000
0000
0001
0000
,
0100
0000
0010
1000
0000
0010
1000
0000
0100
0010
0000
0100
0010
0000
0001
0000
,
0000
0000
0100
0000
0100
0000
0010
0000
1000
0000
0000
0001
0000
0000
1000
0000
,
1001
0000
0000
0000
;

//---------------dance-single - ----------------
#NOTES:
     dance-single:
     :
     Medium:
     7:
     0.541,0.476,0.107,0.059,0.098,371.000,11.000,6.000,0.000,0.000,0.000,0.541,0.476,0.107,0.059,0.098,371.000,11.000,6.000,0.000,0.000,0.000:
0000
0000
0000
0000
,
1001
0000
1000
0100
0001
0000
0001
0100
,
1000
0000
0001
0100
1000
0000
1000
0100
,
0001
0010
0001
0010
0100
1000
0100
1000
,
0001
0100
0010
1000
0000
1000
1001
0000
,
0001
0100
1000
0100
0010
0000
0110
0000
,
0010
1000
0010
0100
0010
1000
0100
0000
,
1000
0010
0001
0010
0100
0000
0110
0000
,
0100
0001
0100
0010
0100
0001
0010
0000
,
0001
0100
1000
0100
0010
0000
0110
0000
,
0010
1000
0010
0100
0010
1000
0100
0000
,
0010
0001
0100
0000
0010
1000
0100
0000
,
0010
0000
0000
0001
0000
0000
0100
0000
0010
0000
1000
0000
0000
1001
0000
0000
,
1000
0010
1000
0001
1000
0010
1000
0000
,
0001
0010
0001
1000
0001
0010
0001
0000
,
1000
0000
0100
0000
0000
0010
0000
0000
0100
0000
0000
0100
0000
0000
1000
0000
,
0001
0000
0100
0000
0000
0010
0000
0000
0100
0000
0000
0100
0000
0000
0001
0000
,
1000
0100
0001
0100
1000
0010
0001
0000
,
1000
0100
0001
0010
1000
0010
0001
0000
,
1000
0000
0100
0000
0000
0010
0000
0000
0100
0000
0000
0100
0000
0000
1000
0000
,
0001
0000
0100
0000
0000
0010
0000
0000
0100
0000
0000
0100
0000
0000
0001
0000
,
1000
1000
0000
0100
0100
0000
0001
0001
,
0000
0010
0010
0000
1000
1000
0000
0001
,
0001
0000
0010
0010
0000
1000
1000
0000
,
0100
0100
0000
0001
0001
0000
1000
1000
,
0001
0010
0100
0010
0001
0010
0100
0010
,
0001
0100
0010
0100
0001
0100
0010
0100
,
0001
0010
0001
0010
0100
1000
0100
1000
,
0001
0100
0010
1000
0000
1000
1001
0000
,
0002
0000
0000
0103
0000
0000
0000
0000
,
0020
0000
0000
1000
0000
0100
0000
0001
,
0000
0100
0200
0000
0330
0000
0000
0001
,
0010
0010
0100
1000
0010
0010
0100
0001
,
2000
0000
0000
3100
0000
0000
0000
0000
,
0020
0000
0000
0001
0000
0100
0000
1000
,
0000
0100
0200
0000
0330
0000
0000
0000
,
1000
0000
0000
0010
0000
0000
0100
0000
0000
0001
0000
0000
1001
0000
0000
0000
,
1000
0000
0000
1000
0000
0000
0100
0000
0000
0100
0000
0000
0010
0000
0001
0000
,
0010
0000
0000
0010
0000
0000
0100
0000
0000
0100
0000
0000
1000
0000
1000
0000
,
0001
0000
0000
0001
0000
0000
0100
0000
0000
0100
0000
0000
0010
0000
1000
0000
,
0100
0000
0000
0100
0000
0000
0010
0000
0000
0010
0000
0000
0001
0000
0001
0000
,
1001
0000
0001
0100
1000
0000
1000
0100
,
0001
0000
1000
0100
0001
0000
0001
0100
,
1000
0010
1000
0010
0100
0001
0100
0001
,
1000
0100
0010
0001
0000
0001
1001
0000
,
0001
0100
1000
0100
0010
1000
0001
0000
,
1000
0100
0001
0100
0010
0001
1000
0000
,
0001
0100
1000
0000
1000
0100
0001
0000
,
1000
1000
0100
0010
0100
0001
0100
0000
,
1000
0010
0001
0010
0100
0001
1000
0000
,
0001
0010
1000
0010
0100
1000
0001
0000
,
1000
0100
0001
0000
0001
0100
1000
0000
,
0001
0001
0100
0010
0100
1000
0100
0000
,
0001
0010
0100
1000
0001
0100
0010
0000
,
1000
0100
0010
0001
1000
0010
0100
0000
,
0001
0100
1000
0000
1000
0100
0001
0000
,
1000
1000
0100
0010
0100
0001
0100
0000
,
1000
0010
0100
0001
1000
0100
0010
0000
,
0001
0100
0010
1000
0001
0010
0100
0000
,
1000
0100
0001
0000
0001
0100
1000
0000
,
0001
0001
0010
0100
1000
0010
0100
0001
,
1001
0000
0000
0000
;

//---------------dance-single - ----------------
#NOTES:
     dance-single:
     :
     Easy:
     4:
     0.344,0.387,0.185,0.059,0.000,222.000,19.000,6.000,0.000,0.000,0.000,0.344,0.387,0.185,0.059,0.000,222.000,19.000,6.000,0.000,0.000,0.000: // measure 0
0000
0000
0000
0000
,  // measure 1
1000
0000
0010
0000
,  // measure 2
0100
0000
0001
0000
,  // measure 3
1000
0100
0010
0001
,  // measure 4
1001
0000
0000
0000
,  // measure 5
1000
0010
0100
0001
,  // measure 6
1001
1001
1001
1001
,  // measure 7
0001
0010
0100
1000
,  // measure 8
1001
1001
1001
1001
,  // measure 9
1000
0010
0100
0001
,  // measure 10
0010
0100
0110
0110
,  // measure 11
0010
0001
0100
0010
,  // measure 12
1000
0000
0001
0000
,  // measure 13
0001
0010
0100
1000
,  // measure 14
1000
0010
0100
0001
,  // measure 15
0001
0010
0100
0010
,  // measure 16
0001
0100
0010
0100
,  // measure 17
0001
0010
0100
1000
,  // measure 18
1000
0010
0100
0001
,  // measure 19
0010
0100
0010
0001
,  // measure 20
0100
0010
0100
0001
,  // measure 21
0010
0000
0000
0100
0000
0000
1000
0000
,  // measure 22
0000
0010
0000
0000
0100
0000
0000
0001
,  // measure 23
0000
0000
0010
0000
0000
0100
0000
0000
,  // measure 24
1000
0000
0000
0010
0000
0000
0100
0000
,  // measure 25
0001
0010
0100
1000
,  // measure 26
0001
0100
0010
1000
,  // measure 27
0001
0010
0001
0010
,  // measure 28
0100
1000
0100
1000
,  // measure 29
1002
0000
0000
0103
0000
0000
0000
0000
,  // measure 30
0020
0000
0000
1000
0000
0100
0000
0001
,  // measure 31
0000
0100
0200
0000
0330
0000
0000
0000
,  // measure 32
0001
0010
0100
1000
,  // measure 33
2001
0000
0000
3100
0000
0000
0000
0000
,  // measure 34
0020
0000
0000
0001
0000
0100
0000
1000
,  // measure 35
0000
0100
0200
0000
0330
0000
0000
0000
,  // measure 36
1000
0010
0100
0001
,  // measure 37
1000
0100
1000
0000
0100
0010
0100
0000
,  // measure 38
0010
0001
0010
0000
1001
0000
1001
0000
,  // measure 39
0001
0100
0001
0000
0100
0010
0100
0000
,  // measure 40
0010
1000
0010
0000
1001
0000
1001
0000
,  // measure 41
0001
0100
0010
1000
,  // measure 42
0001
0010
0100
1000
,  // measure 43
0001
0100
0010
1000
,  // measure 44
1001
0000
0000
0000
,  // measure 45
1000
0010
0100
0100
,  // measure 46
0001
0010
0100
0100
,  // measure 47
0010
0001
0100
0010
,  // measure 48
1000
0001
0010
0100
,  // measure 49
1000
0010
0100
0010
,  // measure 50
1000
0100
0010
0100
,  // measure 51
1000
1000
0010
0010
,  // measure 52
0100
0001
0010
0100
,  // measure 53
1000
0100
0010
0100
,  // measure 54
1000
0010
0100
0010
,  // measure 55
1000
1000
0100
0100
,  // measure 56
0010
0001
0100
0010
,  // measure 57
1000
0100
0010
0100
,  // measure 58
1000
0010
0100
0010
,  // measure 59
1000
1000
0100
0100
,  // measure 60
0010
0001
0100
0010
,  // measure 61
0110
0000
0000
0000
;
