#TITLE:Little Flipper;
#SUBTITLE:;
#ARTIST:S-C-U;
#TITLETRANSLIT:;
#SUBTITLETRANSLIT:;
#ARTISTTRANSLIT:;
#GENRE:;
#CREDIT:;
#BANNER:Little Flipper.png;
#BACKGROUND:Little Flipper-bg.png;
#LYRICSPATH:;
#CDTITLE:;
#MUSIC:【REFLEC BEAT colette】 Little Flipper / S-C-U.mp3;
#OFFSET:-0.108;
#SAMPLESTART:73.732;
#SAMPLELENGTH:12.000;
#SELECTABLE:YES;
#BPMS:0.000=165.000
;
#STOPS:
;
#BGCHANGES:;
#KEYSOUNDS:;
#ATTACKS:;

//---------------dance-single - ----------------
#NOTES:
     dance-single:
     :
     Challenge:
     10:
     0.690,0.680,0.331,0.170,0.549,457.000,35.000,18.000,0.000,0.000,0.000,0.690,0.680,0.331,0.170,0.549,457.000,35.000,18.000,0.000,0.000,0.000:
0000
0000
0000
0000
,
0000
0000
0000
0000
,
0000
0000
0000
0000
,
0000
0000
0000
0000
,
0000
0000
0000
0000
,
0000
0000
0000
0000
0000
0000
0000
0000
0000
0000
0001
0000
0000
0100
0000
0000
,
1000
0000
0000
0100
0000
0000
0001
0000
0000
0000
1000
0000
0000
0100
0000
0000
,
0001
0000
0000
0100
0000
0000
1000
0000
0010
0000
0000
0010
0000
0000
0100
0000
,
0000
0100
0000
0000
0001
0000
0000
0000
1001
0000
0000
0000
0000
0000
0001
0100
,
0001
0000
0010
0000
0100
0000
0100
0000
1000
0000
0000
1010
0000
0000
0010
0100
,
0010
0000
1000
0000
0100
0000
0100
0000
0010
0000
0000
0011
0000
0000
0001
1000
,
0001
0000
0010
0000
0100
0000
0100
0000
1000
0000
0000
1001
0000
0000
0000
0000
,
1000
0000
0000
0000
0010
0000
0000
0000
0100
0000
0000
0000
0001
0000
1000
0100
,
1000
0000
0010
0000
0100
0000
0100
0000
0001
0000
0000
0101
0000
0000
0100
0010
,
0100
0000
0010
0000
1000
0000
1000
0000
0100
0000
0000
1100
0000
0000
1000
0001
,
1000
0000
0010
0000
0100
0000
0100
0000
0001
0000
0000
1001
0000
0000
1000
0000
,
1000
0000
0000
0000
0100
0000
0000
0000
0010
0000
0000
0000
0001
0000
1000
0010
,
1000
0000
0100
0000
0010
0000
0010
0000
0001
0000
0000
0101
0000
0000
0100
0010
,
0100
0000
0010
0000
1000
0000
1000
0000
0001
0000
0000
0011
0000
0000
0001
1000
,
0001
0000
0100
0000
0010
0000
0010
0000
1000
0000
0000
1000
0010
0000
0100
0000
,
0001
0000
1000
0000
0100
0000
0010
0000
0001
0000
0000
0001
0100
0000
0001
0010
,
0001
0000
0100
0000
0010
0000
0010
0000
1000
0000
0000
1010
0000
0000
0010
0100
,
0010
0000
0100
0000
0001
0000
0001
0000
0010
0000
0000
0011
0000
0000
0001
1000
,
0001
0000
0010
0000
0100
0000
0100
0000
1000
0000
0000
1001
0000
0000
1000
0000
,
1000
0000
0010
0000
0100
0000
0001
0000
1000
0000
0000
1001
0000
0000
0001
0000
,
0001
0000
0010
0000
0100
0000
1000
0001
1000
0000
0001
1000
0000
1000
0001
0000
,
1000
1000
0010
0010
0001
0001
0100
0100
,
2000
0000
0000
3010
0000
0000
0100
0001
0100
0000
0000
0100
0000
0000
0010
0000
,
0000
0010
0000
0000
1000
0000
0100
0000
0010
0000
0000
0020
0000
0000
0130
0000
,
0000
0000
0000
0000
0000
0000
1000
0010
1000
0000
0000
0100
0000
0000
0010
0000
,
0000
0001
0000
0000
0100
0000
0010
0000
0100
0000
0000
0001
0000
0000
0010
0000
,
0000
0100
0000
0000
1000
0000
0010
0000
1000
0000
0000
1000
0000
0000
0001
0000
,
1001
0000
0000
0001
0010
0100
1000
0001
,
0100
0000
0010
0000
1000
0000
0001
1000
0001
0000
1000
0001
0000
0001
1000
0000
,
0001
0001
0100
0100
1000
1000
0010
0010
,
0002
0000
0000
0103
0000
0000
0010
1000
0010
0000
0000
0010
0000
0000
0100
0000
,
0000
0100
0000
0000
0001
0000
1000
0000
1001
0000
0000
0000
0000
0000
1000
0100
,
1000
0010
0100
0001
1000
0100
1000
0001
,
0100
0001
0010
0100
1000
0010
1000
0001
,
0010
0001
0100
0010
2000
0000
0000
3020
,
0000
0000
0032
0000
0200
0003
0000
2300
,
0000
0000
3001
0000
1000
0010
0100
0001
,
1000
0100
0010
0001
0001
0010
0100
1000
,
0001
0000
0100
0000
0010
0000
1000
0100
1000
0000
0010
0000
0100
0001
0000
0001
,
0010
0000
0100
1000
0000
1000
0010
0000
0100
0000
0001
0000
1000
0001
0000
0001
,
0000
0000
1001
0000
1001
0000
0001
0100
0001
0000
0010
0000
0100
1000
0000
1000
,
0010
0000
0100
0001
0000
0001
0010
0000
0100
0000
1000
0000
0001
1000
0000
1000
,
0000
0000
1001
0000
1001
0000
1000
0010
1000
0000
0100
0000
0010
0001
0000
0001
,
0100
0000
0001
0010
0000
0010
0100
0000
0010
0000
0010
0000
0100
1000
0000
1000
,
0010
0000
1000
0100
0000
0100
0010
0000
0001
0000
1001
0000
0000
0000
0001
0000
,
0100
0010
1000
0100
0010
0001
0100
0010
,
1000
0000
0100
0000
0010
0000
0001
0100
0001
0000
0010
0000
0100
1000
0000
1000
,
0010
0000
0100
0001
0000
0001
0010
0000
0100
0000
1000
0000
0001
1000
0000
1000
,
0000
0000
1001
0000
1001
0000
1000
0010
1000
0000
0100
0000
0010
0001
0000
0001
,
0100
0000
0010
1000
0000
1000
0100
0000
0010
0000
0001
0000
1000
0001
0000
0001
,
0000
0000
1001
0000
1001
0000
0001
0100
0001
0000
0010
0000
0100
1000
0000
1000
,
0010
0000
1000
0100
0000
0100
0010
0000
0100
0000
0100
0000
0010
0001
0000
0001
,
0100
0000
0001
0010
0000
0010
0100
0000
1000
0000
0000
1000
0000
0000
0010
0000
,
0100
0000
0000
0100
0000
0000
0001
0000
1001
0000
0000
0000
0000
0000
0001
0000
,
0010
0000
0100
0000
1000
0000
0001
0100
0002
0000
0000
0000
0023
0000
0000
0000
,
2030
0000
0000
0000
3200
0000
0000
0000
0302
0000
0000
1003
0000
0000
1001
0000
,
0000
0000
0000
0000
0000
0000
1000
0100
2000
0000
0000
0000
3020
0000
0000
0000
,
0032
0000
0000
0000
0203
0000
0000
0000
2300
0000
0000
3001
0000
0000
1001
0000
,
0000
0000
1000
0000
0100
0000
0100
0000
0010
0000
0001
0000
0000
0100
0000
0000
,
1000
0000
0000
0100
0000
0000
0001
0000
0000
0000
1000
0000
0000
0100
0000
0000
,
0001
0000
0000
0100
0000
0000
1000
0000
0001
0000
0000
0100
0000
0000
0100
0000
,
0000
0010
0000
0000
1010
0000
0000
0000
1000
0000
0000
0100
0000
0000
0100
0000
,
0000
0010
0000
0000
0011
0000
0000
0000
1001
0000
0000
0101
0000
0000
1001
0000
,
0000
1100
0000
0000
1001
0000
1001
0000
0000
0000
0000
0000
0000
0000
0000
0000
;

//---------------dance-single - ----------------
#NOTES:
     dance-single:
     :
     Hard:
     9:
     0.632,0.648,0.284,0.218,0.388,414.000,30.000,23.000,0.000,0.000,0.000,0.632,0.648,0.284,0.218,0.388,414.000,30.000,23.000,0.000,0.000,0.000:
0000
0000
0000
0000
,
0000
0000
0000
0000
,
0000
0000
0000
0000
,
0000
0000
0000
0000
,
0000
0000
0000
0000
,
0000
0000
0000
0000
0000
0000
0000
0000
0000
0000
0001
0000
0000
0100
0000
0000
,
1000
0000
0000
0100
0000
0000
0001
0000
0000
0000
1000
0000
0000
0100
0000
0000
,
0001
0000
0000
0100
0000
0000
1000
0000
0010
0000
0000
0010
0000
0000
0100
0000
,
0000
0100
0000
0000
0001
0000
0000
0000
1001
0000
0000
0000
0000
0000
0001
0000
,
0001
0000
0100
0000
0010
0000
1000
0000
0100
0000
0000
0100
0000
0000
1000
0000
,
1000
0000
0010
0000
0001
0000
0010
0000
0100
0000
0000
0100
0000
0000
0010
0000
,
0010
0000
1000
0000
0100
0000
0010
0000
0110
0000
0000
0110
0000
0000
0000
0000
,
0000
0000
0000
0000
0000
0000
0000
1000
,
1000
0000
0010
0000
0100
0000
0001
0000
0010
0000
0000
0010
0000
0000
0001
0000
,
0001
0000
0100
0000
1000
0000
0100
0000
0010
0000
0000
0010
0000
0000
0100
0000
,
0100
0000
0001
0000
0010
0000
0100
0000
0110
0000
0000
0110
0000
0000
1001
0000
,
1001
0000
0000
0000
0000
0000
0000
0001
,
0001
0000
0100
0000
1000
0000
0100
0000
0002
0000
0000
1003
0000
0000
1000
0000
,
1000
0000
0100
0000
0001
0000
0100
0000
2000
0000
0000
3001
0000
0000
0001
0000
,
0001
0000
0010
0000
0100
0000
0100
0000
2000
0000
0000
3001
0010
0000
0100
0000
,
1000
0000
0001
0000
0100
0000
0010
0000
1000
0000
0000
1000
0100
0000
0010
0000
,
0001
0000
0100
0000
1000
0000
0100
0000
0002
0000
0000
1003
0000
0000
1000
0000
,
1000
0000
0100
0000
0001
0000
0100
0000
2000
0000
0000
3001
0000
0000
0001
0000
,
0001
0000
0010
0000
0100
0000
0100
0000
1000
0000
0000
1001
0000
0000
1000
0000
,
1000
0000
0010
0000
0100
0000
0100
0000
0001
0000
0000
1001
0000
0000
0001
0000
,
0001
0000
0010
0000
0100
0000
1000
0000
1000
0000
0000
0010
0000
0000
0100
0000
,
0001
0001
0010
0010
1000
1000
0100
0100
,
0002
0000
0000
0013
0000
0000
0100
0000
0010
0000
0000
0010
0000
0000
0100
0000
,
0000
0100
0000
0000
1000
0000
0010
0000
0100
0000
0000
0200
0000
0000
0301
0000
,
0000
0000
0000
0000
0000
0000
1000
0000
0010
0000
0000
0010
0000
0000
0100
0000
,
0000
0100
0000
0000
0001
0000
0010
0000
0100
0000
0000
0100
0000
0000
0010
0000
,
0000
0010
0000
0000
0001
0000
0100
0000
0001
0000
0000
0001
0000
0000
1000
0000
,
1001
0000
0000
0001
0100
0010
1000
0001
,
0010
0000
0100
0000
1000
0000
0001
0000
0001
0000
0000
0100
0000
0000
0010
0000
,
1000
1000
0100
0100
0001
0001
0010
0010
,
2000
0000
0000
3100
0000
0000
0010
0000
0100
0000
0000
0100
0000
0000
0010
0000
,
0000
0010
0000
0000
0001
0000
1000
0000
1001
0000
0000
0000
0000
0000
1000
0000
,
0010
0010
0100
0001
1000
0100
1000
0001
,
0100
0001
0010
0100
1000
0010
1000
0001
,
0010
0001
0100
0010
2000
0000
0000
3200
,
0000
0000
0302
0000
0020
0003
0000
2030
,
0000
0000
3001
0000
1000
0010
0100
0001
,
1000
0100
0010
0001
0001
0100
0010
1000
,
0001
0000
0010
0000
0100
0000
1000
0000
0010
0000
1000
0000
0100
0010
0000
0000
,
0100
0000
1000
0010
0000
0000
0100
0000
0001
0000
0001
0000
0010
0100
0000
0100
,
0000
0000
0110
0000
1001
0000
0001
0000
0100
0000
0001
0000
0010
0100
0000
0000
,
0010
0000
0001
0100
0000
0000
0010
0000
1000
0000
1000
0000
0100
0010
0000
0010
,
0000
0000
0110
0000
1001
0000
0001
0000
0100
0000
0010
0000
1000
0100
0000
0000
,
1000
0000
0010
0100
0000
0000
0010
0000
0010
0000
0100
0000
0001
0010
0000
0000
,
0001
0000
0100
0010
0000
0000
1000
0000
1001
0000
1001
0000
0000
0000
1000
0000
,
0010
0100
0001
0010
0100
1000
0010
0100
,
0001
0000
0010
0000
0100
0000
1000
0000
1000
0000
0010
0000
0100
0001
0000
0001
,
0010
0000
0100
1000
0000
1000
0010
0000
0100
0000
0100
0000
0010
0100
0000
0100
,
0000
0000
0110
0000
1001
0000
0001
0000
0001
0000
0100
0000
0010
1000
0000
1000
,
0100
0000
0010
0001
0000
0001
0100
0000
0010
0000
0010
0000
0100
0010
0000
0010
,
0000
0000
0110
0000
1001
0000
1000
0000
1000
0000
0010
0000
0100
0001
0000
0001
,
0010
0000
0001
0100
0000
0100
0010
0000
0100
0000
0100
0000
0010
1000
0000
1000
,
0100
0000
1000
0010
0000
0010
0100
0000
0001
0000
0000
0001
0000
0000
0010
0000
,
0100
0000
0000
0100
0000
0000
1000
0000
1001
0000
0000
0000
0000
0000
1000
0000
,
0010
0000
0010
0000
0100
0000
0001
0010
0002
0000
0000
0000
0203
0000
0000
0000
,
2300
0000
0000
0000
3020
0000
0000
0000
0032
0000
0000
1003
0000
0000
1001
0000
,
0000
0000
0000
0000
0000
0000
1000
0010
2000
0000
0000
0000
3200
0000
0000
0000
,
0302
0000
0000
0000
0023
0000
0000
0000
2030
0000
0000
3001
0000
0000
1001
0000
,
0000
0000
1000
0000
0100
0000
0100
0000
0010
0000
0001
0000
0000
0100
0000
0000
,
1000
0000
0000
0100
0000
0000
0001
0000
0000
0000
1000
0000
0000
0100
0000
0000
,
0001
0000
0000
0100
0000
0000
1000
0000
0010
0000
0000
0010
0000
0000
0100
0000
,
0000
0100
0000
0000
0001
0000
0000
0000
0010
0000
0000
0010
0000
0000
0100
0000
,
0000
0100
0000
0000
1000
0000
0000
0000
1001
0000
0000
0011
0000
0000
1001
0000
,
0000
1010
0000
0000
1001
0000
1001
0000
0000
0000
0000
0000
0000
0000
0000
0000
;

//---------------dance-single - ----------------
#NOTES:
     dance-single:
     :
     Medium:
     5:
     0.345,0.357,0.133,0.000,0.000,241.000,14.000,0.000,0.000,0.000,0.000,0.345,0.357,0.133,0.000,0.000,241.000,14.000,0.000,0.000,0.000,0.000:
0000
0000
0000
0000
,
0000
0000
0000
0000
,
0000
0000
0000
0000
,
0000
0000
0000
0000
,
0000
0000
0000
0000
,
0000
0000
0000
0000
1000
0010
0100
0000
,
0100
0010
1000
0000
0001
0010
0100
0000
,
0100
0010
0001
0000
0001
0000
0100
0000
,
0010
1000
1001
0000
,
1000
0010
0100
0100
,
0001
0010
0100
0100
,
1000
0010
0100
0001
,
1001
0000
1000
0001
,
1001
1000
0010
0010
,
0100
0001
0010
0010
,
0100
1000
0010
0100
,
0001
0000
1001
0000
,
0001
0100
1000
0100
,
0001
0010
1000
0010
,
0001
0100
1000
0100
,
0001
0000
1000
0001
,
1001
0001
0100
0100
,
0010
1000
0100
0100
,
1000
0010
0100
0100
,
0001
0010
0100
0100
,
1000
0010
0100
0000
,
0001
0000
0010
0000
,
0100
0000
1000
0000
,
1000
0000
0001
0000
,
0001
0000
1000
0010
,
0100
0001
0010
0000
0100
0000
1000
0000
,
0010
0100
0010
0000
1000
0000
0100
0000
,
0010
0001
0100
0000
0010
0000
0100
0000
,
0001
0010
0100
1000
,
0010
0010
1000
1000
,
0100
0000
0010
0000
0001
0100
0010
0000
,
0100
0000
0001
0000
0010
0100
1000
0000
,
0010
0100
0001
0100
,
0010
1000
0001
0010
,
0100
1000
0001
0000
,
0100
0000
0010
0000
,
1000
0000
0001
0010
,
0100
1000
0001
0100
,
0010
1000
0100
0001
,
0100
1000
0010
0100
,
0001
1001
0001
0100
,
1000
0100
0001
0010
,
0100
1100
1000
0010
,
1000
0000
0100
1000
0100
0000
0010
0000
,
0001
0000
0100
0001
0100
0000
0010
0000
,
1000
0001
0010
0100
,
1000
0001
0100
0010
,
0100
0001
0010
0100
,
1000
0010
1000
0000
0010
0000
0100
0000
,
0001
0100
0010
1000
,
0100
0010
0100
0000
0010
0000
0001
0000
,
0100
0010
1000
0100
,
0010
0001
0010
0100
,
1000
0001
0100
0010
,
1000
0001
1001
0000
,
1010
0000
1001
0000
,
0011
0000
0001
0000
,
0100
0000
0010
0000
,
1000
0000
0001
0100
,
1000
0100
0001
0010
,
1000
0010
0001
0100
,
0001
0101
0100
0010
,
0100
0110
0010
1000
,
0010
1000
1001
0000
;

//---------------dance-single - ----------------
#NOTES:
     dance-single:
     :
     Easy:
     3:
     0.290,0.260,0.114,0.000,0.000,202.000,12.000,0.000,0.000,0.000,0.000,0.290,0.260,0.114,0.000,0.000,202.000,12.000,0.000,0.000,0.000,0.000: // measure 0
0000
0000
0000
0000
,  // measure 1
0000
0000
0000
0000
,  // measure 2
0000
0000
0000
0000
,  // measure 3
0000
0000
0000
0000
,  // measure 4
0000
0000
0000
0000
,  // measure 5
0000
0000
0001
0100
,  // measure 6
0010
1000
0001
0010
,  // measure 7
0100
1000
0001
0000
,  // measure 8
1000
0000
0001
0000
,  // measure 9
0000
0000
1000
0010
,  // measure 10
0100
0001
1000
0100
,  // measure 11
0010
0001
1000
0000
,  // measure 12
0000
0000
0000
0000
,  // measure 13
0001
0100
0010
1000
,  // measure 14
0001
0010
0100
1000
,  // measure 15
0001
0100
0010
1000
,  // measure 16
0001
0000
0000
0000
,  // measure 17
0000
0000
1000
0100
,  // measure 18
0001
0100
1000
0010
,  // measure 19
0001
0010
1000
0100
,  // measure 20
0010
0001
1000
0010
,  // measure 21
0100
0001
0010
1000
,  // measure 22
0010
0001
0100
1000
,  // measure 23
0100
0001
0010
0100
,  // measure 24
1000
0001
0100
0010
,  // measure 25
1000
0000
0001
0000
,  // measure 26
0001
0000
1000
0000
,  // measure 27
1000
0000
0010
0000
,  // measure 28
0010
0000
0100
0000
,  // measure 29
0100
0000
0001
1000
,  // measure 30
0001
1000
0010
0100
,  // measure 31
0010
0100
0001
1000
,  // measure 32
0001
0000
1000
0010
,  // measure 33
0100
0001
1000
0100
,  // measure 34
1000
0100
0010
0100
,  // measure 35
0010
0100
0010
0001
,  // measure 36
0010
0001
1001
0000
,  // measure 37
0001
0100
0010
1000
,  // measure 38
0100
0010
0001
0100
,  // measure 39
0010
1000
0001
0000
,  // measure 40
0010
0000
0100
0000
,  // measure 41
1000
0000
1001
0000
,  // measure 42
0000
0000
0000
0000
,  // measure 43
0000
0000
1000
0010
,  // measure 44
0100
0001
1000
0100
,  // measure 45
1100
0000
1000
0010
,  // measure 46
0100
0001
0010
0100
,  // measure 47
0110
0000
0010
0001
,  // measure 48
0100
0010
1000
0001
,  // measure 49
0010
0100
1000
0000
,  // measure 50
1000
0010
0100
0001
,  // measure 51
1000
0100
0010
0001
,  // measure 52
0100
0010
0100
0001
,  // measure 53
0011
0000
0010
0100
,  // measure 54
1000
0010
0100
0010
,  // measure 55
1010
0000
1000
0100
,  // measure 56
0010
0001
0100
0010
,  // measure 57
1000
0001
0010
0100
,  // measure 58
0010
0001
1001
0000
,  // measure 59
1000
0010
0100
0001
,  // measure 60
0010
0100
1000
0001
,  // measure 61
1001
0000
1000
0010
,  // measure 62
0100
0001
1000
0001
,  // measure 63
1001
0000
0001
0100
,  // measure 64
0010
1000
0001
0010
,  // measure 65
0100
1000
0001
0000
,  // measure 66
0001
0000
1000
0000
,  // measure 67
1000
0000
1001
0000
,  // measure 68
1001
0000
1001
0000
;
