#TITLE:Diamond Dust;
#SUBTITLE:;
#ARTIST:TAG;
#TITLETRANSLIT:;
#SUBTITLETRANSLIT:;
#ARTISTTRANSLIT:;
#CREDIT:Lisek;
#BANNER:[REFLEC BEAT] - Diamond Dust.png;
#BACKGROUND:[REFLEC BEAT] - Diamond Dust-bg.png;
#LYRICSPATH:;
#CDTITLE:cdtitle.png;
#MUSIC:[REFLEC BEAT] - Diamond Dust.ogg;
#OFFSET:-0.642;
#SAMPLESTART:17.039;
#SAMPLELENGTH:12.700;
#SELECTABLE:YES;
#BPMS:0.000=148.000,136.000=74.000,144.000=37.000,148.000=148.000,175.500=296.000,179.500=148.000;
#STOPS:175.500=0.203
,176.500=0.203
,177.500=0.203
,178.500=0.203
,179.500=0.203
;
#BGCHANGES:;

//---------------dance-single - Lisek----------------
#NOTES:
     dance-single:
     Lisek:
     Hard:
     7:
     0.444,0.521,0.322,0.211,0.050: // measure 1
0000
0000
0000
0000
,  // measure 2
0000
0000
0000
0000
,  // measure 3
0000
0000
0000
0000
,  // measure 4
0000
0000
0000
0000
,  // measure 5
1000
0000
0000
0010
0000
0000
1000
0000
0000
0100
0000
0000
1000
0000
0010
0000
,  // measure 6
0100
0000
0000
0001
0000
0000
0100
0000
0000
0010
0000
0000
0100
0000
0001
0000
,  // measure 7
1000
0000
0000
0100
0000
0000
1000
0000
0000
0010
0000
0000
1000
0000
0100
0000
,  // measure 8
0010
0000
0000
0001
0000
0000
0100
0000
0000
0001
0000
0000
0010
0000
0001
0000
,  // measure 9
0101
0100
0110
0010
,  // measure 10
1010
0000
0000
0110
0000
0000
0101
0000
0000
0110
0000
0000
1001
0000
1001
0000
,  // measure 11
1000
0100
1000
0010
0001
0010
0000
0100
,  // measure 12
0001
0010
1000
0010
0000
0001
0100
0001
,  // measure 13
0000
1000
0001
0100
1000
0100
1000
0100
,  // measure 14
0000
0001
0000
0010
0000
0100
1000
0001
,  // measure 15
1001
0000
0010
0100
0000
0010
0000
0100
,  // measure 16
0000
0001
0000
2000
0000
0000
3000
0000
,  // measure 17
0010
0000
0100
0001
0000
0100
0010
1000
,  // measure 18
0000
0100
0000
1000
0000
0010
0000
0100
,  // measure 19
0000
0001
0010
0001
0100
1000
0000
0100
,  // measure 20
0001
0010
1000
0010
0000
0001
1000
0001
,  // measure 21
0000
1000
0100
0001
0100
0001
0100
1000
,  // measure 22
0000
0010
0000
0100
0000
0001
1000
0100
,  // measure 23
0110
0000
0001
1000
0000
0001
0000
1000
,  // measure 24
0000
0010
0000
0200
0000
0000
0300
0000
,  // measure 25
0110
0000
0010
0110
0000
1010
0000
2002
,  // measure 26
0000
0000
0000
0000
0000
0000
0000
3003
,  // measure 27
1000
0001
0010
0100
0010
0001
1000
0000
,  // measure 28
0001
0100
0010
1000
0010
0100
0001
0000
,  // measure 29
1000
0010
0100
0001
0100
0010
1000
0000
,  // measure 30
0001
1000
0100
0010
0100
1000
0001
0000
,  // measure 31
1001
0000
0001
0000
0100
0010
1000
0000
,  // measure 32
1001
0000
1000
0000
0010
0100
0001
0000
,  // measure 33
1001
0000
0110
0000
,  // measure 34
1000
0000
0001
0100
0000
0010
0000
0100
,  // measure 35
0002
2003
3020
0230
,  // measure 36
0320
2030
3002
2003
,  // measure 37
3020
0030
0200
0300
0020
0030
0200
0301
,  // measure 38
1000
0100
0010
0100
1000
0001
0000
0100
,  // measure 39
0010
1000
0010
0100
0000
0001
1000
0010
,  // measure 40
0000
1000
0001
0010
0001
0100
0010
0100
,  // measure 41
0000
0001
0000
1000
0000
0001
0010
0001
,  // measure 42
1001
0000
1000
0001
0000
0100
0000
0010
,  // measure 43
0000
0100
0000
0010
0000
0000
0000
0000
,  // measure 44
1000
0000
0010
0100
0000
0001
0010
0110
,  // measure 45
0000
1100
0000
1001
0000
0101
0000
1001
,  // measure 46
1000
0010
1000
0100
0001
0000
0100
1000
,  // measure 47
0010
0100
1000
0000
0100
0001
1000
0000
,  // measure 48
0001
0100
0001
0010
1000
0010
1000
0000
,  // measure 49
0010
0000
0001
0000
1000
0010
0100
0101
,  // measure 50
0000
0100
0010
0000
1000
0000
0100
0000
,  // measure 51
0010
0000
0002
0000
0000
0003
0000
1001
,  // measure 52
0000
0100
0110
0000
1001
0000
0220
0000
,  // measure 53
0000
0000
0000
0000
0000
0000
0330
1010
,  // measure 54
0000
0010
0110
0000
2002
0000
0000
0000
,  // measure 55
0000
0000
3003
0000
;

//---------------dance-single - Lisek----------------
#NOTES:
     dance-single:
     Lisek:
     Beginner:
     1:
     0.055,0.080,0.000,0.020,0.000:
0000
0000
0000
0000
,
0000
0000
0000
0000
,
0000
0000
0000
0000
,
0000
0000
0000
0000
,
1000
0000
0000
0000
,
0001
0000
0000
0000
,
0100
0000
0000
0000
,
0010
0000
0000
0000
,
1000
0000
0000
0000
,
0000
0000
0000
0000
,
0001
0000
0000
0000
,
0100
0000
0000
0000
,
0010
0000
0000
0000
,
0100
0000
0000
0000
,
0001
0000
0000
0000
,
1000
0000
0000
0000
,
0010
0000
0000
0000
,
0100
0000
0000
0000
,
0010
0000
0000
0000
,
1000
0000
0000
0000
,
0001
0000
0000
0000
,
0010
0000
0000
0000
,
0001
0000
0000
0000
,
0000
0000
0000
0000
,
1000
0000
0000
0000
,
0000
0000
0000
0000
,
0001
0000
0000
0000
,
0000
0000
0000
0000
,
0100
0000
0000
0000
,
0000
0000
0000
0000
,
0010
0000
0000
0000
,
0000
0000
0000
0000
,
1000
0000
0000
0000
,
0000
0000
0000
0000
,
0002
0000
0000
0000
,
0000
0000
0003
0000
,
2000
0000
0000
3000
,
0001
0000
0000
0000
,
0000
0000
0000
0000
,
1000
0000
0000
0000
,
0000
0000
0000
0000
,
0010
0000
0000
0000
,
0000
0000
0000
0000
,
0100
0000
0000
0000
,
0000
0000
0000
0000
,
0000
0000
0000
0000
0000
0000
0000
0001
,
0000
0000
0000
0000
0000
0000
0000
1000
,
0000
0000
0000
0000
0000
0000
0000
0010
,
0000
0000
0000
0000
0000
0000
0000
0100
,
0000
0000
0000
0000
0000
0000
0000
0001
,
0000
0000
0000
0000
0000
0000
0000
1000
,
0000
0000
0000
0000
,
0000
0000
0000
0000
0000
0000
0000
0001
;

//---------------dance-single - Lisek----------------
#NOTES:
     dance-single:
     Lisek:
     Medium:
     4:
     0.267,0.247,0.030,0.101,0.000:
0000
0000
0000
0000
,
0000
0000
0000
0000
,
0000
0000
0000
0000
,
0000
0000
0000
0000
,
1000
0010
0100
0000
,
0001
0010
0100
0000
,
1000
0001
0100
0000
,
0001
1000
0010
0000
,
1000
0100
0010
0001
,
2002
0000
0000
3003
,
1000
0010
0100
0001
,
0010
0001
0100
0010
,
1000
0000
0001
0000
0010
0000
0100
1000
,
0000
0001
0000
0100
0000
0001
0000
0000
,
1000
0010
1000
0100
,
0010
0010
0010
0000
,
0001
0000
0100
0000
0010
0000
0100
0010
,
0000
0100
0000
0100
0000
0100
0000
0000
,
0001
0010
0001
0100
,
0010
0100
0001
1000
,
0010
0000
0100
0000
0001
0000
1000
0100
,
0000
0010
0000
0001
0000
1000
0000
0000
,
0001
0100
0010
0100
,
0001
0001
0001
0000
,
1000
0100
1000
0010
,
0100
0000
0000
0000
,
0001
0010
0001
0010
,
0001
0010
0001
0010
,
0100
1000
0100
1000
,
0100
1000
0100
1000
,
0001
0100
0010
1000
,
0001
0100
0010
1000
,
0001
0000
0100
0000
,
0001
0000
1000
0010
0000
0100
0000
0000
,
2002
0000
3003
M00M
,
0220
0000
0330
0MM0
,
2000
0000
3000
M000
0002
0000
0003
000M
,
1000
0100
0010
0100
,
1000
0010
0100
0001
,
1000
0000
0100
0000
1000
0000
0001
0100
,
0000
0010
0000
0100
0000
0001
0000
0000
,
1000
0100
1000
0010
,
0100
0100
0100
0000
,
0001
0000
1000
0000
0010
0000
0100
0010
,
0000
0010
0000
0010
0000
0010
0000
0010
,
0000
1000
0000
0100
0000
1000
0000
0010
,
0000
0100
0000
0001
0000
0010
0000
0001
,
0000
0100
0000
0001
0000
1000
0010
0000
,
0100
0000
0010
0000
1000
0000
0000
0001
,
0000
0010
0000
0001
0000
0100
0000
0010
,
0000
0010
0000
0010
0000
0000
0000
1000
,
0000
0010
0100
0000
0100
0000
0200
0000
,
0000
0000
0000
0000
0000
0000
0300
0010
,
0000
1000
0001
0000
0002
0000
0000
0000
,
0000
0000
0003
0000
;

//---------------dance-single - Lisek----------------
#NOTES:
     dance-single:
     Lisek:
     Easy:
     2:
     0.112,0.161,0.000,0.070,0.000:
0000
0000
0000
0000
,
0000
0000
0000
0000
,
0000
0000
0000
0000
,
0000
0000
0000
0000
,
1000
0000
0000
0000
,
0100
0000
0000
0000
,
0010
0000
0000
0000
,
0001
0000
0000
0000
,
1000
0000
0000
0000
,
0001
0000
0000
0000
,
1000
0000
0100
0000
,
1000
0000
0010
0000
,
0100
0000
0010
0000
,
2000
0000
0000
3000
,
0001
0000
0000
0000
,
1000
0000
0000
0000
,
0010
0000
0000
0000
,
0100
0000
0000
0000
,
0001
0000
0010
0000
,
0001
0000
0100
0000
,
0010
0000
0100
0000
,
0002
0000
0000
0003
,
1000
0000
0000
0000
,
0010
0000
0000
0000
,
1000
0000
0001
0000
,
1000
0000
0000
0000
,
0001
0000
0010
0000
,
0001
0000
0010
0000
,
0100
0000
1000
0000
,
0100
0000
1000
0000
,
0001
0000
1000
0000
,
0001
0000
1000
0000
,
0010
0000
0100
0000
,
0010
0000
0000
0000
,
2000
0000
3000
0000
,
0002
0000
0003
0000
,
2000
3000
0002
0003
,
1000
0000
0000
0000
,
0010
0000
0000
0000
,
0100
0000
0000
0000
,
0001
0000
0000
0000
,
0010
0000
0000
0000
,
0001
0000
0000
0000
,
1000
0000
0000
0000
,
0000
0000
0000
0000
,
0000
0000
0000
0001
0000
0000
0000
0100
,
0000
0000
0000
0010
0000
0000
0000
0100
,
0000
0000
0000
0001
0000
0000
0000
1000
,
0000
0000
0000
0010
0000
0000
0000
0100
,
0000
0000
0000
0010
0000
0000
0000
1000
,
0000
0000
0000
0001
0000
0000
0000
0100
,
0000
0000
0000
0001
0000
0000
0000
2000
,
0000
0000
0000
0000
0000
0000
0000
3001
,
0000
0000
0000
1000
0000
0000
0000
0000
;
