#TITLE:DRAGON KILLER;
#SUBTITLE:;
#ARTIST:96 vs. Mutsuhiko Izumi;
#TITLETRANSLIT:;
#SUBTITLETRANSLIT:;
#ARTISTTRANSLIT:;
#GENRE:;
#CREDIT:;
#BANNER:[REFLEC BEAT] - DRAGON KILLER.png;
#BACKGROUND:[REFLEC BEAT] - DRAGON KILLER - bg.png;
#LYRICSPATH:;
#CDTITLE:chen.png;
#MUSIC:[REFLEC BEAT] - DRAGON KILLER.ogg;
#OFFSET:-0.387;
#SAMPLESTART:49.542;
#SAMPLELENGTH:18.260;
#SELECTABLE:YES;
#BPMS:0.000=210.000;
#STOPS:;
#BGCHANGES:;
#KEYSOUNDS:;

//---------------dance-single - C. Yakumo----------------
#NOTES:
     dance-single:
     C. Yakumo:
     Challenge:
     13:
     0.885,0.999,0.066,0.514,1.000:
0000
0000
0000
0000
,
0000
0000
0000
0000
,
0000
0000
0000
0000
,
0000
0000
0000
0000
,
1000
0010
1000
0001
1000
0010
0100
0001
1000
0001
0010
0100
,
1000
0001
1000
0100
1000
0001
0010
0001
1000
0010
0100
0001
,
0100
0010
1000
0001
0010
0100
0010
0001
1000
0010
0100
0001
,
1000
0010
1000
0100
0010
0001
0100
0010
1000
0001
0010
0100
,
0010
0001
1000
0010
0100
0001
0010
0001
0010
0100
0000
1000
,
0010
0000
0000
1000
0100
1000
0001
0000
0010
0001
1000
0010
,
0100
0000
0001
0100
0010
1000
0100
0000
0020
0000
0000
0000
,
0031
0000
0000
0100
0010
0100
0001
0000
1000
0010
1000
0001
,
0010
0000
0100
1000
0001
0100
0010
0000
0100
0001
1000
0001
,
1000
0010
0100
0001
1000
0100
0010
0001
0100
0010
1000
0001
,
0010
0100
0010
0100
1000
0001
1000
0010
1000
0010
0100
0001
,
1000
0000
0000
0000
0000
0000
0000
0000
0100
0000
0000
0000
0000
0000
0000
0000
0010
0000
0000
0000
0001
0000
0000
0000
1000
0000
0000
0010
0000
0000
0100
0000
0000
0001
0000
0000
0010
0000
0000
0000
0100
0000
0000
0000
0010
0000
0000
0000
,
0001
1000
0010
0400
0000
0000
0000
0000
0000
0000
0000
0000
,
0302
0000
0000
0013
0000
0000
0200
0000
0310
0001
0000
0000
,
0200
0000
0000
0310
0000
0000
2000
0000
3100
0010
0000
0000
,
0200
0000
0000
1300
0000
0000
0002
0000
0103
0010
0000
0000
,
0200
0000
0000
0301
0000
0000
0020
0000
0130
1000
0000
0000
,
0020
0000
0000
0130
0000
0000
0002
0000
1003
0100
0000
0000
,
0020
0000
0000
0130
0000
0000
2000
0000
3001
0100
0000
0000
,
0020
0000
0000
0130
0000
0000
0002
0000
0103
0010
0000
0000
,
0100
0001
0100
0010
1000
0010
0100
0001
0100
0020
0000
0000
,
2030
0000
0000
3100
0000
0000
0020
0000
0130
1000
0000
0000
,
0002
0000
0000
0103
0000
0000
0020
0000
0130
0001
0000
0000
,
2000
0000
0000
3001
0000
0000
0200
0000
0310
1000
0000
0000
,
0200
0000
0000
1300
0000
0000
0002
0000
0103
0010
0000
0000
,
2000
0000
0000
3001
0000
0000
0020
0000
0130
1000
0000
0000
,
0020
0000
0000
0130
0000
0000
0002
0000
1003
0100
0000
0000
,
0020
0000
0000
0130
0000
0000
2000
0000
3010
0100
0000
0000
,
0001
0010
0001
1000
0001
1000
0100
0010
0100
1000
0010
0100
,
0002
0000
0203
0320
,
2030
0000
3400
0000
,
0320
0000
0000
0000
0000
0000
0031
0000
1000
0000
0010
0000
,
0100
0000
0001
0000
0100
0000
0010
0000
1000
0000
0001
0000
0040
0000
0000
0000
0000
0000
0000
0000
0000
0030
0000
0000
,
1002
0000
2003
3020
,
0230
0000
0302
0000
,
1003
0010
1000
0001
1000
0010
0100
0001
1000
0001
0010
0001
,
1000
0100
0010
0100
1000
0010
0100
0001
0010
0001
1000
0010
,
0100
0001
1000
0100
0000
0000
1000
0001
0010
0100
0000
0000
,
1000
0001
1000
0100
0010
0001
1000
0001
1000
0100
0010
0001
1000
0000
0000
0000
,
1020
0000
0000
0000
0000
0000
0000
0000
0000
0000
0000
0000
0130
0000
0000
0000
0001
0000
0000
0000
1000
0000
0000
0000
0100
0000
0000
0000
0010
0000
0000
0000
0001
0000
0000
0000
1000
0000
0000
0010
0000
0000
1000
0000
0000
0001
0000
0000
,
0100
0000
0000
0000
0010
0000
0000
0000
0100
0000
0000
0000
0001
0000
0000
0000
1000
0000
0000
0000
0100
0000
0000
0000
0010
0000
0000
0000
0000
0000
0001
0000
0000
1000
0000
0000
0200
0000
0000
0000
0000
0000
0000
0000
0310
0000
0000
0000
,
0002
0000
0000
0000
0000
0000
0000
0000
0000
0000
0000
0000
0013
0000
0000
0000
0100
0000
0000
0000
0010
0000
0000
0000
0001
0000
0000
1000
0000
0000
0010
0000
0000
0100
0000
0000
0010
0000
0000
0000
1000
0000
0000
0000
0001
0000
0000
0000
,
0020
0000
0000
0000
0130
2000
0000
0000
0000
0000
0000
0000
,
3010
0100
0001
1000
0100
0010
0100
1000
0001
0010
0100
1000
,
0001
0000
0000
0100
0000
0000
0010
0000
0000
1000
0000
0000
0010
0000
0100
0000
0010
0000
1000
0000
0001
0000
0100
0000
,
0001
0010
0100
1000
0010
1000
0100
0010
0001
0100
0001
1000
,
0200
0000
0000
0310
0001
1000
0010
0100
0010
0100
0000
0000
,
1002
0000
0000
0000
0000
0000
0000
0000
0000
0000
0000
0000
0103
0000
0000
0000
0010
0000
0000
0000
0100
0000
0000
0000
0001
0000
0000
0000
1000
0000
0000
0000
0001
0000
0000
0000
0010
0000
0000
0100
0000
0000
1000
0000
0000
0001
0000
0000
,
0100
0010
1000
0001
0010
0001
0200
0000
0000
0000
0000
0000
,
0320
0000
0000
0000
0000
0000
0000
0000
0000
0000
0000
0000
0000
0000
0000
0000
0000
0000
0030
0000
1000
0000
0000
0000
0001
0000
0000
0000
1000
0000
0000
0000
0010
0000
0000
0000
0100
0000
0000
0001
0000
0000
0010
0000
0000
0100
0000
0000
,
1000
0000
0000
0001
0000
0000
1000
0000
0000
0010
0000
0000
0100
0000
0000
0000
0001
0000
0000
0000
0010
0000
0000
0000
0100
0000
0000
0000
0010
0000
0000
0000
0001
0000
0000
0000
1000
0000
0000
0000
0000
0000
0000
0000
0000
0000
0000
0000
,
0200
0000
0000
0000
0000
0000
0000
0000
0000
0000
0000
0000
0320
0000
0000
0000
0000
0000
0000
0000
0000
0000
0000
0000
0031
0000
0000
0000
1000
0000
0000
0000
0010
0000
0000
0000
1000
0000
0000
0001
0000
0000
0010
0000
0000
0100
0000
0000
,
0010
0001
1000
0100
0010
0100
1000
0001
0010
0001
1000
0100
1000
0001
0100
0000
,
0010
0000
0000
0000
1000
0000
0000
0000
0001
0000
0000
0000
0010
0000
0000
0000
0100
0000
0000
0000
1000
0000
0000
0000
0001
0000
0000
0000
0000
0000
0010
0000
0000
0001
0000
0000
1000
0000
0000
0000
0000
0000
0010
0000
0000
0000
0000
0000
,
0100
0000
0000
0000
0000
0000
0001
0000
0000
0010
0000
0000
0100
0000
0000
0000
1000
0000
0000
0000
0001
0000
0000
0000
0100
0000
0000
0000
0010
0000
0000
0000
1000
0000
0000
0000
0100
0000
0000
0010
0000
0000
0001
0000
0000
1000
0000
0000
,
0001
0000
0000
0000
0100
0000
0000
0000
0010
0000
0000
0000
0100
0000
0000
0001
0000
0000
1000
0000
0000
0001
0000
0000
0010
0000
0000
0000
0100
0000
0000
0000
0010
0000
0000
0000
0001
0000
0000
0000
1000
0000
0000
0000
0010
0000
0000
0000
,
1000
0100
0010
0001
0010
0100
1000
0100
0010
0001
0010
0100
1000
0000
0000
0000
,
1002
0000
0000
0023
,
0130
1000
0001
1000
0010
0100
0010
1000
0001
0040
0000
0000
,
0130
0000
1000
0000
0010
0000
1000
0000
0002
0000
0000
0000
0000
0000
0000
0000
0013
0000
0100
0000
0000
1000
0000
0000
,
0400
0000
0000
0000
0000
0000
0000
0000
0300
0010
0000
0000
0001
0000
0000
1000
0000
0000
1020
0000
0000
0000
0000
0000
,
1030
0000
0000
0000
0001
0000
0000
0000
0100
0000
0000
0000
0001
0000
0000
0010
0000
0000
0100
0000
0000
1000
0000
0000
0001
0000
0000
0000
0100
0000
0000
0000
0001
0000
0000
0000
1000
0000
0000
0100
0000
0000
0010
0000
0000
0100
0000
0000
,
1000
0000
0000
0001
0000
0000
0100
0000
0000
0010
0000
0000
0100
0000
0000
0000
0001
0000
0000
0000
1000
0000
0000
0000
0100
0000
0000
0000
0010
0000
0000
0000
0001
0000
0000
0000
1000
0000
0000
0010
0000
0000
0100
0000
0000
0010
0000
0000
,
1000
0000
0000
0000
0002
0000
0000
0000
0000
0000
0000
0000
0000
0000
0000
0013
0000
0000
0100
0000
0000
1000
0000
0000
0001
0000
0000
0000
0100
0000
0000
0000
0001
0000
0000
0000
1000
0000
0000
0000
0100
0000
0000
0000
0010
0000
0000
0000
,
0001
0100
0040
0000
0000
0000
0000
0000
1030
0100
0010
0001
,
1000
0000
0000
0000
0001
0000
0000
0000
0010
0000
0000
0000
0100
0000
0000
0010
0000
0000
0001
0000
0000
1000
0000
0000
0010
0000
0000
0100
0000
0000
0010
0000
0000
1000
0000
0000
0100
0000
0000
0000
0010
0000
0000
0000
0001
0000
0000
0000
,
0010
0100
1000
0010
0400
0000
0000
0000
0000
0302
0000
0000
,
0000
0000
0000
0000
0000
0000
0013
0000
0000
0100
0000
0000
0010
0000
0000
0000
0001
0000
0100
0000
0000
0000
0010
0000
,
1000
0000
0001
0000
1000
0000
0100
0000
0010
0000
0001
0000
1000
0000
0000
0010
0000
0000
0210
0000
0000
0000
0000
0000
,
0302
0000
0010
1003
,
2100
3200
0320
0032
,
1003
0000
0000
0100
0000
0000
1000
0000
0000
0001
0000
0000
0010
0000
0000
0100
0000
0000
1000
0000
0000
0001
0000
0000
0200
0000
0000
0000
0000
0000
0000
0000
0000
0000
0000
0000
0310
0000
0000
0000
1000
0000
0000
0000
0100
0000
0000
0000
,
0010
0001
1000
0001
0010
0100
1000
0001
0100
0001
1000
0010
1000
0001
0100
0010
,
1000
0000
0000
0010
0000
0000
0100
0000
0000
0001
0000
0000
1000
0000
0000
0001
0000
0000
0010
0000
0000
0100
0000
0000
1000
0000
0000
0000
0100
0000
0000
0000
0020
0000
0000
0000
0000
0000
0000
0000
0032
0000
0000
0000
0000
0000
0000
0000
,
1003
0100
1000
0001
0100
0001
1000
0100
0010
0001
0100
0001
2000
0000
0000
0000
,
3001
0010
0100
1000
0100
0010
0001
1000
0001
0010
0100
1000
,
0001
0100
0001
1000
0010
0100
0001
1000
0010
0100
0001
1000
,
0100
0010
0001
1000
0001
0010
0001
1000
0001
0100
0010
1000
,
0100
0010
0001
1000
0100
1000
0001
1000
0100
0010
0001
1000
,
0010
0100
0010
1000
0001
0100
0001
1000
0010
0100
0010
1000
,
0001
0010
0001
1000
0100
0010
0001
1000
0001
0010
0001
0100
,
0010
1000
0001
1000
0010
0100
0001
1000
0100
0010
0001
1000
,
0001
1000
0001
1000
0100
0010
0001
1000
0010
0100
0010
1000
0001
0100
0010
1000
,
0001
0010
0001
0010
0100
1000
0100
0010
0001
1000
0001
0100
0010
0000
0000
0000
,
2002
0000
0000
0000
,
0000
0000
0000
0000
0000
0000
0000
0000
0000
0000
0000
0000
0000
0000
0000
3003
0000
0000
1001
0000
0000
0000
1000
0000
,
0020
0000
0000
0000
0000
0030
0000
0000
;

//---------------dance-single - C. Yakumo----------------
#NOTES:
     dance-single:
     C. Yakumo:
     Hard:
     10:
     0.567,0.799,0.257,0.294,0.661:
0000
0000
0000
0000
,
0000
0000
0000
0000
,
0000
0000
0000
0000
,
0000
0000
0000
0000
,
1000
0001
0001
0101
,
0100
0100
0100
0100
,
0110
0010
1010
1000
,
1002
0000
0000
0000
,
0000
0000
0000
0000
0000
0000
0013
0100
0010
0001
0000
1000
,
0001
0100
1010
0100
,
0011
0000
0000
1000
0000
0000
0101
0000
0002
0000
0000
0000
,
0013
0100
1010
0100
,
1001
0010
4000
0000
,
0000
0000
0000
0000
,
3004
0000
0000
0000
0000
0000
0000
0000
0000
0000
0103
0010
,
1000
0000
0100
0000
0010
0001
1000
0001
1000
0100
0000
0010
,
0001
1001
1010
0101
,
0012
0000
0000
1003
0000
0000
0020
0000
0130
0001
0000
0000
,
0020
0000
0000
0130
0000
0000
2000
0000
3001
0100
0000
0000
,
0020
0000
0000
1030
0000
0000
0002
0000
0013
0100
0000
0000
,
2000
0000
0000
3100
0000
0000
0020
0000
0001
0130
0000
0000
,
0020
0000
0000
0130
0000
0000
0002
0000
1003
0100
0000
0000
,
0020
0000
0000
0130
0000
0000
2000
0000
3001
0100
0000
0000
,
0020
0000
0000
0130
0000
0000
0002
0000
0013
0100
0000
0000
,
1000
0001
1000
0001
1000
0001
1000
0001
1000
0200
0000
0000
,
2300
0000
0000
3010
0000
0000
0200
0000
0310
1000
0000
0000
,
0002
0000
0000
0013
0000
0000
0200
0000
0310
0001
0000
0000
,
2000
0000
0000
3001
0000
0000
0020
0000
0130
1000
0000
0000
,
0020
0000
0000
1030
0000
0000
0002
0000
0103
0010
0000
0000
,
2000
0000
0000
3001
0000
0000
0200
0000
0310
1000
0000
0000
,
0200
0000
0000
0310
0000
0000
0002
0000
1003
0010
0000
0000
,
0200
0000
0000
0310
0000
0000
2000
0000
3001
0010
0000
0000
,
0001
0100
0001
0100
0001
0100
0001
0100
0001
0100
0010
1000
,
0001
0000
0000
0101
0000
0000
0100
0000
0010
1000
0000
0000
,
0100
0000
0000
0110
0000
0000
0010
0000
0001
1000
0000
0000
,
0010
0000
0000
0110
0000
0000
0100
0000
0001
0010
0000
0000
,
0100
0000
0000
1100
0000
0000
1000
0000
0010
0100
0000
0100
,
0001
0000
0000
0010
0000
0000
0110
0000
0100
1000
0000
0000
,
0001
0000
0000
0100
0000
0000
0110
0000
0010
1000
0000
0000
,
1001
0000
0000
0011
0000
0000
0010
0001
0010
0100
0000
0000
,
1100
0000
0000
1010
0000
0000
0010
0100
0010
1000
0000
0000
,
0100
0010
0001
1000
0000
0000
0100
1000
0001
0010
0000
0000
,
0001
1000
0001
1000
0001
1000
0001
1000
0001
1000
0000
0000
,
0010
0000
0000
0100
0000
0000
0001
0000
0010
0001
0000
1000
,
0100
0000
1000
0010
0000
0100
0001
0000
0010
0001
0000
1000
,
0100
0000
0000
0010
0000
0001
0100
0000
0010
1000
0000
0100
,
0010
0000
0000
0100
0000
1000
0000
0000
0000
0000
0000
0000
,
0001
0000
0001
0100
0000
0100
0010
0000
0010
1000
0000
1000
,
0001
0000
0001
1000
0000
1000
0100
0000
0100
0010
0000
0000
,
0001
0100
0001
0100
0001
0100
0001
0010
0001
0010
0001
0010
,
0100
0000
0000
1000
0001
1000
0001
0100
0001
0100
0000
0000
,
0010
0000
0000
1000
0000
1000
0010
0000
0100
0001
0000
0001
,
0010
0000
0100
1000
0000
1000
0001
0000
0000
0000
0000
0000
,
0200
0000
0000
0000
0000
0000
0310
1000
0001
1000
0001
0010
,
0100
1000
0001
1000
0010
0100
0010
1000
0001
0010
0000
0000
,
0110
0000
0000
1100
0000
0000
1000
0001
1000
0001
0100
0010
,
1000
0100
1000
0100
0010
0001
0100
0001
0100
0001
1000
0010
,
0100
0000
0100
0001
0000
0001
0010
0000
0010
0100
0000
0100
,
1000
0000
1000
0010
0000
0010
0100
0000
0100
0001
0000
1000
,
0001
0100
0001
1000
0000
0000
0100
1000
0100
0010
0000
0000
,
0004
0000
0000
0003
,
2000
0000
0000
0000
,
3400
0000
0000
0310
,
0011
0000
0000
0000
0000
2000
0000
0000
3010
0100
0001
0100
,
0040
0000
0000
1030
,
1004
0000
0000
0000
,
0000
0000
0000
0013
,
0410
0000
0000
1300
,
1040
0000
0000
0130
,
0104
0000
4003
0000
,
0000
3002
0000
0013
,
0110
0000
0000
0100
0000
1000
0000
0001
0000
0100
0010
0100
,
0001
1000
0100
0010
0001
0010
0200
0000
0000
1300
0000
0000
,
1020
0000
0100
1030
,
0011
0010
0100
1000
,
0001
0100
0001
1000
0001
0100
0010
1000
0010
0100
0010
1000
,
0001
1000
0100
1000
0001
1000
0100
0010
0001
1000
0001
0010
,
0001
0100
0001
1000
0010
0100
0001
1000
0100
0010
0001
1000
,
0040
0000
0000
0130
,
0001
0000
1000
0100
0000
0000
0010
0000
0100
1000
0000
0000
,
0010
0000
0100
0001
0000
0000
0010
0000
0001
1000
0000
0000
,
0100
0000
0010
0001
0000
0000
0100
0000
0010
1000
0000
0000
,
0001
0000
1000
0100
0000
0000
0010
0000
0001
0100
0000
0000
,
0010
0000
1000
0100
0000
0000
0010
0000
0100
1000
0000
0000
,
0001
0000
0100
0010
0000
0000
1000
0000
0001
0100
0000
0000
,
0010
0000
1000
0100
0000
0000
0010
0000
0001
1000
0000
0000
,
0040
0000
0000
0000
,
0430
0000
0000
0301
,
2020
0000
0000
0000
,
0000
0000
0000
0000
0000
0000
0000
0000
0000
0000
0000
0000
0000
0000
0000
3030
0000
0000
1010
0000
0000
0000
1000
0000
,
0002
0000
0000
0000
0000
0003
0000
0000
;

//---------------dance-single - C.Yakumo----------------
#NOTES:
     dance-single:
     C.Yakumo:
     Beginner:
     1:
     0.077,0.099,0.015,0.000,0.000:
0000
0000
0000
0000
,
0000
0000
0000
0000
,
0000
0000
0000
0000
,
0000
0000
0000
0000
,
1000
0000
0000
0000
,
0001
0000
0000
0000
,
0100
0000
0100
0000
,
0100
0000
0000
0000
,
0000
0000
0000
0000
,
0001
0000
0000
0000
,
0000
0000
0000
0000
,
0010
0000
0000
0000
,
0000
0000
0000
0000
,
0100
0000
0000
0000
,
1000
0000
0000
0000
,
0001
0000
1000
0000
,
0001
0000
0000
0000
,
0010
0000
0000
0000
,
0100
0000
0000
0000
,
1000
0000
0000
0000
,
0000
0000
0000
0000
,
0001
0000
0000
0000
,
0100
0000
0000
0000
,
0010
0000
0000
0000
,
1000
0000
0000
0000
,
0001
0000
0000
0000
,
1000
0000
0000
0000
,
0100
0000
0000
0000
,
0010
0000
0000
0000
,
0000
0000
0000
0000
,
0001
0000
0000
0000
,
1000
0000
0000
0000
,
0010
0000
0000
0000
,
0100
0000
0000
0000
,
0001
0000
0000
0000
,
0100
0000
0000
0000
,
0010
0000
0000
0000
,
1000
0000
0000
0000
,
0001
0000
0000
0000
,
1000
0000
0000
0000
,
1000
0000
0000
0000
,
0001
0000
0001
0000
,
0001
0000
0000
0000
,
0010
0000
0000
0000
,
0000
0000
0000
0000
,
0100
0000
0000
0000
,
0000
0000
0000
0000
,
1000
0000
0000
0000
,
0000
0000
0000
0000
,
0010
0000
0000
0000
,
0000
0000
0000
0000
,
0100
0000
0000
0000
,
0000
0000
0000
0000
,
0001
0000
0000
0000
,
0000
0000
0000
0000
,
0010
0000
0000
0000
,
0000
0000
0000
0000
,
0010
0000
0000
0000
,
0100
0000
0000
0000
,
1000
0000
0000
0000
,
0001
0000
0000
0000
,
0010
0000
0000
0000
,
0000
0000
0000
0000
,
0001
0000
0000
0000
,
0000
0000
0000
0000
,
1000
0000
0000
0000
,
0000
0000
0000
0000
,
0100
0000
0000
0000
,
1000
0000
0000
0000
,
0001
0000
0000
0000
,
0000
0000
0000
0000
,
0100
0000
0000
0000
,
0000
0000
0000
0000
,
0010
0000
0000
0000
,
1000
0000
0000
0000
,
0001
0000
0000
0000
,
0010
0000
0000
0000
,
0100
0000
0000
0000
,
0000
0000
0000
0000
,
1000
0000
0000
0000
,
0010
0000
0000
0000
,
0100
0000
0000
0000
,
0001
0000
0000
0000
,
1000
0000
0000
0000
,
0001
0000
0000
0000
,
0100
0000
0000
0000
,
0010
0000
0000
0000
,
1000
0000
0000
0000
,
0110
0000
0000
0000
,
0000
0000
0000
0000
,
1001
0000
0000
0000
;

//---------------dance-single - Rikame----------------
#NOTES:
     dance-single:
     Rikame:
     Easy:
     4:
     0.203,0.264,0.029,0.154,0.000:
0000
0000
0000
0000
,
0000
0000
0000
0000
,
0000
0000
0000
0000
,
0000
0000
0000
0000
,
0001
0000
0000
0100
,
0001
0000
0000
0000
,
0010
0000
0100
0000
,
2000
0000
0000
0000
,
0000
0000
0000
0000
,
3001
0000
0010
0000
,
0100
0000
0010
0000
,
0001
0000
0100
0000
,
0001
0000
1000
0000
,
0200
0000
0000
0000
,
2300
0000
0000
0000
,
3001
0000
0100
0000
,
0010
0000
0000
0000
,
1000
0001
1000
0000
,
0010
0100
0010
0000
,
1000
0100
1000
0000
,
0001
0010
0001
0000
,
0100
0001
0100
0000
,
0010
1000
0010
0000
,
1000
0001
0010
0000
,
0200
0000
0000
0000
,
1300
0100
1000
0000
,
0001
0010
0001
0000
,
1000
0001
1000
0000
,
0100
1000
0100
0000
,
0010
0001
0010
0000
,
0001
0100
0001
0000
,
1000
0010
1000
0000
,
0200
0000
0000
0000
,
0310
0000
0001
1000
,
0010
0000
0100
0000
,
0010
0000
0000
0000
,
0000
0000
0000
0000
,
1000
0000
0001
1000
,
0100
0000
0010
0000
,
0100
0000
0000
0000
,
1000
0000
0000
0000
,
1001
0000
0110
0000
,
1001
0000
0000
0000
,
1000
0000
0010
0000
,
0100
0100
0100
0000
,
0020
0000
0000
0000
,
0000
0000
0000
0000
,
0130
0000
0001
0000
,
1000
0000
0010
0000
,
1000
0000
0001
0000
,
1000
0000
0100
0000
,
1000
0000
0001
0000
,
0010
0000
0100
0000
,
0010
0000
0001
0000
,
1000
0000
0010
0000
,
0100
0100
0001
0000
,
1000
0000
0100
0000
,
1000
0001
1000
0001
,
0010
0100
0010
0100
,
2000
0000
0000
0000
,
3002
0000
0000
0000
,
0203
0000
0000
0000
,
0000
0000
0000
0310
,
0020
0000
0000
0000
,
0000
0000
0000
1030
,
2000
0000
0000
0000
,
0000
0000
0000
3001
,
0002
0000
0000
1003
,
2000
0000
0000
3200
,
0000
0000
0000
0000
,
0000
0000
0000
0310
,
0020
0000
0000
0000
,
0000
0000
0000
0031
,
2000
0000
0000
3100
,
0020
0000
0000
0031
,
0200
0000
0000
0310
,
2000
0000
0000
3100
,
0020
0000
0000
0000
,
0000
0000
0000
0031
,
1000
0100
1000
0000
,
0001
0000
0100
0000
,
0010
1000
0010
0000
,
0100
0001
0000
0000
,
0010
0100
0010
0000
,
0001
0000
1000
0000
,
0100
0010
0100
0000
,
1000
0100
0010
0001
,
1000
0100
0010
0001
,
2000
0000
0000
0000
,
0000
0000
0000
3001
,
1001
0000
0000
0000
;

//---------------dance-single - C. Yakumo----------------
#NOTES:
     dance-single:
     C. Yakumo:
     Medium:
     7:
     0.315,0.399,0.228,0.375,0.000:
0000
0000
0000
0000
,
0000
0000
0000
0000
,
0000
0000
0000
0000
,
0000
0000
0000
0000
,
0001
0100
0001
0010
,
0100
1000
0010
1000
,
0100
0100
0010
0010
,
0002
0000
0000
0000
,
0000
0000
0000
0000
,
1003
0100
0010
0100
,
1000
0100
0010
0000
,
0001
0100
0001
1000
,
0001
0100
0001
0000
,
0020
0000
0000
0000
,
0230
0000
0000
0000
,
1300
0010
1000
0001
,
0010
0110
1100
1001
,
0002
0000
0203
0000
,
0320
0000
2030
0000
,
3002
0000
2003
0000
,
3200
0000
0000
0000
,
0320
0000
0032
0000
,
2003
0000
3020
0000
,
0230
0000
0302
0000
,
0023
0000
0000
0000
,
0032
0000
2003
0000
,
3020
0000
0230
0000
,
0320
0000
2030
0000
,
3200
0000
0000
0000
,
0320
0000
0230
0000
,
2300
0000
3002
0000
,
0203
0000
0320
0000
,
2030
0000
0000
0000
,
3100
0000
0010
0001
,
1000
0000
0010
0000
,
0100
0000
0001
1000
,
0001
0010
0100
1000
,
1010
0000
0010
0100
,
0001
0000
0010
0000
,
0100
0010
0001
1000
,
0100
0010
0001
1000
,
0001
0010
0100
1000
,
0001
0010
0100
1000
,
1001
0001
0100
0001
,
0010
0100
0010
0001
,
1000
0000
0010
0000
,
0100
0001
1000
0000
,
0100
0100
0010
0010
,
0001
0001
1000
1000
,
0020
0000
0000
0000
,
0230
0000
0000
0000
,
0301
1000
0100
0010
,
0001
1000
0010
0000
,
1000
0001
0100
0010
,
0100
0001
1000
0100
,
0010
0010
0001
1000
,
0010
0100
0010
1000
,
0001
0010
0001
1000
,
0100
0010
0001
0100
,
0010
1000
0001
1000
,
0200
0000
0000
0000
,
0320
0000
0000
0000
,
0000
0000
0030
0011
,
2001
0000
0000
0000
,
0000
0000
3000
1010
,
0210
0000
0000
0000
,
0000
0000
0300
0101
,
0021
0000
0030
0110
,
2100
0000
3000
1001
,
0201
0000
0000
0000
,
0000
0000
0000
0310
,
2010
0000
0000
0000
,
0000
0000
3000
1100
,
0120
0000
0031
1001
,
1020
0000
0130
0101
,
0021
0000
0130
1100
,
1020
0000
0130
0101
,
0021
0000
0000
0000
,
0000
0000
0030
0110
,
1100
1000
0001
0100
,
0010
1000
0100
0010
,
0001
0100
0010
1000
,
0001
0010
0100
0010
,
0001
0100
0010
0100
,
0001
1000
0010
0100
,
0001
0010
0001
1000
,
0200
0000
0000
0000
,
0000
0000
0000
0310
,
2002
0000
0000
0000
,
0000
0000
3003
1001
,
0220
0000
0000
0000
0000
0330
0000
0000
;
