#TITLE:Colorful Minutes;
#SUBTITLE:;
#ARTIST:Qrispy Joybox feat. Mao;
#TITLETRANSLIT:;
#SUBTITLETRANSLIT:;
#ARTISTTRANSLIT:;
#GENRE:;
#CREDIT:;
#BANNER:colorful minutes-bn.png;
#BACKGROUND:colorful minutes-bg.png;
#LYRICSPATH:;
#CDTITLE:;
#MUSIC:Colorful Minutes.mp3;
#OFFSET:-0.013080;
#SAMPLESTART:53.637718;
#SAMPLELENGTH:15.000000;
#SELECTABLE:YES;
#BPMS:0.000000=152.000000
;
#STOPS:
;
#BGCHANGES:;
#KEYSOUNDS:;
#ATTACKS:;

//---------------dance-single - ----------------
#NOTES:
     dance-single:
     :
     Hard:
     8:
     0.492762,0.479953,0.147678,0.168775,0.000000,297.000000,14.000000,16.000000,0.000000,0.000000,0.000000,0.492762,0.479953,0.147678,0.168775,0.000000,297.000000,14.000000,16.000000,0.000000,0.000000,0.000000:
// measure 0
0000
0000
0000
0000
,  // measure 1
0000
0000
0000
0000
,  // measure 2
0000
0000
0000
0000
,  // measure 3
0000
0000
0000
0000
,  // measure 4
0000
0000
0000
0000
,  // measure 5
0000
0000
0000
0000
,  // measure 6
0000
0000
0000
0000
,  // measure 7
0000
0000
0000
0000
0001
1000
0001
1000
,  // measure 8
0001
0000
0101
0000
0001
0100
0010
2000
,  // measure 9
0000
3001
1000
0010
0000
0200
0000
0310
,  // measure 10
1000
0000
1010
0000
0001
1000
0001
0200
,  // measure 11
0000
0310
0000
1000
0100
0001
0100
1000
,  // measure 12
0010
0000
1001
0000
0001
0010
0100
2000
,  // measure 13
0000
3010
1000
0010
0000
0200
0000
0301
,  // measure 14
0100
0000
0010
1000
0000
0001
1000
0100
,  // measure 15
0010
0001
1000
0100
0001
0100
1000
0001
,  // measure 16
0010
0010
0000
0100
0100
0000
1000
2000
,  // measure 17
0000
0000
0000
3000
,  // measure 18
1000
0001
1000
0000
0001
1000
0100
0000
,  // measure 19
1000
0010
1000
0001
1000
0010
0100
0001
,  // measure 20
1000
0100
1000
0000
0001
0100
0001
0000
,  // measure 21
0001
0100
0010
0010
1000
0100
0001
0001
,  // measure 22
0100
1000
0010
0000
0100
0001
0100
0000
,  // measure 23
0001
0010
1000
0010
0001
0010
0100
0000
,  // measure 24
1000
0001
1000
0000
0010
0100
0001
0000
,  // measure 25
1000
1000
0001
0100
1000
0100
0001
0010
,  // measure 26
0100
0100
0000
1000
1000
0000
1001
0000
,  // measure 27
1000
1000
0000
0100
0100
0000
0000
0000
,  // measure 28
1000
1000
0000
0001
0001
0000
0011
0000
,  // measure 29
0001
0001
0000
0100
0100
0010
0100
0001
,  // measure 30
0100
0000
0001
0010
0001
0010
0100
0000
,  // measure 31
1000
0000
0010
1000
0010
1000
0100
0000
,  // measure 32
0110
0000
0010
0001
1000
0001
1000
0100
,  // measure 33
0010
0001
0100
0010
2000
0000
3000
0000
,  // measure 34
1001
0000
0101
0000
0010
1000
0100
0020
,  // measure 35
0000
0031
0010
0001
0000
0200
0000
0301
,  // measure 36
0100
0000
0101
0000
0001
0100
1000
0200
,  // measure 37
0000
0310
0000
1000
0100
0010
0001
1000
,  // measure 38
0001
0000
1001
0000
1000
0010
0001
0020
,  // measure 39
0000
0130
0001
1000
0000
0100
1000
0010
,  // measure 40
1000
0000
0001
0100
0000
0010
1000
0001
,  // measure 41
0010
0000
0001
0100
1000
0100
0001
0010
,  // measure 42
0100
0100
1000
0001
1000
0100
0000
1100
,  // measure 43
0000
0010
0100
0001
1000
0000
0001
0001
,  // measure 44
0100
0001
0010
0100
0100
0010
0000
0110
,  // measure 45
0000
1001
0000
1000
0100
0001
0100
1000
,  // measure 46
0010
0100
0100
0002
0000
1003
0010
0200
,  // measure 47
0000
0301
0100
2000
0000
3100
0001
0010
,  // measure 48
0100
0000
1000
0010
0000
0010
0100
0001
,  // measure 49
1000
0001
1000
0100
1000
0000
0100
0000
,  // measure 50
0010
0010
0000
0001
0001
0000
1000
1000
,  // measure 51
0000
0001
0200
0000
0310
0000
1000
0001
,  // measure 52
0010
0010
0000
0001
0001
0000
1000
1000
,  // measure 53
0000
0000
1001
0000
0001
0100
1000
0100
,  // measure 54
0001
0001
0000
1000
1000
0000
0010
0010
,  // measure 55
0000
1000
0020
0000
0130
0000
0001
0100
,  // measure 56
0010
1000
0100
0000
1000
0100
0010
0001
;

//---------------dance-single - ----------------
#NOTES:
     dance-single:
     :
     Medium:
     5:
     0.355632,0.419959,0.189871,0.210968,0.000000,198.000000,18.000000,20.000000,0.000000,0.000000,0.000000,0.355632,0.419959,0.189871,0.210968,0.000000,198.000000,18.000000,20.000000,0.000000,0.000000,0.000000:
0000
0000
0000
0000
,
0000
0000
0000
0000
,
0000
0000
0000
0000
,
0000
0000
0000
0000
,
0000
0000
0000
0000
,
0000
0000
0000
0000
,
0000
0000
0000
0000
,
0000
0000
1000
0001
,
1001
0000
0001
0000
0100
0010
1000
0100
,
0000
0010
0001
0001
0000
2002
0000
3003
,
1000
0000
0100
0000
0001
0100
0000
1000
,
0000
0010
0000
0220
0000
0000
0330
0000
,
0100
0000
0001
0000
0010
0100
1000
0100
,
0000
0000
1000
0020
0000
0130
0000
0010
,
0200
0000
0301
0002
0000
0000
1003
2000
,
0000
0000
3100
0010
0001
1000
0000
0000
,
0010
0010
0000
1000
1000
0000
0001
0002
,
0000
0000
0003
0000
,
1000
0001
1000
1000
,
0100
1000
0010
0010
,
0100
0001
0100
0100
,
0010
0000
1000
0000
0001
1000
0100
0020
,
0000
0030
0001
0000
0001
0000
0100
0000
,
0001
1000
1000
0010
,
0100
0001
1000
1000
,
0100
0001
0100
0100
,
1100
0000
0000
0110
0000
0000
0101
0000
,
0000
0000
0000
0000
,
0011
0000
0000
0101
0000
0000
1001
0000
,
0000
0000
1000
0001
,
1001
1000
0100
1000
,
1000
0010
0100
0010
,
0110
0100
0001
0010
,
0100
0100
1001
0000
,
1000
0000
0001
0000
0010
0001
0010
0200
,
0000
1300
0010
0100
0000
0220
0000
0330
,
0100
0000
0001
0000
0010
0100
0000
1000
,
0000
0001
0000
2002
0000
0000
3003
0000
,
1000
0000
0001
0000
1000
0100
0001
0200
,
0000
1300
1000
0010
0000
0220
0000
0330
,
0100
0000
0001
0002
0000
0003
1000
0100
,
0000
0000
1000
0010
0100
0002
0000
0003
,
1000
0100
1000
1000
,
0010
0100
0001
0001
,
0010
0001
0100
0010
,
1000
0001
1001
1001
,
1000
0100
0001
0100
,
1000
0010
0100
0010
,
0100
0100
0001
0010
,
0100
1000
0001
1000
,
0001
0001
0000
0100
0100
0000
0010
0010
,
0000
1000
1000
0000
0000
0000
0000
0000
,
1000
1000
0000
0100
0100
0000
0010
0010
,
0000
0000
0001
0001
,
1000
1000
0000
0001
0001
0000
0100
0100
,
0000
0010
0010
0000
0000
0000
0000
0000
,
0100
0100
0000
0001
0001
0000
1000
1001
;

//---------------dance-single - ----------------
#NOTES:
     dance-single:
     :
     Easy:
     2:
     0.168775,0.178796,0.000000,0.000000,0.000000,112.000000,0.000000,0.000000,0.000000,0.000000,0.000000,0.168775,0.178796,0.000000,0.000000,0.000000,112.000000,0.000000,0.000000,0.000000,0.000000,0.000000:
0000
0000
0000
0000
,
0000
0000
0000
0000
,
0000
0000
0000
0000
,
0000
0000
0000
0000
,
0000
0000
0000
0000
,
0000
0000
0000
0000
,
0000
0000
0000
0000
,
0000
0000
0001
0001
,
0001
0000
0100
0000
,
0100
0000
0001
0000
,
0001
0001
1000
0000
,
1000
0000
0010
0010
,
0010
0000
0100
0000
,
0100
0000
0010
0000
,
0010
0010
0010
0000
,
1000
1000
1000
0000
,
0001
0000
1000
0000
,
0001
0000
0000
0000
,
1000
0000
0100
0000
,
0010
0000
0001
0000
,
0100
0000
0010
0000
,
0100
0000
0001
0001
,
0001
0000
1000
0000
,
1000
0000
0010
0000
,
0010
0000
0100
0000
,
0001
0000
0100
0100
,
0100
0000
0001
0000
,
1000
0000
0100
0000
,
1000
0000
0001
0000
,
0100
0000
0001
0001
,
0001
0000
1000
1000
,
1000
0000
0010
0010
,
0010
0000
0100
0100
,
0100
0000
0000
0000
,
0001
0000
0001
0000
,
0100
0000
0100
0000
,
0010
0000
0010
0000
,
1000
0000
1000
1000
,
1000
0000
0100
0000
,
0100
0000
0010
0000
,
0010
0000
0100
0000
,
0100
0000
1000
1000
,
1000
0000
0001
0000
,
0100
0000
1000
0000
,
0100
0000
0001
0000
,
0100
0000
0100
0100
,
0100
0000
0001
0000
,
0001
0000
1000
0000
,
1000
0000
0100
0000
,
0010
0010
0010
0000
,
0001
0000
0001
0000
,
0001
0000
0001
0000
,
0100
0000
0100
0000
,
0100
0000
0100
0000
,
0010
0000
0010
0000
,
0010
0000
0010
0000
,
1000
0000
1000
0000
;
