#TITLE:Chinese Snowy Dance;
#SUBTITLE:;
#ARTIST:Mutsuhiko Izumi;
#TITLETRANSLIT:;
#SUBTITLETRANSLIT:;
#ARTISTTRANSLIT:;
#CREDIT:;
#BANNER:chinesebn.png;
#BACKGROUND:chinesebg.png;
#LYRICSPATH:;
#CDTITLE:cd.png;
#MUSIC:Chinese Snowy Dance.ogg;
#OFFSET:-0.260;
#SAMPLESTART:8.500;
#SAMPLELENGTH:10.860;
#SELECTABLE:YES;
#BPMS:0.000=175.000;
#STOPS:;
#BGCHANGES:;

//---------------dance-single - ----------------
#NOTES:
     dance-single:
     :
     Hard:
     11:
     0.930,0.926,0.100,0.170,0.878: // measure 1
0000
0000
0000
0000
,  // measure 2
0000
0000
0000
0000
0000
0000
0000
0000
1000
0010
1000
0010
0100
0001
0100
0001
,  // measure 3
1000
0010
0100
0000
0001
0000
0100
0010
1000
0000
0001
0000
0010
0100
1000
0000
,  // measure 4
0001
1000
0100
0000
0010
0000
0100
1000
0001
0000
0100
0000
0010
1000
0001
0000
,  // measure 5
0010
0100
1000
0000
0001
0000
1000
0100
0010
0000
0001
0000
1000
0001
0100
0000
,  // measure 6
0010
1000
0001
0000
0010
0000
0100
0000
1000
0001
0100
0000
0010
0000
1000
0001
,  // measure 7
1000
0010
0100
0000
0000
0000
0001
0010
0100
0000
1000
0000
0010
0000
0100
0000
,  // measure 8
0001
0000
0000
0000
1000
0000
0001
0000
0100
0000
0000
0000
0010
1000
0001
0010
,  // measure 9
0100
0000
0010
0000
0000
0000
0001
0010
0100
0000
1000
0000
0001
0000
0100
0000
,  // measure 10
0010
0000
0000
0000
1000
0100
0010
0000
0001
0000
0000
0000
1000
0010
1000
0010
,  // measure 11
0100
0001
1000
0000
0000
0000
0100
0010
0001
0000
1000
0000
0010
0000
0100
0000
,  // measure 12
0001
0000
0000
0000
1000
0000
0001
0000
0010
0000
0000
0000
0100
0010
0001
1000
,  // measure 13
0010
0000
0100
0000
0000
0000
0001
1000
0100
0000
0010
0000
0001
0000
1000
0010
,  // measure 14
0100
0000
0001
0000
1000
0000
0100
0010
0001
0000
0000
0000
1000
0001
1000
0001
,  // measure 15
0100
0000
0000
0100
0010
0000
0000
0010
0001
0000
0000
0001
0010
0000
0000
0010
,  // measure 16
1000
0000
0000
1000
0001
0000
0100
0010
1000
0000
0001
0100
0010
0000
1000
0000
,  // measure 17
0100
0000
0000
0100
0001
0000
0000
0001
0100
0000
0000
0100
0010
0000
0000
0010
,  // measure 18
1000
0000
0000
1000
0010
0000
0000
0010
0001
1000
0100
0010
0001
1000
0100
0010
,  // measure 19
0001
0000
0000
0001
0100
0000
0000
0100
1000
0000
0000
1000
0100
0000
0000
0100
,  // measure 20
0010
0000
0000
0010
1000
0000
0001
0100
0010
0000
1000
0010
0100
0000
0001
0000
,  // measure 21
1000
0000
0000
1000
0100
0000
0000
0100
0001
0000
0000
0001
0100
0000
0000
0100
,  // measure 22
1000
0000
0000
1000
0010
0000
0000
0010
0001
0000
0000
0001
0010
0000
0000
0010
,  // measure 23
0100
0001
0100
0000
0010
0000
1000
0001
1000
0000
0000
0000
0001
0100
0001
0100
,  // measure 24
0010
1000
0001
1000
0100
0010
0001
0010
0100
0000
1000
0002
0000
0000
0103
0000
,  // measure 25
0010
1000
0001
1000
0001
0100
0010
1000
0002
0000
0000
0000
0023
0000
0000
0000
,  // measure 26
0031
0000
1000
0000
0001
0010
0100
1000
0001
0200
0000
0000
0310
1000
0001
0020
,  // measure 27
0000
0130
1000
0001
1000
0100
0020
0000
0000
0000
0000
0000
0031
0010
0001
0010
,  // measure 28
0100
1000
0100
0010
0002
0000
1003
0010
0100
0001
0100
0010
1000
0000
0001
0000
,  // measure 29
0100
0010
0000
1000
0001
1000
0100
0020
0000
0000
0000
0000
0032
0000
0000
0000
,  // measure 30
1003
0100
0000
0010
0001
0000
1000
0000
0010
0100
0000
0001
1000
0000
0010
0000
,  // measure 31
0100
0000
0001
0000
1000
0100
0010
0000
0002
0000
0000
0000
1003
0000
0000
0000
,  // measure 32
0001
0100
0000
0001
1000
0000
0100
0000
1000
0001
1000
0000
0001
0100
0000
0000
,  // measure 33
0001
1000
0000
0001
1000
0100
0000
0010
0001
0000
1000
0010
0100
0000
0000
0000
,  // measure 34
0001
1000
0010
0000
0100
0000
0001
0000
1000
0100
0010
0000
0001
0000
0100
0000
,  // measure 35
0010
1000
0001
0000
0010
0000
0100
0000
1000
0010
0100
0000
0001
0000
1000
0000
,  // measure 36
0200
0000
0320
0000
,  // measure 37
0031
1000
0001
0000
0100
0000
0000
0000
0010
1000
0010
0000
0100
0000
0001
0000
,  // measure 38
1000
0100
1000
0100
0001
0100
0001
0100
,  // measure 39
0010
0001
1000
0100
0010
0001
1000
0100
,  // measure 40
1000
0010
1000
0010
0001
0010
0001
0010
,  // measure 41
0100
0001
1000
0010
0100
0001
1000
0010
,  // measure 42
1000
0100
0001
0100
1000
0100
0001
0100
,  // measure 43
1000
0010
0001
0010
1000
0010
0001
0010
,  // measure 44
1000
0100
0001
0100
1000
0100
0001
0100
,  // measure 45
1000
0001
1000
0000
0010
0000
0100
0000
0001
1000
0001
0000
0100
0000
0000
0000
,  // measure 46
1001
0101
0000
0001
0100
0010
1000
0100
,  // measure 47
0010
0000
0001
1000
0100
0000
1000
0001
,  // measure 48
1001
1100
0000
1000
0001
0010
0100
0010
,  // measure 49
1001
0000
0000
0000
0110
0000
0000
0000
1001
0000
0000
0000
0001
0100
0001
0100
,  // measure 50
0010
1000
0001
0000
0000
0000
1000
0100
0010
0000
0001
0000
1000
0000
0010
0100
,  // measure 51
0001
0000
0000
0000
1000
0000
0001
0000
0100
0000
0000
0000
0001
1000
0100
0010
,  // measure 52
0001
0000
1000
0000
0000
0000
0001
0100
0010
0000
1000
0000
0001
0000
0010
0100
,  // measure 53
1000
0000
0001
0000
0100
0000
0010
1000
0001
0000
0000
0000
1000
0001
1000
0001
,  // measure 54
0200
0000
0000
0000
,  // measure 55
0302
0000
0000
0000
1003
0000
0100
0010
0001
0000
0010
0100
1000
0000
0001
0000
,  // measure 56
0020
0000
0000
0000
,  // measure 57
0032
0000
0000
0000
2003
0000
0000
0000
3001
0100
0010
1000
0001
1000
0100
0010
,  // measure 58
0001
0000
0000
0001
1000
0000
0000
1000
0100
0000
0000
0100
0001
0000
0000
0001
,  // measure 59
0100
0000
0000
0100
0010
0000
0100
1000
0001
0000
1000
0001
0100
0000
0010
0000
,  // measure 60
1000
0000
0000
1000
0001
0000
0000
0001
1000
0000
0000
1000
0010
0100
0010
0100
,  // measure 61
0001
1000
0001
1000
0001
1000
0001
1000
,  // measure 62
0010
0100
0001
0000
1000
0000
0100
0010
0001
0000
0000
0000
0000
0000
0000
0000
,  // measure 63
1000
0010
0100
0000
0001
0000
1000
0100
0010
0000
0001
0000
0010
0100
1000
0000
,  // measure 64
0001
0100
0010
0000
1000
0000
0010
0100
0001
0000
1000
0000
0100
0010
0001
0000
,  // measure 65
1000
0010
0100
0000
0001
0000
0010
0100
1000
0000
0001
0000
1000
0100
0010
0000
,  // measure 66
0001
1000
0010
0000
0100
0000
0001
0000
1000
0100
0010
0000
0001
0000
0000
0000
,  // measure 67
1000
0010
0000
0100
0001
0000
1000
0000
0001
0100
0010
0000
1000
0001
0000
0000
,  // measure 68
1000
0010
0000
0100
0001
1000
0000
0100
0010
0000
0100
1000
0001
0000
0000
0000
,  // measure 69
1000
0010
0100
0000
0001
0000
1000
0000
0100
0010
0001
0000
1000
0000
0010
0000
,  // measure 70
0100
0001
1000
0000
0010
0000
0100
0000
0001
1000
0100
0000
0010
0000
0001
0000
,  // measure 71
1000
0000
0010
0000
0100
0000
0001
0000
1000
0100
1000
0000
0001
0000
0100
0000
,  // measure 72
1001
0000
0110
1001
0000
0000
0000
0000
;

//---------------dance-single - ----------------
#NOTES:
     dance-single:
     :
     Medium:
     9:
     0.680,0.641,0.220,0.180,0.065:
0000
0000
0000
0000
,
0000
0000
0000
0000
1000
0001
1000
0001
,
0100
0100
0001
1000
1000
0100
0010
0010
,
0001
0001
1000
0010
0010
0100
0001
0001
,
1000
1000
0100
0010
0010
0100
1000
1000
,
0001
0001
0100
0010
0010
1000
0001
0000
,
1000
1000
0000
0001
0100
0010
1000
0001
,
0010
0000
0010
0001
1000
0000
1000
0001
,
0100
0100
0000
0001
0100
0010
1000
0001
,
1000
0000
0001
0001
1000
0000
1001
0000
,
0001
0001
0000
0100
0010
1000
0001
0010
,
0100
0000
0100
0010
0001
0000
1000
0010
,
0100
0100
0000
0010
1000
0001
0010
0100
,
1000
0001
0100
0010
1000
0000
1010
0000
,
0010
0100
0001
1000
,
0100
0000
1000
0001
0100
0001
1000
0001
,
0010
0100
0010
0001
,
1000
0000
0010
0000
1000
0010
0100
0001
,
1000
0100
0010
0100
,
1000
0000
0010
0100
0001
0100
0010
0100
,
0001
1000
0100
0010
,
0001
1000
0010
0100
,
0001
0001
1000
0010
0100
0000
0110
0000
,
0010
0000
1000
0000
0001
0000
1000
0000
0100
0000
0000
0020
0000
0000
0031
0000
,
1000
0010
0100
0001
2000
0000
3200
0000
,
0310
0000
0001
0000
1000
0000
0010
0000
1000
0002
0000
0000
0103
0000
0010
2000
,
0000
3001
0100
0000
0010
0000
0200
0000
0000
0000
0000
0000
0302
0000
0000
0000
,
1003
0100
0020
0031
1000
0010
0100
0001
,
1000
0000
0000
0000
0001
0000
1000
0020
0000
0000
0000
0000
0230
0000
0000
0000
,
0301
1000
0001
1000
0010
0100
0010
0100
,
0001
1000
0100
0010
0002
0000
1003
0000
,
0001
0100
0000
0001
0100
0000
0010
0000
1000
0000
1000
0000
0001
0000
0000
0000
,
1000
0001
0000
1000
0001
0000
0000
0000
0100
0000
0010
0000
1000
0000
0000
0000
,
0001
0001
1000
0100
0010
0010
0001
1000
,
0010
0010
0100
0001
1000
1000
0001
1000
,
0200
0000
0320
0000
,
0031
1000
0010
0100
,
0001
1000
0001
1000
0001
0100
0001
0100
,
0010
1000
0001
0100
0010
1000
0001
0100
,
0010
1000
0010
1000
0010
0100
0010
0100
,
0001
1000
0100
0010
0001
1000
0100
0010
,
0001
1000
0100
1000
0001
1000
0100
1000
,
0001
0100
0010
0100
0001
0100
0010
0100
,
0001
1000
0100
1000
0001
1000
0100
1000
,
0001
0001
0010
0100
0010
0010
0001
0000
,
1001
1001
0000
0001
0100
0010
1000
0001
,
0100
0000
0001
1000
0100
0000
1000
0000
,
1001
1001
0000
0001
0100
0010
1000
0001
,
0010
0110
1001
0101
,
0100
0100
0000
0010
1000
0100
0010
0001
,
1000
0000
0001
0100
0010
0000
1000
0001
,
0100
0100
0000
0010
1000
0001
0010
0100
,
0010
0000
0100
0100
1000
0000
1010
0000
,
0020
0000
0000
0000
,
0230
0000
0301
1000
0100
0010
0001
1000
,
0020
0000
0000
0000
,
0230
0000
0302
0000
1003
0010
0100
0001
,
1000
0100
0010
0001
,
0100
0010
1000
0001
,
1000
0010
0100
0110
,
1001
1001
0101
0101
,
0110
0110
1001
0000
,
1000
1000
0001
0010
0010
0100
1000
1000
,
0001
0001
0100
0010
0010
0100
0001
0001
,
1000
1000
0100
0010
0010
0001
0100
0100
,
0010
0010
1000
0001
0001
0100
0010
0000
,
1000
0010
0000
1000
0010
0000
0100
0000
0001
0000
0001
0000
1000
0000
0000
0000
,
0001
0100
0000
0001
0100
0000
0000
0000
0010
0000
1000
0000
0001
0000
0000
0000
,
1000
1000
0100
0010
0001
0001
0010
0100
,
1000
1000
0001
0100
0010
0010
1000
0001
,
0100
0100
0010
0010
,
1001
0000
0110
0110
0000
0000
0000
0000
;

//---------------dance-single - ----------------
#NOTES:
     dance-single:
     :
     Easy:
     6:
     0.435,0.641,0.549,0.060,0.000:
0000
0000
0000
0000
,
0000
0000
1001
1001
,
0001
0100
0010
1000
,
0001
1000
0100
0010
,
0100
1000
0001
0100
,
0001
1000
1001
1001
,
0001
0000
0100
0010
,
1000
0001
0010
0100
,
1000
0000
0010
0100
,
0001
1001
1001
0000
,
1000
0000
0100
0010
,
0100
1000
0001
0100
,
0010
0000
1000
0010
,
0100
0110
0110
0000
,
0010
0010
0100
0100
,
0001
0001
1000
1000
,
0100
0100
0010
0010
,
0001
0001
1000
1000
,
0010
0010
0100
0100
,
0001
0001
1000
1000
,
0100
0100
0010
0010
,
0100
0100
1000
1000
,
1001
1001
1001
0000
,
0001
0100
0001
0100
,
0010
1000
0010
1000
,
0010
0100
0010
0100
,
0001
0100
0001
0100
,
0001
1000
0001
1000
,
0100
0010
0100
0010
,
0100
1000
0100
1000
,
0001
1000
0001
1000
,
0110
0110
0110
0110
,
1001
0000
0110
0000
,
1001
1001
1001
1001
,
0110
0110
0110
0110
,
2000
0000
3002
0000
,
2003
0000
3002
0000
,
1003
1000
0001
0001
,
1000
1000
0001
0001
,
0100
0100
0010
0010
,
0100
0100
0010
0010
,
1000
1000
0100
0100
,
0010
0010
0001
0001
,
1000
1000
0100
0100
,
0010
0010
0001
0001
,
1001
0000
1000
0010
,
0100
0001
1000
0100
,
1001
0000
0110
0110
,
1001
1001
1001
0000
,
1000
0000
0010
0100
,
0001
1000
0100
0010
,
0001
0000
0100
0010
,
1000
1001
1001
0000
,
0001
0000
0000
0000
,
0001
0000
0000
0000
,
1000
0000
0000
0000
,
1000
0000
0000
0000
,
0010
0100
0001
1000
,
0100
0010
0100
1000
,
0001
0100
0010
1000
,
0001
1000
0100
1000
,
0110
0110
1001
0000
,
1000
0010
0100
0001
,
1000
0001
0010
0100
,
0010
0001
1000
0010
,
1000
0001
1001
1001
,
0110
0110
0110
0110
,
1001
0000
0110
0000
,
1001
1001
1001
1001
,
0110
0110
0110
0110
,
2002
0000
0000
3003
,
0110
0000
1000
0001
0000
0000
0000
0000
;

//---------------dance-single - ----------------
#NOTES:
     dance-single:
     :
     Beginner:
     2:
     0.154,0.320,0.070,0.000,0.000:
0000
0000
0000
0000
,
0000
0000
0000
0000
,
1000
0000
0000
0000
,
0100
0000
0000
0000
,
0010
0000
0000
0000
,
0001
0000
0001
0000
,
0001
0000
0000
0000
,
0100
0000
0000
0000
,
0010
0000
0000
0000
,
1000
0000
0000
0000
,
0100
0000
0000
0000
,
0010
0000
0000
0000
,
0001
0000
0000
0000
,
1000
0000
1000
0000
,
1000
0000
0000
0000
,
0010
0000
0000
0000
,
0100
0000
0000
0000
,
0001
0000
0000
0000
,
1000
0000
0000
0000
,
0100
0000
0000
0000
,
0010
0000
0000
0000
,
0001
0000
0000
0000
,
1000
0000
1000
0000
,
1000
0000
0000
0000
,
0001
0000
0000
0000
,
0100
0000
0000
0000
,
0010
0000
0000
0000
,
0100
0000
0000
0000
,
0001
0000
0000
0000
,
1000
0000
0000
0000
,
0100
0000
0000
0000
,
0010
0000
0010
0000
,
0100
0000
0100
0000
,
1000
0000
1000
0000
,
0001
0000
0001
0000
,
0100
0000
0100
0000
,
0010
0000
0010
0000
,
0010
0000
1000
0000
,
0001
0000
0100
0000
,
0001
0000
1000
0000
,
0100
0000
1000
0000
,
0001
0000
0100
0000
,
0001
0000
1000
0000
,
0100
0000
1000
0000
,
0001
0000
0001
0000
,
1001
0000
0000
0000
,
0000
0000
0000
0000
,
1001
0000
0000
0000
,
1001
0000
1001
0000
,
1000
0000
0000
0000
,
0100
0000
0000
0000
,
0010
0000
0000
0000
,
0001
0000
0000
0000
,
1000
0000
0000
0000
,
0000
0000
0000
0000
,
0100
0000
0000
0000
,
0000
0000
0000
0000
,
1000
0001
1000
0001
,
1000
0001
1000
0001
,
1000
0001
1000
0001
,
1000
0001
1000
0001
,
1000
0000
1001
0000
,
0001
0000
0000
0000
,
0100
0000
0000
0000
,
0010
0000
0000
0000
,
1000
0000
1000
0000
,
1000
0000
0000
0000
,
0001
0000
0000
0000
,
0100
0000
0010
0000
,
1000
0000
0001
0000
,
0000
0000
0000
0000
,
1001
1001
0000
0000
;
