#TITLE:Blade;
#SUBTITLE:;
#ARTIST:青龍;
#TITLETRANSLIT:;
#SUBTITLETRANSLIT:;
#ARTISTTRANSLIT:Seiryu;
#CREDIT:;
#BANNER:[REFLEC BEAT] - Blade.png;
#BACKGROUND:[REFLEC BEAT] - Blade-background.png;
#JACKET:[REFLEC BEAT] - Blade-jacket.png;
#LYRICSPATH:;
#CDTITLE:;
#MUSIC:Blade.mp3;
#OFFSET:-0.097;
#SAMPLESTART:20.200;
#SAMPLELENGTH:12.000;
#SELECTABLE:YES;
#BPMS:0.000=191.000;
#STOPS:60.000=0.942
,121.000=0.942
,374.000=0.942
;
#BGCHANGES:;

//---------------dance-single - ----------------
#NOTES:
     dance-single:
     :
     Hard:
     10:
     0.698,0.936,0.624,0.261,0.154:
0000
0000
0000
0000
,
0000
0000
0000
0000
,
0000
0000
0000
0000
,
0000
0000
0000
0000
,
0000
0000
0000
0000
,
0000
0000
0000
0000
,
0000
0000
0000
0000
,
0000
0000
0000
0000
,
1001
0000
0101
0000
0000
0001
0100
0010
,
1010
0000
0011
0000
0000
0001
1000
0010
,
1010
0000
1100
0000
0000
1000
0001
0100
,
0201
0010
0302
1003
,
1100
0011
0101
1010
,
1001
0101
1010
1100
,
0100
0010
0100
0010
0100
0010
0100
0010
,
0100
0000
0012
0000
0103
0000
0010
0100
,
0001
0010
0210
0000
1300
0000
1000
0010
,
0100
0001
0021
0000
0031
0000
0010
0100
,
1000
0001
2001
0000
3002
0000
0203
0000
,
1300
0000
1200
0000
0310
0000
0100
0001
,
0010
0100
2100
0000
3001
0000
1000
0010
,
0100
0001
0021
0000
0130
0000
0100
0010
,
0001
1000
1002
0000
0103
0000
2001
0000
,
3100
0000
1000
0100
0010
0100
1000
0010
,
0100
0001
1000
0100
0010
0100
1000
0010
,
0100
0001
1000
0100
0010
0100
1000
0010
,
0100
0001
1002
0000
0013
0000
2001
0000
,
3010
1001
0101
1001
,
1100
1001
0101
1001
,
1100
0000
0001
0100
0001
0100
0001
0100
,
0001
0100
0001
0000
0010
0000
0100
0000
,
1000
0100
0010
0001
,
0100
0010
1000
0010
,
1000
0000
0001
0000
0010
0100
1000
0001
,
1000
0000
0100
1000
,
0100
1000
0001
0010
,
0100
0010
0001
0010
,
0001
0000
0100
0000
0010
0100
0001
0010
,
0100
0000
1000
0001
,
0010
0100
1000
0100
,
0010
0100
1000
0010
,
0001
0000
0010
0000
1000
0100
0010
0100
,
1000
0000
1000
0010
,
0100
0001
0010
1000
,
0010
0001
0100
0010
,
1000
0000
0001
0000
1000
0010
0100
0010
,
1000
0000
0001
1000
,
0001
0000
0000
0000
1000
0001
1000
0001
1000
0000
0000
0000
0001
0000
1000
0000
,
0001
0000
0100
0010
,
0100
0000
0000
0000
0010
0100
0010
0100
0010
0000
0000
0000
0100
0000
0010
0000
,
0100
0000
0101
0100
,
0001
0000
0000
0000
0100
0001
0100
0001
0100
0000
0000
0000
0001
0000
0100
0000
,
0001
0000
1010
1000
,
0010
0000
0000
0000
1000
0010
1000
0010
1000
0000
0000
0000
0010
0000
1000
0000
,
0010
0000
1001
1001
,
1001
0000
0000
0000
0100
0010
0100
0010
0110
0000
0000
0000
0110
0000
0000
0000
,
0110
0000
0000
0000
1000
0001
1000
0001
1001
0000
0000
0000
1001
0000
0000
0000
,
1001
0000
0000
0000
0010
0100
0010
0100
0110
0000
0000
0000
0110
0000
0000
0000
,
0110
0000
0001
1000
0001
0010
0100
0010
,
0001
0100
0010
1000
0100
0010
0100
1000
,
0001
0000
0100
0000
0010
0000
1000
0000
0001
0010
0001
0010
0100
0010
0100
1000
,
0100
1000
0100
0010
0001
1000
0100
1000
0001
0000
1000
0000
0010
0000
1000
0000
,
0001
0000
0011
0110
,
0010
0001
0100
0000
0010
1000
0100
1000
,
0001
0000
0001
1000
0100
0000
0110
0000
,
0100
1000
0010
0000
0100
0010
1000
0100
,
0010
0000
0110
1100
,
0100
0010
0001
0000
0010
0001
0100
0010
,
1000
0001
1000
0100
0010
0000
0100
0000
,
1000
0010
0001
0000
0001
0010
0100
0001
,
1000
0000
1002
0023
,
0130
0010
0002
0000
1003
0010
0100
0001
,
0200
0000
0310
0100
2001
0000
3020
0000
,
0130
0001
0200
0000
0310
1000
0100
0001
,
0200
0300
1200
0320
,
0130
0010
0200
0000
0310
0100
1000
0100
,
0010
0100
1000
0001
0020
0000
0230
0000
,
0310
0001
0200
0000
0310
0100
0010
1000
,
0002
0000
0003
0000
1000
0010
1001
0000
,
1000
0100
0010
0001
0010
0100
1100
0000
,
0100
0010
0001
1000
0001
0010
0110
0000
,
0010
0100
1000
0010
0110
0000
1001
0000
,
0100
0010
0100
0000
1001
0000
0000
0000
1000
0000
0010
0000
0101
0000
0000
0000
,
0010
0100
1000
0010
0100
0001
0011
0000
,
0010
0100
1000
0010
0100
0001
0101
0000
,
1000
0100
0010
0001
1001
0000
0110
0000
,
1000
0001
1000
0000
0110
0000
0000
0000
1000
0010
1000
0000
0010
0100
0010
0000
,
0100
0000
0001
0000
1000
0000
0100
0000
0010
0100
0010
0000
0001
0010
0001
0000
,
0010
0000
0100
0000
1000
0000
0100
0000
0010
0001
0010
0000
0100
0010
0100
0000
,
0010
0001
0100
0010
1000
0000
0101
0000
,
1000
0010
0100
0000
0011
0000
0000
0000
1100
0000
0000
0000
0011
0000
0000
0000
,
1010
0101
1010
1100
,
0011
0000
0000
0000
1100
0000
0000
0000
0010
0100
0010
0100
0010
0100
0010
0100
,
0010
0000
0000
0000
0100
0000
0000
0000
0010
0000
0000
0000
0100
0000
0000
0000
0010
0000
0000
0000
0100
0000
0000
0000
0010
0000
0000
0000
0100
0000
0000
0000
0002
0003
0000
0000
0000
0000
0000
0000
0000
0000
0000
0000
0000
0000
0000
0000
2002
0000
0000
0000
0000
0000
0000
0000
0000
0000
0000
0000
0000
0000
0000
0000
,
0000
0000
0000
3003
;

//---------------dance-single - ----------------
#NOTES:
     dance-single:
     :
     Medium:
     8:
     0.550,0.672,0.529,0.213,0.000:
0000
0000
0000
0000
,
0000
0000
0000
0000
,
0000
0000
0000
0000
,
0000
0000
0000
0000
,
0000
0000
0000
0000
,
0000
0000
0000
0000
,
0000
0000
0000
0000
,
0000
0000
0000
0000
,
0001
0000
1000
0000
0000
0100
1000
0000
,
0010
0000
0100
0000
0000
0001
0100
0000
,
0010
0000
1000
0000
0000
0010
1000
0000
,
0002
0000
2000
3003
,
0001
0100
0010
1000
,
0010
0100
0001
1000
,
0100
0010
0100
0010
0100
0010
0100
0010
,
0100
0000
1001
0000
0101
0000
0000
0001
,
0100
0010
1000
0000
1010
0000
0000
0010
,
0100
0001
1000
0000
1100
0000
0000
1000
,
0100
0010
0002
0000
0000
0000
0020
0000
,
0033
0000
0011
0000
0011
0000
0000
0001
,
0010
0100
1000
0000
1100
0000
0000
1000
,
0010
0100
0001
0000
0101
0000
0000
0001
,
1000
0010
0200
0000
0000
0000
0002
0000
,
0303
0000
0101
0000
1010
0000
0000
1000
,
0100
0001
0100
0000
0110
0000
0000
0010
,
0001
0010
1000
0000
1010
0000
0000
1000
,
0010
0001
0100
0000
0000
0000
0110
0000
,
0000
0001
0101
0100
,
0110
0010
1010
1000
,
1100
0000
0100
0010
0100
0010
0100
0010
,
0100
0010
0100
0000
1000
0000
0100
0000
,
0010
0010
0100
1000
,
0010
0100
0001
0001
,
1000
0000
1000
0000
1000
0100
0010
0001
,
0010
0000
0010
0001
,
0010
0010
0001
0100
,
0010
0100
0001
1000
,
0100
0000
1000
0000
0010
1000
0010
1000
,
0100
0000
1000
0001
,
0100
0100
0001
0010
,
0100
0010
0001
0001
,
1000
0000
1000
0000
0001
0010
0100
0010
,
0001
0000
0001
0100
,
0010
0010
0100
0001
,
1000
0100
0010
0100
,
1000
0000
0010
0000
1000
0100
0010
0100
,
1000
0000
1001
0001
,
1000
0000
0010
1000
0010
0000
0100
0001
,
0010
0000
0100
1000
,
0010
0000
0100
0010
0100
0000
0010
1000
,
0001
0000
0001
0100
,
0001
0000
1000
0100
0010
0000
0100
1000
,
0010
0100
0001
1000
,
0100
0000
0010
0001
0010
0000
0001
0100
,
0010
0000
1001
0101
,
1001
0000
1100
1001
,
0101
0000
0011
0110
,
1100
0000
1100
1001
,
0101
0000
0101
1010
,
1100
0011
0110
1001
,
0110
0000
1001
0000
0001
0100
0010
1000
,
0100
0010
0100
1000
0001
0100
1000
0100
,
0010
0000
1010
0101
,
0001
0100
0001
0000
0001
0100
0010
0100
,
0010
0000
0100
0010
1000
0000
0100
0000
,
0010
0100
1000
0000
0001
0100
0001
1000
,
0001
0000
1000
0100
,
1000
0010
0100
0000
0010
0100
0001
0010
,
0100
0010
0001
1000
0010
0000
0100
0000
,
0001
0010
0100
0000
0010
0100
1000
0001
,
1000
0000
0102
0103
,
0010
1000
0010
0000
1000
0100
1000
0100
,
1000
0000
0100
0010
0120
0000
0130
0000
,
0010
0001
0010
0000
0001
0100
1000
0100
,
0010
0000
1002
0103
,
0001
0100
0010
0000
1000
0010
0100
0001
,
1000
0100
0010
0001
0012
0000
0013
0000
,
0010
0100
1000
0000
0002
0000
0000
0000
,
0200
0303
0102
0103
,
0000
0010
0100
0010
2010
0000
3010
0000
,
0000
1000
0100
0010
0021
0000
0031
0000
,
0000
0001
0010
0100
2000
0000
0000
0000
,
0002
3003
0102
0103
,
0000
0010
1000
0010
0210
0000
0310
0000
,
0000
0100
0010
1000
1002
0000
0013
0000
,
0000
0010
0100
1000
0002
0000
0000
0000
,
2000
3003
0101
1010
,
0000
0010
0010
0100
0110
0000
0110
0000
,
0000
0001
0001
0100
0101
0000
0101
0000
,
0000
0100
0100
0010
0210
0000
0300
0000
,
2002
3003
1100
0011
,
0101
1010
1001
0110
,
1001
0000
1010
0000
0001
0010
0100
1000
,
0001
0010
0100
1000
0001
0000
2002
0000
,
0000
0000
3003
0000
;

//---------------dance-single - ----------------
#NOTES:
     dance-single:
     :
     Easy:
     6:
     0.387,0.630,0.498,0.111,0.000:
0000
0000
0000
0000
,
0000
0000
0000
0000
,
0000
0000
0000
0000
,
0000
0000
0000
0000
,
0000
0000
0000
0000
,
0000
0000
0000
0000
,
0000
0000
0000
0000
,
0000
0000
0000
0000
,
0001
0100
0000
0010
,
1000
1000
0000
0010
,
0100
0100
0000
0010
,
1001
0000
0110
0000
,
0001
0001
1000
1000
,
0001
0001
1000
1000
,
0010
0100
0010
0100
0010
0100
0010
0100
,
0010
0100
0001
0000
,
0100
0010
0010
0000
,
0100
0001
0001
0000
,
0100
0110
0000
1001
,
0000
0001
1000
0000
,
0001
0100
0100
0000
,
0001
1000
1000
0000
,
0001
0011
0000
1100
,
0000
1000
0100
1000
,
0010
0100
0001
1000
,
0100
1000
0010
0100
,
0001
1001
0000
0110
,
0000
0001
0100
0001
,
0100
0010
1000
0010
,
1000
0000
0001
0100
0001
0100
0001
0100
,
0001
0100
0001
0000
2000
0000
0000
0000
,
0000
0000
0000
0000
,
3000
0000
0002
0000
,
0000
0000
0000
0000
,
0003
0000
0200
0000
,
0000
0000
0000
0000
,
0300
0000
0002
0000
,
0000
0000
0000
0000
,
0003
0000
2000
0000
,
0000
0000
3200
0000
,
0000
0000
0320
0000
,
0000
0000
0001
0001
,
0031
0000
0002
0000
,
0000
0000
0023
0000
,
0000
0000
0230
0000
,
0000
0000
1000
1000
,
1300
0000
1001
0001
,
1000
0001
1000
0001
,
1000
0000
0010
0100
,
0010
0100
0010
0010
,
0010
0000
0101
0001
,
0100
0001
0100
0001
,
0100
0000
1000
0100
,
1000
0100
1000
1000
,
1000
0000
1001
1001
,
1001
0000
0110
0110
,
0110
0000
1001
1001
,
1001
0000
0110
0110
,
0110
0000
1001
1001
,
0110
0110
1001
0110
,
1001
0110
1001
0101
,
1001
0000
1100
0000
1000
0100
0010
0001
,
0010
0000
0001
0100
,
0010
0010
0100
0001
,
1000
0100
1000
0010
,
0100
0100
0001
0100
,
1000
0000
1000
0100
,
0010
1000
0010
0100
,
0001
0010
0100
1000
,
0100
1000
0010
0010
,
0010
0000
0100
0001
,
1000
0100
1000
1000
,
0001
0100
0001
0010
,
0001
0100
0010
0010
,
0010
0000
0100
0001
,
1000
0100
1000
1000
,
0001
0001
0100
0001
,
1000
0100
1000
1000
,
1000
0000
1100
1100
,
0000
0100
0110
0110
,
0000
0010
0011
0011
,
0000
0001
1002
0000
,
2000
3003
0101
0101
,
0000
0001
0100
0100
,
0000
0010
1010
1010
,
0000
0010
0200
0000
,
0002
0303
0101
1010
,
0000
0010
0110
1001
,
0000
0001
1100
0110
,
0000
0100
0110
0011
,
1100
0000
1001
0101
,
1001
1100
1001
0101
,
1001
0000
1001
0000
0001
0100
0010
1000
,
0001
0100
0010
1000
0001
0000
1001
0000
;

//---------------dance-single - ----------------
#NOTES:
     dance-single:
     :
     Beginner:
     3:
     0.260,0.444,0.332,0.000,0.000: // measure 1
0000
0000
0000
0000
,  // measure 2
0000
0000
0000
0000
,  // measure 3
0000
0000
0000
0000
,  // measure 4
0000
0000
0000
0000
,  // measure 5
0000
0000
0000
0000
,  // measure 6
0000
0000
0000
0000
,  // measure 7
0000
0000
0000
0000
,  // measure 8
0000
0000
0000
0000
,  // measure 9
0010
0000
0000
0000
,  // measure 10
0100
0000
0000
0000
,  // measure 11
0001
0000
0000
0000
,  // measure 12
1000
0000
0001
0000
,  // measure 13
0100
0000
0010
0000
,  // measure 14
1000
0000
0001
0000
,  // measure 15
0010
0010
0010
0010
,  // measure 16
0010
0001
0001
0000
,  // measure 17
0000
1000
1000
0000
,  // measure 18
0000
0001
0001
0000
,  // measure 19
0000
1001
0000
0110
,  // measure 20
0000
0010
0010
0000
,  // measure 21
0000
0100
0100
0000
,  // measure 22
0000
0010
0010
0000
,  // measure 23
1000
1001
0000
0110
,  // measure 24
0000
0010
0100
0000
,  // measure 25
0001
1000
0001
0000
,  // measure 26
1000
0010
1000
0000
,  // measure 27
0010
0100
0000
1001
,  // measure 28
0000
0001
0000
1000
,  // measure 29
0000
0001
0000
1000
,  // measure 30
0000
0010
0010
0010
,  // measure 31
0010
0000
1001
0000
,  // measure 32
0000
0000
0000
0000
,  // measure 33
0000
0000
0000
0000
,  // measure 34
0000
0000
0000
0000
,  // measure 35
0000
0000
0001
0000
,  // measure 36
0000
0000
0000
0000
,  // measure 37
0000
0000
0000
0000
,  // measure 38
0000
0000
0000
0000
,  // measure 39
0000
0000
1000
0000
,  // measure 40
0000
0000
0100
0000
,  // measure 41
0000
0000
1000
0000
,  // measure 42
0000
0000
0001
0001
,  // measure 43
0001
0000
0100
0000
,  // measure 44
0000
0000
0001
0000
,  // measure 45
0000
0000
0010
0000
,  // measure 46
0000
0000
0100
0100
,  // measure 47
0100
0000
0001
0000
,  // measure 48
1000
0000
0001
0001
,  // measure 49
1001
0000
1000
0000
,  // measure 50
0001
0000
1000
1000
,  // measure 51
1001
0000
0010
0000
,  // measure 52
0100
0000
0010
0010
,  // measure 53
0110
0000
0100
0000
,  // measure 54
0010
0000
0100
0100
,  // measure 55
0110
0000
0001
0001
,  // measure 56
0001
0000
1000
1000
,  // measure 57
1000
0000
0010
0010
,  // measure 58
0010
0000
0100
0100
,  // measure 59
0100
0000
0010
0000
,  // measure 60
0100
0000
0001
0000
,  // measure 61
1000
0000
0001
1000
,  // measure 62
0100
1000
0010
0010
,  // measure 63
0100
0000
0001
0000
,  // measure 64
0100
0000
0001
0000
,  // measure 65
1000
0000
0100
0000
,  // measure 66
1000
0000
0001
0100
,  // measure 67
0001
0000
1000
0000
,  // measure 68
0010
0000
1000
0000
,  // measure 69
0001
0000
0010
0000
,  // measure 70
0001
0000
0100
0100
,  // measure 71
0100
0000
0110
0000
,  // measure 72
1001
0000
0001
0001
,  // measure 73
0001
0000
1001
0000
,  // measure 74
0110
0000
0010
1000
,  // measure 75
0100
0000
1001
0000
,  // measure 76
0110
0000
0010
1000
,  // measure 77
0010
1000
0010
0000
,  // measure 78
0100
0000
1001
0001
,  // measure 79
0001
0000
1001
1001
,  // measure 80
0000
0000
0110
0110
,  // measure 81
0000
0000
1001
1001
,  // measure 82
0000
0110
1001
0000
,  // measure 83
0110
0000
0110
0110
,  // measure 84
0000
0000
1001
1001
,  // measure 85
0000
0000
0110
0110
,  // measure 86
0000
1001
0110
0000
,  // measure 87
1001
0000
0001
0001
,  // measure 88
0000
1000
0001
0100
,  // measure 89
0000
0010
1000
0010
,  // measure 90
0000
0100
0110
0000
,  // measure 91
1001
0000
0001
0001
,  // measure 92
1000
1000
0010
0010
,  // measure 93
0100
0100
1001
1001
,  // measure 94
1001
1001
0000
0110
;
