#TITLE:Bad Maniacs;
#SUBTITLE:;
#ARTIST:kors k as teranoid;
#TITLETRANSLIT:;
#SUBTITLETRANSLIT:;
#ARTISTTRANSLIT:;
#GENRE:;
#CREDIT:;
#BANNER:[REFLEC BEAT] - Bad Maniacs.png;
#BACKGROUND:[REFLEC BEAT] - Bad Maniacs-bg.png;
#LYRICSPATH:;
#CDTITLE:cdtitle.png;
#MUSIC:[REFLEC BEAT] - Bad Maniacs.ogg;
#OFFSET:0.798;
#SAMPLESTART:85.314;
#SAMPLELENGTH:12.000;
#SELECTABLE:YES;
#DISPLAYBPM:195.000;
#BPMS:0.000=195.000
,55.000=292.500
,56.000=195.000
,112.000=292.500
,118.000=195.000
,159.000=292.500
,161.000=195.000
,167.000=292.500
,169.000=195.000
,209.000=292.500
,213.000=195.000
,225.000=292.500
,227.000=195.000
,377.000=390.000
;
#STOPS:55.000=0.026,
55.250=0.026,
55.500=0.025,
55.750=0.025,
112.000=0.077,
112.750=0.077,
113.500=0.077,
114.250=0.077,
115.000=0.077,
115.750=0.077,
116.500=0.077,
117.250=0.077,
148.000=0.937,
159.000=0.051,
159.500=0.051,
160.000=0.052,
160.500=0.051,
167.000=0.103,
168.000=0.103,
209.000=0.051,
209.500=0.051,
210.000=0.052,
210.500=0.051,
211.000=0.051,
211.500=0.051,
212.000=0.052,
212.500=0.051,
225.000=0.025,
225.250=0.026,
225.500=0.026,
225.750=0.025,
226.000=0.026,
226.250=0.026,
226.500=0.012,
226.625=0.014,
226.750=0.012,
226.875=0.013
;
#BGCHANGES:;
#KEYSOUNDS:;
#ATTACKS:;

//---------------dance-single - ----------------
#NOTES:
     dance-single:
     :
     Hard:
     9:
     0.591,0.881,0.766,0.117,0.566,391.000,92.000,14.000,208.000,0.000,6.000,0.591,0.881,0.766,0.117,0.566,391.000,92.000,14.000,208.000,0.000,6.000: // measure 0
0000
0000
0000
0000
,  // measure 1
0000
0000
0000
M000
,  // measure 2
0000
0000
0000
0000
,  // measure 3
M000
0000
0000
0000
,  // measure 4
0000
0000
M000
0000
,  // measure 5
0000
0000
0000
0000
0000
0000
0000
M000
,  // measure 6
0000
0000
0000
0000
,  // measure 7
M000
0000
0000
0000
,  // measure 8
M000
0000
0000
0000
,  // measure 9
M000
0000
0000
0000
0000
0000
0000
M000
,  // measure 10
0000
0000
0000
M000
,  // measure 11
0000
0000
M000
0000
,  // measure 12
M000
0000
0000
0000
0000
0000
0000
0000
M000
M000
M000
M000
M000
M000
M000
M000
,  // measure 13
M000
M000
M000
M000
M000
0000
0000
0000
0000
0000
0000
0000
0001
1000
0001
1000
,  // measure 14
0001
1010
1000
0011
,  // measure 15
1100
0000
0000
0000
1010
0000
0000
0000
0101
0000
0000
0000
1000
0001
1000
0001
,  // measure 16
1000
0101
0001
1100
,  // measure 17
0011
0000
0101
0000
1010
0010
4000
0000
,  // measure 18
3001
1100
1000
0101
,  // measure 19
0011
0000
0000
0000
1100
0000
0000
0000
1010
0000
0000
0000
1000
0001
1000
0001
,  // measure 20
1000
0011
0001
1010
,  // measure 21
0001
0100
0001
0000
0001
0010
0400
0000
,  // measure 22
1300
0001
1000
0000
0101
0000
1010
0000
,  // measure 23
1100
1100
0011
2000
,  // measure 24
3001
0100
0001
0010
0100
0000
1100
0000
,  // measure 25
0011
0000
0011
0000
1000
0001
4000
0000
,  // measure 26
3001
0100
0001
0000
1010
0000
1100
0000
,  // measure 27
0011
0000
0000
0000
0011
0000
0000
0000
1001
0000
0000
0000
0001
0100
0001
0100
,  // measure 28
0001
0000
0000
1010
0000
0000
1001
0000
0000
1100
0000
0000
0011
0000
0000
0101
,  // measure 29
0000
0000
1010
0000
0000
1001
0000
0000
1100
0000
0000
0000
4000
0000
3004
0000
,  // measure 30
M003
00M0
0M00
000M
M000
0000
000M
00M0
0M00
M000
000M
0000
M000
00M0
0M00
00M0
,  // measure 31
M000
0000
M000
0000
000M
000M
000M
000M
00M0
00M0
00M0
00M0
0M00
0M00
0M00
0M00
,  // measure 32
M000
000M
0M00
000M
00M0
0000
0M00
M000
000M
M000
00M0
0000
0M00
000M
M000
000M
,  // measure 33
M000
0000
M000
0000
000M
000M
000M
000M
00M0
00M0
00M0
00M0
0M00
0M00
0M00
0M00
,  // measure 34
00M1
0M00
00M0
0M00
00M0
0000
0M00
00M0
0M01
00M0
0M00
0000
00M0
0M00
00M0
0M00
,  // measure 35
100M
0000
000M
0000
M020
M000
M000
M000
023M
000M
000M
000M
032M
0M00
0M00
0M00
,  // measure 36
103M
0M00
000M
0M00
000M
0000
0M00
000M
1M00
000M
0M00
0000
000M
00M0
0M00
00M0
,  // measure 37
0000
0000
1001
0000
1000
0100
0010
0100
,  // measure 38
1000
1000
0101
0010
,  // measure 39
1001
0000
1100
0000
0010
0001
1000
1000
,  // measure 40
0001
0001
0100
0010
0101
0000
0010
0000
,  // measure 41
1001
1000
0001
0000
0010
0100
1000
0000
,  // measure 42
1000
1000
0101
0010
,  // measure 43
1001
0000
0000
0000
0001
0000
0000
0000
0040
0000
0000
0000
0130
1000
0100
1000
,  // measure 44
0001
0000
0000
0000
M000
00M0
M000
00M0
0M00
0M00
0M00
0M00
2002
0000
0000
0000
,  // measure 45
3003
1100
1001
0101
,  // measure 46
1010
0101
1001
0011
,  // measure 47
1100
0000
0101
0000
1010
0000
0110
0100
,  // measure 48
0101
0001
1001
1000
0100
0000
1001
0001
,  // measure 49
0100
1010
0101
1001
,  // measure 50
0011
1100
0101
1010
,  // measure 51
0110
0000
0101
0001
0010
0100
1000
0010
,  // measure 52
0100
0001
0010
0100
0010
0100
1000
0001
,  // measure 53
1000
0001
2002
0000
0000
0000
0000
0000
,  // measure 54
0000
0000
0000
0000
,  // measure 55
0000
0000
0000
0000
,  // measure 56
0000
0000
0000
3003
,  // measure 57
0001
0000
0000
0000
2000
0000
3001
0000
0000
0000
0000
0000
0000
0100
0001
0000
,  // measure 58
1000
0100
1000
0100
100M
0000
00M0
0000
000M
0000
0M00
0000
M000
0000
M000
0000
,  // measure 59
M000
0000
M000
0000
M002
0000
0103
0000
0000
0000
0000
0000
0000
0010
1000
0000
,  // measure 60
0001
0010
0001
0010
M001
0000
0M00
0000
00M0
0000
0M00
0000
M000
0000
M000
0000
,  // measure 61
M000
0000
M000
0000
M001
0000
0010
0000
0100
0000
1000
0001
1000
0001
1000
0000
,  // measure 62
0001
1000
0001
0000
1000
0000
0010
0000
0100
0000
0001
1000
0001
1000
0001
0000
,  // measure 63
1000
0001
1000
0000
0001
0000
0010
0000
0100
0000
1000
0001
1000
0001
1000
0000
,  // measure 64
0001
1000
0001
0000
1000
0000
0010
0000
0100
0000
0001
1000
0001
1000
0001
0000
,  // measure 65
1000
0001
1000
0000
1100
0000
0000
0000
0001
0000
0000
0000
0101
0000
0000
0000
,  // measure 66
1000
1010
0001
0011
,  // measure 67
1000
0000
0000
0000
0000
0000
0001
0000
0000
0100
0000
0000
0001
0000
0000
1000
0000
0000
0001
0000
0010
0000
0001
0000
,  // measure 68
0010
0100
0010
0200
0000
0000
0000
0000
0000
0000
0000
0000
,  // measure 69
2300
3002
1003
0010
0100
0000
0001
0100
,  // measure 70
0010
1000
0010
1000
0010
0000
0100
0000
0001
0000
0010
0000
1000
0000
0010
0000
,  // measure 71
0001
0100
0010
1000
0001
0000
0010
0100
,  // measure 72
1000
0001
1000
0001
2M00
00M0
0M00
00M0
0M00
000M
0M00
000M
0M00
00M0
000M
0M00
,  // measure 73
00M0
0M00
000M
00M0
3M01
0000
0100
0000
0010
0000
0000
0000
0100
0000
0001
0000
,  // measure 74
0010
0100
0010
0100
1000
0000
0010
0000
0001
0000
0010
0000
0100
0000
0001
0000
,  // measure 75
0010
0100
1000
0001
1000
0000
0010
0100
,  // measure 76
0001
1000
0001
1000
0100
0000
0001
0000
0100
0000
1000
0000
0010
0000
0100
0000
,  // measure 77
0001
1000
1100
0000
0011
0000
0101
0000
,  // measure 78
0110
0000
1000
0100
1000
0010
0100
0001
,  // measure 79
0010
0100
1100
0000
1010
0000
0101
0000
,  // measure 80
1001
0000
0001
0010
1000
0010
0001
0100
,  // measure 81
0010
1000
1001
0000
0011
0000
1100
0000
,  // measure 82
0101
0000
1000
0010
0001
0010
0100
0010
,  // measure 83
1000
0001
0011
0000
1001
0000
1010
0000
,  // measure 84
0101
0000
0001
0010
0001
1000
0010
0100
,  // measure 85
0001
1001
0000
0000
,  // measure 86
0000
0000
0000
0000
0000
000M
0000
0000
00M0
0000
0000
0M00
0000
M000
0000
000M
,  // measure 87
0000
0000
0M00
0000
0000
000M
0000
0000
0000
0000
0000
0000
0000
0000
0000
0000
,  // measure 88
0000
0000
0000
0000
0000
M000
0000
0000
0000
000M
0000
M000
0000
0M00
0000
00M0
,  // measure 89
0000
0000
0000
0000
,  // measure 90
0000
0000
0000
000M
0000
0000
0000
0000
0000
0000
0000
0000
0000
0000
0M00
0000
0M00
0000
0M00
0000
0M00
0000
00M0
0000
00M0
0000
00M0
0000
00M0
0000
M000
0000
0000
0000
0000
0000
0000
0000
0000
0000
0000
0000
0000
0000
0000
0000
0000
0000
,  // measure 91
0000
0000
0000
0000
0000
0000
0000
0000
0000
0000
0000
0000
0000
000M
0000
0000
M000
0000
0000
0M00
0000
0000
M000
0000
,  // measure 92
0000
0000
0000
0000
0000
0000
0000
0000
00M0
0000
0000
0000
0000
0000
00M0
00M0
00M0
00M0
00M0
00M0
00M0
00M0
0000
0000
,  // measure 93
0M00
0000
0M00
0000
0000
0000
0000
0000
0000
0000
0000
0000
0000
000M
0000
000M
0000
000M
0000
000M
0000
000M
0000
000M
,  // measure 94
0000
0000
1000
0100
1000
0100
0001
0100
,  // measure 95
0001
0100
1000
0010
1000
0010
0001
0010
,  // measure 96
0001
0010
1000
0000
0000
0000
0000
0000
;

//---------------dance-single - ----------------
#NOTES:
     dance-single:
     :
     Medium:
     7:
     0.454,0.601,0.483,0.117,0.096,310.000,58.000,14.000,68.000,0.000,0.000,0.454,0.601,0.483,0.117,0.096,310.000,58.000,14.000,68.000,0.000,0.000:
0000
0000
0000
0000
,
0000
0000
0000
M000
,
0000
0000
0000
0000
,
M000
0000
0000
0000
,
0000
0000
M000
0000
,
0000
0000
0000
0000
0000
0000
0000
M000
,
0000
0000
0000
0000
,
M000
0000
0000
0000
,
M000
0000
0000
0000
,
M000
0000
0000
0000
0000
0000
0000
M000
,
0000
0000
0000
M000
,
0000
0000
M000
0000
,
M000
0000
0000
0000
0000
0000
0000
0000
M000
M000
M000
M000
M000
M000
M000
M000
,
M000
M000
M000
M000
M000
0000
0000
0000
0000
0000
0000
0000
0002
0000
0000
0000
,
1003
1000
0010
0010
,
0100
0000
0001
0000
1000
0000
0001
1000
,
0001
0001
0010
0010
,
0100
0000
0100
0000
1000
0001
0100
0001
,
1000
1000
0100
0100
,
0010
0000
0001
0000
1000
0000
0001
1000
,
0001
0001
0100
0100
,
0010
1000
0010
0000
0100
0001
0100
0001
,
1000
0100
0010
0000
0001
0000
0101
0000
,
1001
1100
1010
0002
,
1003
0100
1000
0100
1000
0000
1010
0000
,
1001
0000
0011
0000
0100
0001
2000
0000
,
3001
0010
0100
0000
1000
0000
1010
0000
,
1001
0000
0101
0000
0011
0000
1000
0001
,
1000
0000
0000
0010
0000
0000
0100
0000
0000
0001
0000
0000
1000
0000
0000
0100
,
0000
0000
0010
0000
0000
0001
0000
0000
1000
0000
0000
0000
1001
0000
0000
0000
,
01M1
M000
00M0
0000
M000
0M00
M000
0M00
,
M000
0000
0000
0000
000M
000M
000M
000M
0M00
0M00
0M00
0M00
00M0
00M0
00M0
0000
,
M000
000M
M000
0000
000M
0M00
000M
0M00
,
000M
0000
0000
0000
M000
M000
M000
M000
0M00
0M00
0M00
0M00
00M0
00M0
00M0
00M0
,
1000
0000
0001
0000
,
1000
0200
0320
0032
,
1003
0000
0001
0000
,
1000
0000
0101
0000
0001
0010
0100
0000
,
1000
1000
0001
1010
,
1000
0000
0011
0000
0001
0100
0001
1000
,
0001
1000
0001
0000
1000
0000
0011
0000
,
0001
0000
1010
0000
1000
0100
1000
0000
,
1000
1000
0001
1010
,
1000
0000
0011
0000
0002
0000
0103
0010
,
0100
0000
0000
0000
000M
M000
000M
M000
000M
0000
0000
0000
2002
0000
0000
0000
,
3003
0101
0001
1001
,
0001
0011
0001
1001
,
1000
1010
1000
1001
,
1000
0100
1000
0001
1000
0000
0001
1000
,
0001
1010
1000
1001
,
1000
1100
1000
1001
,
0001
0000
1000
0010
1000
0010
0100
0001
,
0100
0001
0101
0000
1010
0000
1100
0000
,
0011
2002
0000
0000
,
0000
0000
0000
0000
,
0000
0000
0000
0000
,
0000
0000
0000
3003
,
0001
0000
1000
0100
0000
0000
0000
1000
,
0001
1000
0001
0000
0000
0000
0000
0000
,
0000
0000
1000
0010
0000
0000
0000
1000
,
0001
1000
0001
0000
0000
0000
0000
0000
,
0000
0000
1000
0100
1000
0000
1000
0001
,
1000
0000
0001
0100
0001
0000
0001
1000
,
0001
0000
1000
0100
1000
0000
1000
0001
,
1000
0000
0001
0100
0001
0000
0001
1000
,
0001
1100
1000
1100
,
1000
1010
1000
1010
,
1000
0000
0001
0010
0001
0010
0100
1000
,
0100
1000
0002
0000
0000
0000
0000
0000
,
0003
0000
1000
0010
1000
0000
0001
0000
,
0010
0100
1000
0000
0010
0000
0100
0000
,
0001
0000
1000
0100
1000
0000
0001
0000
,
0100
0010
1000
0000
1100
0000
1000
0001
,
1000
0001
0100
0001
0100
0000
0010
0000
,
1000
0001
1000
0000
0100
0000
0010
0000
,
0001
0000
1000
0010
1000
0000
0010
0000
,
0100
0001
0010
0100
1000
0001
0010
0100
,
0010
0001
1000
0000
1010
0000
1000
0000
,
1010
1000
1001
1000
,
1001
0001
0011
0001
,
0011
0101
0101
1010
,
1010
1000
1100
1000
,
1100
1000
1001
1000
,
1001
0001
0101
0001
,
0101
0000
0001
0010
0100
1000
0001
0010
,
0100
2002
0000
0000
,
0000
0000
0000
0000
,
0000
0000
0000
0000
,
0000
0000
0000
0000
,
0000
0000
0000
0000
,
0000
0000
0000
0000
,
0000
0000
0000
0000
,
0000
0000
0000
0000
,
0000
0000
3003
0000
,
0000
1000
0001
1000
,
0001
1000
0001
1000
,
0001
1000
0000
0000
;

//---------------dance-single - ----------------
#NOTES:
     dance-single:
     :
     Easy:
     4:
     0.296,0.400,0.325,0.075,0.025,201.000,39.000,9.000,24.000,0.000,0.000,0.296,0.400,0.325,0.075,0.025,201.000,39.000,9.000,24.000,0.000,0.000:
0000
0000
0000
0000
,
0000
0000
0000
M000
,
0000
0000
0000
0000
,
M000
0000
0000
0000
,
0000
0000
M000
0000
,
0000
0000
0000
0000
0000
0000
0000
M000
,
0000
0000
0000
0000
,
M000
0000
0000
0000
,
M000
0000
0000
0000
,
M000
0000
0000
0000
0000
0000
0000
M000
,
0000
0000
0000
M000
,
0000
0000
M000
0000
,
M000
0000
0000
0000
0000
0000
0000
0000
M000
M000
M000
M000
M000
M000
M000
M000
,
M000
M000
M000
M000
M000
0000
0000
0000
0000
0000
0000
0000
0000
0000
0000
0000
,
1000
1000
0001
0001
,
1000
1000
1010
0000
,
1000
1000
0001
0001
,
1000
1000
1100
0000
,
1000
1000
0001
0001
,
1000
1000
1010
0000
,
1000
1000
0001
0001
,
1000
1000
0010
0100
,
0001
0001
0010
0010
,
0100
1000
1001
0000
,
0001
0001
0100
0100
,
0010
1000
1001
0000
,
0001
0001
0010
0010
,
0100
1000
1001
0000
,
0002
0000
0000
0000
,
0000
0000
0003
1000
,
0001
0000
0000
0000
,
0000
0000
0000
0000
,
0000
0000
0000
0000
,
0000
0000
0000
0000
,
1000
0000
1000
0000
,
1000
0100
0010
0001
,
1000
0000
1000
0000
,
0000
0101
0000
1001
,
0000
1000
0100
0010
,
0001
0101
0000
1001
,
1000
0001
0100
0010
,
1000
1100
0000
1001
,
1001
1001
0000
0101
,
0000
1010
0000
1000
,
0001
2000
0000
3000
,
0000
0001
0001
0010
,
0010
0100
0100
1000
,
0001
1000
1000
0010
,
0010
0100
0100
0010
,
0010
1000
1000
0100
,
0100
0100
0010
0001
,
1000
0001
0100
0001
,
0100
0010
0010
0010
,
0010
2002
0000
0000
,
0000
0000
0000
0000
,
0000
0000
0000
0000
,
0000
0000
0000
3003
,
0001
1001
0000
0000
,
1000
0100
0000
0000
,
0000
1001
0000
0000
,
0001
0100
0000
0000
,
0000
0001
0010
0100
,
1000
0001
0010
0100
,
1000
0001
0010
0100
,
1000
0001
0010
0100
,
1000
1001
0000
0101
,
0000
1010
0000
1100
,
0000
0011
0011
1100
,
1100
2002
0000
0000
,
3003
0001
0000
0001
,
0100
0001
0010
0100
,
1000
0001
0000
0001
,
0100
0002
0000
0000
,
0003
1000
0000
1000
,
0100
1000
0010
0100
,
0001
1000
0000
1000
,
0100
1000
0001
1000
,
0001
0101
0000
1010
,
0000
1100
0000
0011
,
0000
0101
0000
1001
,
0000
1100
0000
0011
,
0000
1000
0010
1000
,
0010
0100
0001
0100
,
0001
1000
0100
0010
,
0001
0101
0000
1010
,
0000
2002
0000
0000
,
0000
0000
0000
0000
,
0000
0000
0000
0000
,
0000
0000
0000
0000
,
0000
0000
0000
0000
,
0000
0000
0000
0000
,
0000
0000
0000
0000
,
0000
0000
0000
0000
,
0000
0000
3003
0000
,
0000
1000
0000
0001
,
0000
1000
0000
0001
,
0000
1000
0000
0000
;
