#TITLE:Whisper;
#SUBTITLE:;
#ARTIST:The Dear Hunter;
#TITLETRANSLIT:;
#SUBTITLETRANSLIT:;
#ARTISTTRANSLIT:;
#GENRE:;
#CREDIT:;
#BANNER:Whisper - The Dear Hunterbn.png;
#BACKGROUND:Whisper - The Dear Hunterbg.png;
#LYRICSPATH:Whisper - The Dear Hunter.lrc;
#CDTITLE:encorerebirth.png;
#MUSIC:Whisper - The Dear Hunter.ogg;
#OFFSET:0.004;
#SAMPLESTART:57.627;
#SAMPLELENGTH:16.009;
#SELECTABLE:YES;
#BPMS:0.000=165.000
;
#STOPS:
;
#BGCHANGES:;
#KEYSOUNDS:;
#ATTACKS:;

//---------------dance-single - Spork!----------------
#NOTES:
     dance-single:
     :
     Beginner:
     1:
     0.083,0.097,0.041,0.000,0.000,66.000,5.000,0.000,0.000,0.000,0.000,0.083,0.097,0.041,0.000,0.000,66.000,5.000,0.000,0.000,0.000,0.000: // measure 0
0000
0000
0000
0000
,  // measure 1
0000
0000
0000
0000
,  // measure 2
0000
0000
0000
0000
,  // measure 3
0000
0000
0000
0000
,  // measure 4
0010
0000
0000
0000
,  // measure 5
0100
0000
0000
0000
,  // measure 6
0001
0000
0000
0000
,  // measure 7
1000
0000
0000
0000
,  // measure 8
1001
0000
0000
0000
,  // measure 9
0000
0000
0100
0000
,  // measure 10
0100
0000
0000
0000
,  // measure 11
0010
0000
0000
0000
,  // measure 12
1001
0000
0000
0000
,  // measure 13
0000
0000
0010
0000
,  // measure 14
0010
0000
0000
0000
,  // measure 15
0100
0000
0000
0000
,  // measure 16
1000
0000
0000
0000
,  // measure 17
1000
0000
0000
0000
,  // measure 18
0001
0000
0000
0000
,  // measure 19
0001
0000
0000
0000
,  // measure 20
0100
0000
0000
0000
,  // measure 21
0000
0000
0000
0000
,  // measure 22
0100
0000
0000
0000
,  // measure 23
0000
0000
0000
0000
,  // measure 24
0110
0000
0000
0000
,  // measure 25
0001
0000
0000
0000
,  // measure 26
0000
0000
0000
0000
,  // measure 27
1000
0000
0000
0000
,  // measure 28
0110
0000
0000
0000
,  // measure 29
1000
0000
0000
0000
,  // measure 30
0000
0000
0001
0000
,  // measure 31
1000
0000
0001
0000
,  // measure 32
0010
0000
0000
0000
,  // measure 33
0010
0000
0000
0000
,  // measure 34
0100
0000
0000
0000
,  // measure 35
0100
0000
0000
0000
,  // measure 36
1000
0000
0000
0000
,  // measure 37
0000
0000
0000
0000
,  // measure 38
1000
0000
0000
0000
,  // measure 39
0000
0000
0000
0000
,  // measure 40
0001
0000
0000
0000
,  // measure 41
0001
0000
0000
0000
,  // measure 42
0001
0000
0000
0000
,  // measure 43
0001
0000
0000
0000
,  // measure 44
1000
0000
0000
0000
,  // measure 45
1000
0000
0000
0000
,  // measure 46
1000
0000
0000
0000
,  // measure 47
1001
0000
0000
0000
,  // measure 48
0000
0000
0100
0000
,  // measure 49
0000
0000
0100
0000
,  // measure 50
0000
0000
0100
0000
,  // measure 51
0000
0000
0001
0000
,  // measure 52
0000
0000
0010
0000
,  // measure 53
0000
0000
0010
0000
,  // measure 54
0000
0000
0010
0000
,  // measure 55
0000
0000
0100
0000
,  // measure 56
1000
0000
0000
0000
,  // measure 57
1000
0000
0000
0000
,  // measure 58
0001
0000
0000
0000
,  // measure 59
0001
0000
0000
0000
,  // measure 60
0100
0000
0000
0000
,  // measure 61
0000
0000
0000
0000
,  // measure 62
0010
0000
0000
0000
,  // measure 63
0000
0000
0000
0000
,  // measure 64
1000
0000
0000
0000
,  // measure 65
0000
0000
0000
0000
,  // measure 66
1000
0000
0000
0000
,  // measure 67
0000
0000
0000
0000
,  // measure 68
0001
0000
0000
0000
,  // measure 69
1000
0000
0000
0000
,  // measure 70
0001
0000
0000
0000
,  // measure 71
0001
0000
0000
0000
,  // measure 72
0010
0000
0000
0000
,  // measure 73
0000
0000
0000
0000
,  // measure 74
0010
0000
0000
0000
,  // measure 75
0000
0000
0000
0000
,  // measure 76
0100
0000
0000
0000
,  // measure 77
0010
0000
0000
0000
,  // measure 78
0000
0100
0000
0000
0000
0000
0000
0000
,  // measure 79
0000
0010
0000
0000
0000
0000
0000
0000
;

//---------------dance-single - Spork!----------------
#NOTES:
     dance-single:
     :
     Easy:
     4:
     0.234,0.259,0.188,0.000,0.000,177.000,23.000,0.000,0.000,0.000,0.000,0.234,0.259,0.188,0.000,0.000,177.000,23.000,0.000,0.000,0.000,0.000:
0000
0000
0000
0000
,
0000
0000
0000
0000
,
0000
0000
0000
0000
,
0000
0000
0000
0000
,
0001
0001
0001
0001
,
1000
0100
0010
0001
,
1000
1000
1000
1000
,
0001
0000
0000
0000
,
1000
0000
0100
0000
,
0010
0000
1001
0000
,
0100
0000
0000
0001
,
0010
0010
0001
1000
,
0001
0000
0100
0000
,
0010
0000
1001
0000
,
0100
0000
0010
0100
,
1000
1000
0010
0100
,
0001
0000
0100
0000
,
0010
1000
0001
0001
,
1000
0000
0100
0000
,
0010
0001
0100
0010
,
1000
0000
0100
0000
,
1000
0000
0001
0001
,
0010
0000
0010
0000
,
0001
0000
1000
0000
,
0001
0000
0100
0000
,
0010
0100
0100
0100
,
0001
0000
0001
1000
,
0100
0010
0001
0001
,
1000
0000
0100
0000
,
0010
0100
0100
0100
,
1000
0000
1000
0001
,
0010
0001
0100
0100
,
0010
0000
0101
0000
,
0001
1000
0010
0010
,
1000
0000
1100
0000
,
1000
0001
0010
0010
,
0001
0000
0001
0000
,
0100
0000
0010
0010
,
1000
0000
1000
0000
,
0100
0000
0100
0000
,
1100
0000
0000
0000
,
0101
0000
0000
0000
,
0110
0000
0000
0000
,
1001
0000
0000
0000
,
0011
0000
0000
0000
,
1010
0000
0000
0000
,
1000
0000
0001
0000
,
1001
0000
0000
0000
,
0100
0100
0101
0000
,
0001
0001
0011
0000
,
0010
0010
0110
0000
,
0100
1000
0001
0100
,
0010
0010
1010
0000
,
1000
1000
1100
0000
,
0100
0000
0010
0000
,
0100
0000
0010
0000
,
0001
0100
0101
0000
,
0100
0010
0110
0000
,
0010
1000
1010
0000
,
1000
0000
0001
0000
,
1000
0100
1000
0100
,
0010
0001
0010
0001
,
1000
0010
1000
1000
,
0001
0100
0001
0001
,
1000
0000
0000
0000
,
1000
0000
0100
0000
,
0010
0000
0000
0000
,
0010
0000
0001
0000
,
1000
0000
0000
0000
,
1000
0000
0000
0000
,
0001
0000
0000
0000
,
0001
0000
0000
0000
,
1000
0000
0000
0000
,
0000
0000
0000
0000
,
0001
0000
0000
0000
,
0000
0000
0000
0000
,
0101
0000
0000
0000
,
1100
0000
0000
0000
,
0000
0110
0000
0000
0000
0000
0000
0000
,
0000
1001
0000
0000
0000
0000
0000
0000
;

//---------------dance-single - Spork!----------------
#NOTES:
     dance-single:
     :
     Medium:
     6:
     0.329,0.393,0.278,0.000,0.000,247.000,34.000,0.000,0.000,0.000,0.000,0.329,0.393,0.278,0.000,0.000,247.000,34.000,0.000,0.000,0.000,0.000:
0000
0000
0000
0000
,
0000
0000
0000
0000
,
0000
0000
0000
0000
,
0000
0000
0000
0000
,
1000
0100
0010
0001
,
1010
0110
0101
1001
,
0001
0010
0100
1000
,
0101
0000
0000
0001
,
1000
0000
0000
1000
0100
0000
0000
0100
,
0010
0000
1001
0000
,
0100
0000
0000
0000
0000
0001
0000
0010
,
0000
0001
0000
0100
0000
0001
0000
1000
,
0000
0000
0100
0000
0010
0000
0000
0010
,
0000
0100
0000
0000
1001
0000
0000
0000
,
0100
0000
0000
0000
1000
0000
0000
1000
,
0001
1000
0000
0100
0000
0010
0000
0001
,
0000
0001
0100
0010
,
1010
0010
1000
0001
,
1100
1000
0001
0100
,
0101
0100
0001
1000
,
0001
0000
0100
0000
0001
0100
0001
0000
,
0010
0100
0010
0100
,
1000
0000
0010
0000
1000
0010
1000
0000
,
0100
0010
0001
1000
,
0001
0000
0001
0100
,
0101
0001
0010
0100
,
1000
0000
1000
0100
,
0010
0001
1000
0010
,
1000
0000
1000
0100
,
1100
1000
0010
0100
,
0001
0000
1000
0100
,
1000
0001
1000
0100
,
1100
1000
0001
0100
,
0101
0100
0001
0010
,
0011
0001
1000
0010
,
1010
0010
1000
0001
,
1000
0000
0100
0000
1000
0100
1000
0000
,
0010
0100
0010
0100
,
0001
0000
0010
0000
0001
0010
0001
0000
,
0100
0010
1000
0001
,
1001
0000
0000
0000
,
1100
0000
0000
0000
,
0101
0000
0000
0000
,
0110
0000
0000
0000
,
1010
0000
0000
0000
,
0011
0000
0000
0000
,
0001
0000
1000
0000
,
1001
0000
0000
0000
,
0010
0100
0110
0000
,
0010
0001
0011
0000
,
0010
0000
1000
0000
1010
0000
1000
0001
,
1000
0100
0010
0001
,
0100
0010
0110
0000
,
0100
1000
1100
0000
,
0100
0000
0010
0000
,
0100
0000
0010
0000
,
1000
0001
0101
0100
,
0010
1000
1100
1000
,
0001
0010
0110
0100
,
1100
0000
0000
1001
0000
0000
0101
0000
,
0001
0000
1000
0000
0001
0010
0001
0000
,
0100
0010
0100
0010
,
1000
0000
0001
0000
1000
0100
1000
0000
,
0010
0100
0001
0001
,
1000
0000
0000
0100
0000
0000
0010
0000
,
0001
0000
1000
0000
,
0001
0000
0000
0100
0000
0000
0010
0000
,
1000
0000
0001
0000
,
1000
0100
1000
0100
,
0010
0001
0010
0001
,
0100
0001
0010
0100
,
1000
0010
0100
0100
,
0001
0000
0000
0000
,
0000
0000
0000
0000
,
1000
0000
0000
0000
,
0000
0000
0000
0000
0000
1000
0100
1000
,
0100
0010
0000
0001
0000
0000
0000
0000
,
0001
1000
0000
0000
0001
0000
0000
0000
,
0001
0100
0000
0100
0010
0000
0000
0010
,
0000
1000
0000
0000
0000
0001
0000
0000
,
1000
0000
0000
0000
;

//---------------dance-single - Spork!----------------
#NOTES:
     dance-single:
     :
     Hard:
     8:
     0.462,0.524,0.385,0.000,0.033,348.000,47.000,0.000,0.000,0.000,0.000,0.462,0.524,0.385,0.000,0.033,348.000,47.000,0.000,0.000,0.000,0.000:
0000
0000
0000
0000
,
0000
0000
0000
0000
,
0000
0000
0000
0000
,
0000
0000
0000
0000
,
0010
1000
0010
1000
0010
0100
0100
0001
,
0010
0001
1000
0001
0010
0001
1000
0100
,
0010
0001
0010
0001
0010
0100
0100
1000
,
0010
0010
0100
0100
0001
0010
0100
1000
,
0001
0000
0000
0001
0100
0000
0000
0100
,
0010
0000
1010
0000
,
0011
0000
0000
0000
0000
0100
0000
1000
,
0000
0001
0000
0010
0000
0001
0000
0100
,
0000
0000
0001
0000
1000
0000
0000
1000
,
0000
0100
0000
0000
1100
0000
0000
0000
,
0101
0000
0000
0000
0010
0000
0000
0010
,
0100
0010
0000
1000
0000
0100
0000
0010
,
0000
0100
1000
0010
,
0100
0000
0000
0000
0010
0000
1000
0000
0001
0000
0000
0000
0010
0000
0000
0010
,
0100
0010
0001
0010
0100
0000
1000
0000
,
0010
0000
0000
0000
1000
0000
0010
0000
0100
0000
0000
0100
0010
0000
0000
0000
,
0010
1000
0100
1000
0010
0100
0001
0010
,
0100
1000
0010
0100
0001
1000
0100
0100
,
0010
0001
0100
0001
0010
0100
1000
0010
,
0100
0001
0100
0010
1000
0100
0010
0000
,
1001
0000
0010
0001
0100
0000
0010
0000
,
1000
1100
0110
0011
,
0001
1000
0000
1000
0001
0000
0001
0100
,
0000
0010
0000
1000
0000
0010
0000
0100
,
0001
0000
0001
1000
0010
0000
1000
0000
,
0001
0011
0110
1100
,
1000
0001
0000
0000
0101
0000
0100
0000
,
0110
0000
1001
0000
0001
0000
1000
0100
,
0010
0010
0001
0100
,
0010
1000
0100
1000
0010
0000
0100
0000
,
0100
0001
0010
0001
0100
0000
0001
0000
,
1000
0100
0001
0100
1000
0000
0001
0000
,
0100
0001
0010
0001
0100
0010
1000
0100
,
0010
0001
0100
0010
1000
0001
1000
1000
,
0100
1000
0010
1000
0100
0010
0001
0100
,
0010
1000
0010
0100
0001
0010
0100
0000
,
1001
0010
0000
0100
,
1010
0100
0001
1000
,
0011
0100
0000
0010
,
1001
0000
0000
0000
0000
0000
0100
0010
,
1001
0100
0000
0010
,
0101
0010
1000
0001
,
1100
0000
1001
0000
,
0110
0000
0000
0000
,
0001
0010
1010
0000
,
0100
0010
1100
0000
,
0010
0000
0000
0000
0100
0000
0000
0000
0011
0000
0000
0000
0000
0000
0001
0100
,
0001
1000
0000
0000
0010
0000
0010
0000
,
1000
0100
0101
0000
,
0010
0100
0011
0000
,
0001
0000
0000
0100
0010
0000
0000
0010
,
1000
0000
0000
0000
0000
0000
1000
0000
0001
0000
0000
0001
0010
0000
0000
0001
,
0100
0010
1001
0100
,
0010
0000
1000
0000
1100
0000
1000
0100
,
0000
0010
0000
0001
0100
0000
0010
0000
,
1010
0000
0000
0011
0000
0000
0110
0000
,
1000
0000
0010
0000
1000
0100
0010
0000
,
0001
0000
0010
0000
0001
0100
0010
1000
,
0001
0000
0100
0000
0001
0010
0100
0000
,
1000
0000
0100
0000
1000
0010
1000
0001
,
1001
0000
0000
1010
0000
0000
0101
0000
,
0011
0000
0000
0000
0010
0000
0000
0000
0001
0000
0000
0000
1000
0000
0001
1000
,
0001
0000
0000
0011
0000
0000
1100
0000
,
1010
1000
1001
0001
,
0101
0100
0010
1000
,
0100
0100
0010
0010
,
0001
1000
0000
0100
0000
0000
0000
0100
,
0010
0000
0000
0000
0010
0000
0000
0000
0100
0000
0000
0010
0100
0000
0000
0100
,
1000
0000
0000
1000
0000
0000
1000
0000
,
0001
0000
0000
0000
,
0001
0000
0000
0001
0000
0000
0001
0000
,
1000
0000
0010
0000
,
0110
0000
0000
0100
0000
0000
0010
0000
,
1001
0000
1000
0000
,
0001
0010
0000
0010
0100
0000
0000
1000
,
0000
1100
0000
0000
0000
0101
0000
0000
,
0110
0000
0000
0000
;
