#TITLE:Tokyo;
#SUBTITLE:;
#ARTIST:The Books;
#TITLETRANSLIT:;
#SUBTITLETRANSLIT:;
#ARTISTTRANSLIT:;
#GENRE:;
#CREDIT:;
#BANNER:tokyo.png;
#BACKGROUND:tokyo-bg.png;
#LYRICSPATH:;
#CDTITLE:;
#MUSIC:Tokyo.mp3;
#OFFSET:0.065;
#SAMPLESTART:42.037;
#SAMPLELENGTH:12.000;
#SELECTABLE:YES;
#BPMS:0.000=97.000;
#STOPS:;
#BGCHANGES:;
#KEYSOUNDS:;

//---------------dance-single - Blank----------------
#NOTES:
     dance-single:
     Blank:
     Hard:
     6:
     0.342,0.000,0.020,0.000,0.138: // measure 1
0000
0000
0000
0000
,  // measure 2
0000
0000
0000
0000
,  // measure 3
0000
0000
0000
0000
,  // measure 4
0000
0000
0000
1001
,  // measure 5
1000
0010
0100
0001
1000
0100
0010
0001
,  // measure 6
1000
0000
0010
0000
0100
0000
1000
0000
0000
0100
0000
0010
0000
1000
0000
0001
,  // measure 7
0010
0000
0100
0000
1000
0000
0010
0000
0100
0001
0100
0000
0010
0000
1000
0000
,  // measure 8
0001
0000
0010
0000
0100
0000
1000
0000
0000
0001
0000
0100
0000
0010
0000
1000
,  // measure 9
0001
0010
0100
1000
0001
0100
0010
0100
,  // measure 10
0001
0010
0100
1000
0001
0100
0010
0100
,  // measure 11
0001
0000
0010
0000
0100
0000
1000
0000
0001
0100
0001
0000
0100
0000
0010
0000
,  // measure 12
0100
0001
0010
0100
1000
0010
0100
0001
,  // measure 13
0010
0000
0000
0100
0000
0000
1000
0000
0000
0010
0000
0000
0100
0000
0001
0000
,  // measure 14
0010
0000
0100
0000
1000
0000
0000
0010
0000
0000
0100
0000
0000
0001
0000
0000
,  // measure 15
0010
0000
1000
0000
0100
0000
0001
0000
0010
0000
0000
0100
0000
0000
1000
0000
,  // measure 16
0000
0010
0000
0000
0001
0000
0100
0000
1000
0000
0010
0000
0100
0000
0000
0001
,  // measure 17
0000
0000
0010
0000
0000
0100
0000
0000
1000
0000
0010
0000
0100
0000
0001
0000
,  // measure 18
0010
0100
1000
0010
,  // measure 19
0100
0001
1000
0100
,  // measure 20
0010
0001
1000
0010
,  // measure 21
0100
0001
0010
1000
,  // measure 22
0001
0100
1000
0010
,  // measure 23
0001
1000
0100
0010
,  // measure 24
0100
1000
0010
0001
,  // measure 25
0100
0010
1000
0001
,  // measure 26
0010
0000
0001
0000
0100
0001
1000
0100
,  // measure 27
1000
0000
0010
0000
0100
1000
0100
0001
,  // measure 28
0010
0000
0100
0000
1000
1000
0001
0001
,  // measure 29
0100
0000
0010
0000
1000
0010
0100
0001
,  // measure 30
1000
0000
0100
0000
0010
0100
1000
0001
,  // measure 31
0100
0000
0010
0000
0001
0010
0100
0001
,  // measure 32
1000
0000
0100
0000
0010
0001
1000
0000
,  // measure 33
0010
0000
0100
0000
0001
0010
0100
1000
,  // measure 34
0010
1000
0000
0000
0010
1000
0000
0000
0001
0010
0000
0000
0001
0010
0000
0000
,  // measure 35
0100
1000
0000
0000
0100
1000
0000
0000
0001
0100
0000
0000
0001
0100
0000
0000
,  // measure 36
0010
1000
0100
0001
1000
0010
0100
1000
,  // measure 37
0010
0100
0001
0010
1000
0001
0100
1000
,  // measure 38
0010
0000
0100
0000
0001
1000
0100
0010
,  // measure 39
0001
1000
0010
0100
0001
0100
0010
1000
,  // measure 40
0001
0000
0010
0000
0100
1000
0100
1000
0001
0000
0100
0000
0010
0000
0100
0000
,  // measure 41
0001
0010
0100
1000
0010
0100
1001
0000
;

//---------------dance-single - Blank----------------
#NOTES:
     dance-single:
     Blank:
     Medium:
     4:
     0.190,0.000,0.000,0.000,0.000: // measure 1
0000
0000
0000
0000
,  // measure 2
0000
0000
0000
0000
,  // measure 3
0000
0000
0000
0000
,  // measure 4
0000
0000
0000
0010
,  // measure 5
0010
1000
0100
1000
,  // measure 6
0010
0000
0100
0000
0001
1000
0100
0000
,  // measure 7
0010
0001
1000
0010
,  // measure 8
0100
0000
0010
0000
1000
0000
0001
0010
,  // measure 9
0100
1000
0010
0100
,  // measure 10
1000
0000
0100
0000
0001
0000
1000
0100
,  // measure 11
1000
0010
0100
0001
,  // measure 12
0010
0000
0100
0000
1000
0001
1000
0000
,  // measure 13
0010
0000
0000
0010
0000
0000
0100
0000
,  // measure 14
0001
0000
0100
0000
0000
0100
0000
0000
,  // measure 15
0010
0000
1000
0000
0010
0000
0000
0010
,  // measure 16
0000
1000
0001
1000
,  // measure 17
0000
1000
0000
0000
0001
0000
0010
0000
,  // measure 18
0100
0000
1000
0000
,  // measure 19
0010
0000
0001
0000
,  // measure 20
1000
0000
0100
0000
,  // measure 21
0001
0000
0010
0000
,  // measure 22
0100
0000
1000
0000
,  // measure 23
0001
0000
0100
0000
,  // measure 24
0010
0000
1000
0000
,  // measure 25
0001
0000
0010
0000
,  // measure 26
0100
1000
0010
0100
,  // measure 27
0001
0010
0100
1000
,  // measure 28
0001
0100
0010
1000
,  // measure 29
0100
1000
0010
0100
,  // measure 30
0001
0100
0010
1000
,  // measure 31
0001
0010
0100
1000
,  // measure 32
0001
0100
0010
1000
,  // measure 33
0010
0100
0001
0010
,  // measure 34
0100
1000
0100
0000
0010
0001
0010
0000
,  // measure 35
0100
1000
0001
0000
1000
0010
0100
0000
,  // measure 36
0001
0010
0100
0000
1000
0001
1000
0000
,  // measure 37
0010
0000
0100
0000
0001
1000
0001
1000
,  // measure 38
0001
0000
0010
0000
,  // measure 39
0100
0000
1000
0000
,  // measure 40
0010
0000
0100
0000
,  // measure 41
0001
0010
0100
1000
;

//---------------dance-single - Blank----------------
#NOTES:
     dance-single:
     Blank:
     Easy:
     2:
     0.109,0.000,0.000,0.000,0.000: // measure 1
0000
0000
0000
0000
,  // measure 2
0000
0000
0000
0000
,  // measure 3
0000
0000
0000
0000
,  // measure 4
0000
0000
0000
0000
,  // measure 5
1000
0000
0010
0000
,  // measure 6
0100
0000
0001
0000
,  // measure 7
0010
0000
0100
0000
,  // measure 8
1000
0001
1000
0000
,  // measure 9
0010
0000
0100
0000
,  // measure 10
1000
0000
0010
0000
,  // measure 11
0001
0000
0100
0000
,  // measure 12
0010
0000
1000
0001
,  // measure 13
1000
0000
0000
0100
,  // measure 14
1000
0010
0000
0000
,  // measure 15
0100
0001
0010
0000
,  // measure 16
0000
0100
1000
0001
,  // measure 17
0000
0000
0100
0010
,  // measure 18
0100
0000
0000
0000
,  // measure 19
0001
0000
0000
0000
,  // measure 20
1000
0000
0000
0000
,  // measure 21
0100
0000
0000
0000
,  // measure 22
0010
0000
0000
0000
,  // measure 23
0001
0000
0000
0000
,  // measure 24
1000
0000
0000
0000
,  // measure 25
0010
0000
0000
0000
,  // measure 26
0100
0000
0001
0000
,  // measure 27
0100
0000
0001
0000
,  // measure 28
1000
0000
0100
0000
,  // measure 29
1000
0000
0100
0000
,  // measure 30
1000
0000
0010
0000
,  // measure 31
0100
0000
0001
0000
,  // measure 32
1000
0000
0100
0000
,  // measure 33
0010
0000
0001
0000
,  // measure 34
1000
1000
0010
0010
,  // measure 35
0100
0100
0001
0001
,  // measure 36
0010
0000
0100
0000
,  // measure 37
1000
0010
0100
0001
,  // measure 38
0010
0000
0100
0000
,  // measure 39
1000
0000
0010
0000
,  // measure 40
0100
0000
0001
0000
,  // measure 41
1000
0000
0001
0001
;

//---------------dance-double - Blank----------------
#NOTES:
     dance-double:
     Blank:
     Hard:
     7:
     0.378,0.000,0.059,0.000,0.099: // measure 1
00000000
00000000
00000000
00000000
,  // measure 2
00000000
00000000
00000000
00000000
,  // measure 3
00000000
00000000
00000000
00000000
,  // measure 4
00000000
00000000
00000000
10010000
,  // measure 5
00100000
01000000
00010000
00100000
00001000
00010000
00000010
00001000
,  // measure 6
00000100
00000010
00000001
00000100
00000010
00000100
00000001
00000010
,  // measure 7
00000100
00000000
00001000
00000000
00000010
00000000
00010000
00000000
00001000
00100000
00001000
00000000
00100000
00000000
00010000
00000000
,  // measure 8
01000000
00100000
10000000
01000000
00100000
01000000
00010000
01000000
,  // measure 9
10000000
00100000
00010000
10000000
00010000
00100000
01000000
00010000
,  // measure 10
00100000
00001000
00010000
00000010
00001000
00000010
00000100
00001000
,  // measure 11
00000100
00000000
00000001
00000000
00000010
00000000
00000100
00000000
00001000
00001000
00000010
00000000
00000100
00000000
00000010
00000000
,  // measure 12
00001000
00000100
00010000
00001000
00100000
00010000
01000000
00100000
,  // measure 13
10000000
00000000
00000000
00100000
00000000
00000000
01000000
00000000
00000000
00010000
00000000
00000000
00100000
00000000
00001000
00000000
,  // measure 14
00011000
00000000
00010000
00000000
00000010
00000000
00000000
00001000
00000000
00000000
00000100
00000000
00000000
00000010
00000000
00000000
,  // measure 15
00000001
00000000
00000100
00000000
00000110
00000000
00000010
00000000
00001000
00000000
00000000
00000100
00000000
00000000
00000001
00000000
,  // measure 16
00000000
00000100
00000000
00000000
00000010
00000000
00000001
00000000
00000101
00000000
00000100
00000000
00000010
00000000
00000000
00010000
,  // measure 17
00000000
00000000
00001000
00000000
00000000
01000000
00000000
00000000
00100000
00000000
10000000
00000000
10010000
00000000
00010000
00000000
,  // measure 18
00100000
01000000
10000000
00100000
,  // measure 19
01000000
00010000
10000000
01000000
,  // measure 20
00100000
00001000
00010000
00000010
,  // measure 21
00000100
00000001
00000010
00001000
,  // measure 22
00000001
00000100
00001000
00000010
,  // measure 23
00010000
00001000
00010000
00100000
,  // measure 24
10000000
01000000
00010000
00001000
,  // measure 25
00000010
00000001
00000100
00000010
,  // measure 26
00001000
00000100
00001000
00000010
00000100
00001000
00000100
00000001
,  // measure 27
00000010
00000100
00001000
00000010
00010000
00001000
00100000
00010000
,  // measure 28
01000000
01000000
10000000
10000000
00100000
00100000
00010000
01000000
,  // measure 29
00100000
00010000
00001000
00000010
00000100
00001000
00000010
00000100
,  // measure 30
00000001
00000010
00000001
00000010
00000100
00001000
00000100
00001000
,  // measure 31
00000010
00001000
00010000
01000000
00010000
00100000
01000000
10000000
,  // measure 32
00100000
01000000
00010000
00100000
00001000
00010000
00000010
00001000
,  // measure 33
00010000
00001000
00000100
00000010
00000001
00000100
00000010
00001000
,  // measure 34
00000001
00000010
00000000
00000000
00000100
00001000
00000000
00000000
00000010
00010000
00000000
00000000
00001000
00100000
00000000
00000000
,  // measure 35
00010000
01000000
00000000
00000000
00100000
10000000
00000000
00000000
01000000
00000000
10000000
00000000
01000000
10000000
01000000
00000000
,  // measure 36
00100000
00010000
01000000
00100000
00001000
00100000
00010000
00001000
,  // measure 37
00000010
00000000
00000001
00000000
00000100
00000000
00000010
00000000
00001000
00000000
00000100
00000000
00010000
00001000
00010000
00001000
,  // measure 38
00010000
00100000
01000000
00010000
00100000
01000000
10000000
00100000
,  // measure 39
01000000
00010000
00100000
00001000
00010000
00000010
00001000
00000010
,  // measure 40
00000100
00000000
00010000
00000000
00000100
00000000
00000010
00000000
00001000
00000100
00001000
00000000
00000100
00000000
00000010
00000000
,  // measure 41
00000001
00000100
00000010
00001000
00000100
00010000
00011000
00000000
;

//---------------dance-double - Blank----------------
#NOTES:
     dance-double:
     Blank:
     Medium:
     4:
     0.224,0.000,0.000,0.000,0.000: // measure 1
00000000
00000000
00000000
00000000
,  // measure 2
00000000
00000000
00000000
00000000
,  // measure 3
00000000
00000000
00000000
00000000
,  // measure 4
00000000
00000000
00000000
01000000
,  // measure 5
00100000
10000000
01000000
00100000
,  // measure 6
00010000
01000000
00100000
00001000
,  // measure 7
00000010
00000000
00010000
00000000
00000100
00001000
00000010
00000000
,  // measure 8
00000100
00000001
00000010
00000100
,  // measure 9
00001000
00000000
00000010
00000000
00010000
00001000
00100000
00010000
,  // measure 10
01000000
00000000
00100000
00000000
10000000
01000000
00010000
01000000
,  // measure 11
00100000
00000000
00010000
00000000
01000000
00001000
00010000
00000000
,  // measure 12
00000010
00000000
00010000
00000000
00001000
00000010
00000100
00001000
,  // measure 13
00000001
00000000
00000000
00000100
00000000
00000000
00000010
00001000
,  // measure 14
00000100
00010000
00001000
00000000
00000000
00100000
00000000
00000000
,  // measure 15
00010000
01000000
00100000
01000000
00010000
00000000
00000000
00100000
,  // measure 16
00000000
00000000
01000000
10000000
00010000
01000000
00001000
00000000
,  // measure 17
00000000
00010000
00000000
00000000
00000010
00001000
00000100
00000010
,  // measure 18
00000001
00000000
00000100
00000000
,  // measure 19
00000010
00000000
00001000
00000000
,  // measure 20
00000100
00000000
00010000
00000000
,  // measure 21
00001000
00000000
01000000
00000000
,  // measure 22
00100000
00000000
10000000
00000000
,  // measure 23
01000000
00000000
00100000
00000000
,  // measure 24
00010000
00000000
01000000
00000000
,  // measure 25
00001000
00000000
00010000
00000000
,  // measure 26
00000100
00000000
00001000
00000000
00000010
00000100
00000001
00000000
,  // measure 27
00001000
00000000
00000100
00000000
00000010
00000001
00001000
00000000
,  // measure 28
00000010
00000000
00000001
00000000
00000100
00001000
00000010
00000000
,  // measure 29
00000100
00010000
00001000
00100000
,  // measure 30
01000000
00000000
00010000
00000000
00100000
00000000
01000000
10000000
,  // measure 31
00010000
00000000
01000000
00000000
00100000
00000000
10000000
00010000
,  // measure 32
00100000
00000000
00001000
00000000
00010000
00000010
00001000
00000000
,  // measure 33
00000100
00000000
00000001
00000000
00001000
00000010
00000001
00000000
,  // measure 34
00000100
00000010
00001000
00000100
,  // measure 35
00010000
00000000
00001000
00000000
01000000
01000000
01000000
00000000
,  // measure 36
00100000
10000000
01000000
00000000
00100000
00010000
01000000
00000000
,  // measure 37
00001000
00010000
00000010
00000000
00001000
00000100
00000001
00001000
,  // measure 38
00000010
00000100
00001000
00000010
,  // measure 39
00010000
00001000
00100000
00010000
,  // measure 40
01000000
00000000
00100000
00000000
10000000
01000000
10000000
00000000
,  // measure 41
00010000
01000000
00100000
10000000
;

//---------------dance-double - Blank----------------
#NOTES:
     dance-double:
     Blank:
     Easy:
     2:
     0.097,0.000,0.000,0.000,0.000: // measure 1
00000000
00000000
00000000
00000000
,  // measure 2
00000000
00000000
00000000
00000000
,  // measure 3
00000000
00000000
00000000
00000000
,  // measure 4
00000000
00000000
00000000
00000000
,  // measure 5
00100000
00000000
10000000
00000000
,  // measure 6
01000000
00000000
00100000
00000000
,  // measure 7
00010000
00000000
01000000
00000000
,  // measure 8
00001000
00010000
00001000
00000000
,  // measure 9
00010000
00000000
00000010
00000000
,  // measure 10
00000001
00000000
00000010
00000000
,  // measure 11
00000100
00000000
00000001
00000000
,  // measure 12
00000010
00000100
00001000
00000000
,  // measure 13
00000010
00000000
00000000
00010000
,  // measure 14
00001000
00100000
00000000
00000000
,  // measure 15
00010000
10000000
00100000
00000000
,  // measure 16
00000000
01000000
00010000
00100000
,  // measure 17
00000000
00000000
00001000
00010000
,  // measure 18
00000100
00000000
00000010
00000000
,  // measure 19
00000001
00000000
00000100
00000000
,  // measure 20
00000010
00000000
00001000
00000000
,  // measure 21
00000100
00000000
00010000
00000000
,  // measure 22
00001000
00000000
00000000
00000000
,  // measure 23
01000000
00000000
00000000
00000000
,  // measure 24
00100000
00000000
00000000
00000000
,  // measure 25
10000000
00000000
00000000
00000000
,  // measure 26
00010000
00000000
00100000
00000000
,  // measure 27
00001000
00000000
00000000
00000000
,  // measure 28
00010000
00000000
00000100
00000000
,  // measure 29
00001000
00000000
00000000
00000000
,  // measure 30
00000010
00000000
00000100
00000000
,  // measure 31
00000001
00000000
00000000
00000000
,  // measure 32
00000010
00000000
00000100
00000000
,  // measure 33
00001000
00000000
00000000
00000000
,  // measure 34
00000010
00000000
00000010
00000000
,  // measure 35
00010000
00000000
00010000
00000000
,  // measure 36
00001000
00000000
01000000
00000000
,  // measure 37
00100000
10000000
00010000
00000000
,  // measure 38
00100000
00000000
00000000
00000000
,  // measure 39
01000000
00000000
00000000
00000000
,  // measure 40
10000000
00000000
00000000
00000000
,  // measure 41
00010000
00000000
10000000
10000000
;
