#TITLE:Spot on Phunk;
#SUBTITLE:;
#ARTIST:Basement Freaks;
#TITLETRANSLIT:;
#SUBTITLETRANSLIT:;
#ARTISTTRANSLIT:;
#GENRE:;
#CREDIT:;
#BANNER:;
#BACKGROUND:;
#LYRICSPATH:;
#CDTITLE:;
#MUSIC:Spot On Phunk.mp3;
#OFFSET:-0.020;
#SAMPLESTART:52.411;
#SAMPLELENGTH:12.000;
#SELECTABLE:YES;
#BPMS:0.000=110.000;
#STOPS:;
#BGCHANGES:;
#KEYSOUNDS:;

//---------------dance-single - Blank----------------
#NOTES:
     dance-single:
     Blank:
     Hard:
     6:
     0.346,0.000,0.091,0.000,0.148: // measure 1
0000
0000
0000
0000
,  // measure 2
0000
0000
0000
0000
,  // measure 3
0000
0000
0000
0000
,  // measure 4
0000
0000
0000
0000
,  // measure 5
0010
0100
1000
0001
,  // measure 6
0100
1000
0100
0001
,  // measure 7
0010
1000
0001
0100
,  // measure 8
1000
0010
0100
0001
,  // measure 9
1001
0000
0100
0000
0000
1000
0100
0000
,  // measure 10
0010
0000
0000
0000
0001
0000
0000
0010
0000
0000
0010
0000
0001
0000
0000
0000
,  // measure 11
0100
0000
0010
0000
0000
0100
0010
0000
,  // measure 12
1000
0000
0100
0000
1000
0000
0000
0010
0000
0000
0010
0000
1000
0000
0000
0000
,  // measure 13
0100
0000
1000
0000
0000
0100
1000
0000
,  // measure 14
0001
0000
0100
0000
0001
0000
0000
0100
0000
0000
0001
0000
0100
0000
0000
0000
,  // measure 15
0010
1000
0010
0000
0000
0100
0001
0000
,  // measure 16
1000
0000
0100
0000
1000
0000
0000
0001
0000
0000
0010
0000
0110
0000
0000
0000
,  // measure 17
0010
0000
1000
0000
0100
0000
0000
1000
0000
0000
0001
0000
0100
0000
0000
0000
,  // measure 18
0010
0000
1000
0000
0100
0000
0000
0010
0000
0000
0100
0000
1100
0000
0000
0000
,  // measure 19
1000
0000
0010
0000
0100
0000
0000
1000
0000
0000
0100
0000
0001
0000
0000
0000
,  // measure 20
0010
0000
0100
0000
1000
0000
0000
0001
0000
0000
0100
0000
0101
0000
0000
0000
,  // measure 21
0001
0000
0010
0000
0100
0000
0000
0100
0000
0000
1000
0000
0010
0000
1000
0000
,  // measure 22
0100
0000
0010
0000
0000
0001
0000
0000
0010
0000
0000
0000
0011
0000
0000
0000
,  // measure 23
1000
0000
0010
0000
0100
0000
0000
0001
0000
0000
0100
0000
0010
0000
1000
0000
,  // measure 24
0100
0000
0001
0000
0100
0000
0000
1000
0000
0000
0010
0000
0110
0000
0000
0000
,  // measure 25
0100
0000
0001
0000
0100
0001
0000
0100
0000
0000
0010
0000
1000
0000
0000
0000
,  // measure 26
0100
1000
0001
0000
0001
0100
0010
0000
,  // measure 27
0010
1000
0100
0000
0100
1000
0100
0000
,  // measure 28
0010
0000
0001
0000
1000
0000
0010
0000
0000
0100
0001
0000
0010
0000
0000
0000
,  // measure 29
0100
0000
1000
0000
0100
1000
0000
0100
0000
0000
1000
0000
0010
0000
0000
0000
,  // measure 30
0100
0001
0010
0100
1000
0001
0100
0000
,  // measure 31
0010
0000
1000
0100
1000
0001
0100
0000
,  // measure 32
0010
0000
0000
0000
0100
0000
0000
0000
0000
0001
0000
1000
0001
0000
0000
0000
,  // measure 33
0010
0000
0100
0000
1000
0000
0000
1000
0000
0000
0100
0000
1000
0000
0000
0000
,  // measure 34
0010
0100
0001
0100
0010
1000
0001
0000
,  // measure 35
0010
0100
0010
0000
0010
0100
1000
0000
,  // measure 36
1000
0001
0100
0000
0110
0000
1001
0000
,  // measure 37
0001
0000
0010
0000
0001
0000
0000
0001
0000
0000
0100
0000
0010
0000
0000
0000
,  // measure 38
0010
1000
0100
0000
0001
0100
1000
0000
,  // measure 39
0010
0100
1000
0000
0100
0001
0010
0000
,  // measure 40
0100
0000
0000
1000
0000
0010
0000
0001
0000
0100
0000
1000
0000
0000
0000
0000
;

//---------------dance-single - Blank----------------
#NOTES:
     dance-single:
     Blank:
     Medium:
     5:
     0.256,0.000,0.069,0.000,0.006: // measure 1
0000
0000
0000
0000
,  // measure 2
0000
0000
0000
0000
,  // measure 3
0000
0000
0000
0000
,  // measure 4
0000
0000
0000
0000
,  // measure 5
0001
0001
1000
1000
,  // measure 6
0010
0010
0100
0100
,  // measure 7
0001
0010
0100
1000
,  // measure 8
0001
0001
0001
0000
,  // measure 9
1001
0100
1000
0100
,  // measure 10
0010
0001
0100
0000
,  // measure 11
0010
1000
0100
1000
,  // measure 12
0001
0000
0100
0000
0010
0100
0010
0000
,  // measure 13
1000
0100
0001
0100
,  // measure 14
0010
1000
0010
0001
,  // measure 15
1000
0010
0100
1000
,  // measure 16
0001
0000
0010
0000
0100
0001
0100
0000
,  // measure 17
0010
0000
1000
0000
0010
1000
0010
0000
,  // measure 18
0100
0001
0010
0100
,  // measure 19
1000
0000
0010
0000
0100
1000
0100
0000
,  // measure 20
0010
0001
1000
0100
,  // measure 21
0001
0000
0010
0000
0100
1000
0100
0000
,  // measure 22
0010
0001
1000
0010
,  // measure 23
0100
0000
1000
0000
0100
0001
0100
0000
,  // measure 24
0010
1000
0001
0010
,  // measure 25
0100
1001
0010
1001
,  // measure 26
0001
0000
0100
0000
1000
0100
0001
0000
,  // measure 27
0010
0100
1000
0010
,  // measure 28
0001
0000
0010
0000
0100
0001
0010
0000
,  // measure 29
0100
0110
0001
1001
,  // measure 30
0010
0000
0100
0000
0001
1000
0100
0000
,  // measure 31
0010
0000
0100
0000
1000
0001
0100
0000
,  // measure 32
0010
0010
0000
0000
,  // measure 33
0100
0000
0001
0000
0100
1000
0100
0000
,  // measure 34
0010
0100
1000
0100
,  // measure 35
0001
0000
0010
0000
0100
1000
0001
0000
,  // measure 36
0100
0010
1000
1001
,  // measure 37
0100
0000
0010
0000
0001
0010
1000
0000
,  // measure 38
0010
0001
1000
0010
,  // measure 39
0100
1000
0100
0010
,  // measure 40
1000
0000
0000
0000
0000
0000
0000
0000
0000
0000
0000
0001
0000
0000
0000
0000
;

//---------------dance-single - Blank----------------
#NOTES:
     dance-single:
     Blank:
     Easy:
     4:
     0.199,0.000,0.137,0.000,0.000: // measure 1
0000
0000
0000
0000
,  // measure 2
0000
0000
0000
0000
,  // measure 3
0000
0000
0000
0000
,  // measure 4
0000
0000
0000
0000
,  // measure 5
0010
0000
0010
0000
,  // measure 6
0100
0000
0100
0000
,  // measure 7
0001
0000
1000
0000
,  // measure 8
0100
0000
0010
0000
,  // measure 9
0110
0000
0100
1000
,  // measure 10
0010
0100
0001
0010
,  // measure 11
0100
0000
1000
0010
,  // measure 12
0100
1000
0100
0001
,  // measure 13
0010
0000
0100
0001
,  // measure 14
0100
0010
1000
0001
,  // measure 15
0100
0000
0010
0001
,  // measure 16
1000
0010
0100
0000
,  // measure 17
0110
0000
0010
1000
,  // measure 18
0100
0001
0100
0010
,  // measure 19
1000
0000
0010
0001
,  // measure 20
0100
1000
0100
0010
,  // measure 21
0001
0000
0010
0100
,  // measure 22
0001
0010
0100
1000
,  // measure 23
0010
0000
0100
0001
,  // measure 24
1000
0100
0010
0000
,  // measure 25
0110
0000
1001
0000
,  // measure 26
0010
0100
1000
0100
,  // measure 27
0001
0010
0100
0000
,  // measure 28
1000
0010
0100
0000
,  // measure 29
0110
0000
1001
0000
,  // measure 30
0100
0010
0001
1000
,  // measure 31
0010
0100
0001
1000
,  // measure 32
0100
0110
0000
0000
,  // measure 33
1010
0000
0101
0000
,  // measure 34
0010
1000
0100
0001
,  // measure 35
0100
1000
0010
0100
,  // measure 36
0001
1000
0100
0000
,  // measure 37
0011
0000
1100
0000
,  // measure 38
0001
0100
1000
0100
,  // measure 39
0010
1000
0001
0010
,  // measure 40
0110
0000
0000
0000
;
