#TITLE:PARANOiA Epic;
#SUBTITLE:;
#ARTIST:ShintoBe -FreePlay- OrlandoFl;
#TITLETRANSLIT:;
#SUBTITLETRANSLIT:;
#ARTISTTRANSLIT:;
#CREDIT:;
#BANNER:[Old School] - PARANOiA Epic.png;
#BACKGROUND:[Old School] - PARANOiA Epic-bg.png;
#LYRICSPATH:;
#CDTITLE:Cdtitle.png;
#MUSIC:[Old School] - PARANOiA Epic.mp3;
#OFFSET:-1.200;
#SAMPLESTART:46.820;
#SAMPLELENGTH:12.000;
#SELECTABLE:YES;
#DISPLAYBPM:100.000:200.000;
#BPMS:0.000=200.000,32.000=400.000,36.000=200.000,120.000=100.000,136.000=200.000,168.000=100.000,176.000=200.000,284.000=100.000,286.000=200.000,302.000=100.000;
#STOPS:32.000=0.150
,33.000=0.150
,34.000=0.150
,35.000=0.150
;
#BGCHANGES:;

//---------------dance-single - ----------------
#NOTES:
     dance-single:
     :
     Hard:
     9:
     0.615,0.753,0.336,0.000,0.181: // measure 1
0000
0000
0000
0000
,  // measure 2
0000
0000
0000
0000
,  // measure 3
0000
0000
0000
0000
,  // measure 4
0000
0000
0000
0000
,  // measure 5
1000
0000
0100
0000
0010
0100
0000
0000
,  // measure 6
0100
1000
0100
0000
0010
0000
0000
0000
,  // measure 7
0001
1000
0001
1000
,  // measure 8
0100
0010
0100
0010
,  // measure 9
0110
1001
1010
0101
,  // measure 10
1000
0100
1000
0000
0100
0000
0010
0000
,  // measure 11
0001
0100
0001
0000
0010
0000
0100
0000
,  // measure 12
1000
0001
1000
0000
0010
0000
0100
0000
,  // measure 13
0001
1000
0001
0000
1000
0000
0100
0000
,  // measure 14
0010
0001
0100
0001
0100
0001
0010
0000
,  // measure 15
0100
1000
0010
1000
0010
1000
0100
0000
,  // measure 16
1000
0010
0100
0010
1000
0010
0100
0000
,  // measure 17
0001
1000
0010
1000
0100
1000
0001
0000
,  // measure 18
1000
0000
0100
0000
1000
0000
0100
0010
0100
0000
0010
0000
0001
0000
0000
0000
,  // measure 19
0001
0000
0100
0000
0001
0000
0010
0100
0010
0000
0001
0000
1000
0000
0000
0000
,  // measure 20
0100
0000
0010
0000
0100
0000
1000
0001
1000
0000
0001
0000
0100
0000
0000
0000
,  // measure 21
0010
0000
1000
0000
0010
0000
0100
0001
0100
0000
0010
0000
1000
0000
0000
0000
,  // measure 22
1000
0001
0010
0001
0100
0000
0101
0000
,  // measure 23
1000
0000
0100
0000
1000
0000
0100
0000
0010
0001
0000
0010
0000
0000
0000
0000
,  // measure 24
0001
0000
0010
0000
0001
0000
0010
0000
0100
1000
0000
0100
0000
0000
0000
0000
,  // measure 25
1000
0000
0100
0000
0010
0000
0001
0000
1000
0010
0000
1000
0000
0000
0000
0000
,  // measure 26
0001
0000
0010
0000
0100
0000
1000
0000
0001
0100
0000
0001
0000
0000
0000
0000
,  // measure 27
0100
0000
0010
0000
0100
0000
0010
0000
1000
0001
0000
0100
0000
0000
0000
0000
,  // measure 28
0001
0000
0010
0000
0001
0000
0010
0000
0100
1000
0000
0001
0000
0000
0000
0000
,  // measure 29
1000
0000
0010
0000
1000
0000
0010
0000
1000
0001
0000
0100
0000
0000
0000
0000
,  // measure 30
0010
0100
0001
0100
0010
0100
0001
0100
,  // measure 31
0010
0000
1000
0000
0010
0000
0000
0000
1010
0000
0010
0100
0000
0000
0000
0000
,  // measure 32
0001
0000
1000
0010
0000
0000
0000
0000
1000
0100
0000
1000
0000
0000
0000
0000
,  // measure 33
1000
0000
0100
0000
1000
0000
0000
0000
0101
0000
0100
0001
0000
0000
0000
0000
,  // measure 34
1000
0000
0010
1000
0000
0000
0000
0000
0100
0010
0000
0001
0000
0000
0000
0000
,  // measure 35
1000
0100
1000
0000
0100
0000
0010
0000
,  // measure 36
0100
0000
0010
0001
0000
0100
0010
0100
,  // measure 37
0001
1000
0010
0000
1000
0000
0100
0000
,  // measure 38
0010
0001
0010
0100
0010
0000
0011
0000
,  // measure 39
0001
0100
0010
0000
1000
0000
0001
0000
,  // measure 40
0010
0000
0100
1000
0000
0100
1000
0010
,  // measure 41
1000
0100
1000
0000
0100
0000
0010
0000
,  // measure 42
0100
1000
0010
1000
0100
0000
1100
0000
,  // measure 43
1001
0000
0000
0000
1000
0000
0000
0000
0000
0000
0000
0001
0010
0000
0001
1000
,  // measure 44
0010
1000
0001
0000
0010
0000
0100
0010
0001
0000
0100
0000
0010
0000
1000
0000
,  // measure 45
0001
0000
0100
0000
0010
1000
0010
0000
,  // measure 46
0100
0000
0001
0000
0010
0100
0010
0000
,  // measure 47
0100
0000
1000
0000
0001
0100
0001
0000
,  // measure 48
0010
0000
0001
0000
1000
0010
1000
0000
,  // measure 49
0001
0010
0001
0000
0001
0100
0001
0000
,  // measure 50
1000
0010
1000
0000
1000
0100
1000
0000
,  // measure 51
0001
0010
0100
0010
0001
1000
0001
0100
,  // measure 52
0001
0010
0100
1000
0001
0100
0001
1000
,  // measure 53
0100
0010
0100
1000
0010
1000
0010
1000
,  // measure 54
0100
0010
0001
0100
0001
0100
0001
0010
,  // measure 55
0100
1000
0100
0010
0001
1000
0100
0010
,  // measure 56
0001
0010
0001
0010
0100
1000
0100
1000
,  // measure 57
0001
0101
0001
0101
,  // measure 58
1000
0100
1000
0000
,  // measure 59
1000
0010
0000
0110
0000
0110
0000
0010
,  // measure 60
1000
0100
0010
0000
,  // measure 61
0001
0011
0001
0011
,  // measure 62
0001
0100
0010
0000
,  // measure 63
1000
1100
0000
0100
0110
0000
0010
0011
,  // measure 64
0000
0001
1001
0000
0010
0000
1010
0000
,  // measure 65
1000
0100
1000
0010
0100
0000
0101
0000
,  // measure 66
0001
0000
0001
0100
0000
0100
0010
0000
,  // measure 67
0100
0001
0100
0010
1000
0000
1100
0000
,  // measure 68
0100
0000
1000
0010
0000
0010
1000
0000
,  // measure 69
0010
0100
0010
1000
0001
0000
1001
0000
,  // measure 70
1000
0000
0100
0010
0000
0010
0001
0000
,  // measure 71
0001
0010
0001
1000
0010
0000
0110
0000
,  // measure 72
0100
0010
0000
0100
0001
0010
0100
0000
1000
0000
0100
0000
1000
0000
0010
0000
,  // measure 73
1000
0001
1000
0000
0001
0010
0001
0100
,  // measure 74
0001
1000
0001
0000
0010
0100
1000
0010
,  // measure 75
0100
0001
0010
0000
0100
1000
0100
0010
,  // measure 76
0100
0000
0010
0000
0001
0000
0000
0000
1001
0000
1000
0000
0100
0000
0010
0001
,  // measure 77
0010
0000
0100
0000
0110
0000
0000
0000
0110
0010
0000
0100
0110
0000
0000
0000
,  // measure 78
1001
0000
0000
1100
0000
0000
0000
0000
1010
1000
0000
0010
1010
0000
0000
0000
,  // measure 79
1010
0000
0000
0110
0000
0000
0000
0000
0101
0100
0000
0001
0101
0000
0000
0000
,  // measure 80
0101
0010
0001
0010
1001
0000
0000
0000
;

//---------------dance-single - ----------------
#NOTES:
     dance-single:
     :
     Medium:
     7:
     0.431,0.548,0.327,0.000,0.112:
0000
0000
0000
0000
,
0000
0000
0000
0000
,
0000
0000
0000
0000
,
0000
0000
0000
0000
,
1000
0100
1100
0000
,
0001
0010
0001
0000
0101
0000
0000
0000
,
1000
0100
0010
0001
,
1000
0100
0010
0001
,
1001
0001
1001
0001
,
0010
0001
0000
0000
0100
0000
0001
0000
,
0001
0100
0000
0000
0100
0000
0010
0000
,
1000
0010
0000
0000
0100
0000
0001
0000
,
0100
0010
0000
0000
1000
0000
0100
0000
,
0100
1000
0000
0000
1000
0000
0010
0000
,
0010
0100
0000
0000
0100
0000
0001
0000
,
0001
0010
0000
0000
0010
0000
0100
0000
,
1000
0010
0000
0000
0010
0000
0100
0000
,
0001
0010
0001
0010
,
0011
0001
0010
0100
,
1000
0010
1000
0010
,
1010
1000
0100
0010
,
0001
0010
0001
0010
0001
0000
0101
0000
,
1000
0000
0100
0000
0000
0000
0000
0000
1000
0000
0000
1100
0000
0000
0000
0000
,
0001
0000
0100
0000
0000
0000
0000
0000
0001
0000
0000
0011
0000
0000
0000
0000
,
0010
0000
1000
0000
0000
0000
0000
0000
1000
0000
0000
1010
0000
0000
0000
0000
,
0010
0000
0100
0000
0000
0000
0000
0000
0100
0000
0000
0101
0000
0000
0000
0000
,
0001
0000
0010
0000
0000
0000
0000
0000
0001
0000
0000
1001
0000
0000
0000
0000
,
1000
0000
0100
0000
0000
0000
0000
0000
0100
0000
0000
0110
0000
0000
0000
0000
,
0010
0000
0001
0000
0000
0000
0000
0000
0001
0000
0000
0011
0000
0000
0000
0000
,
0001
0000
1000
0000
0000
0000
0000
0000
0010
0000
0000
0110
0000
0000
0000
0000
,
1000
0000
0100
0000
1000
0000
0000
0000
0100
0000
0000
0110
0000
0000
0000
0000
,
0001
0000
0010
0000
0100
0000
0000
0000
1010
0000
0000
1000
0000
0000
0000
0000
,
0100
0000
0010
0000
0100
0000
0000
0000
0010
0000
0000
0011
0000
0000
0000
0000
,
0001
0000
0100
0000
0001
0000
0000
0000
0011
0000
0000
0001
0000
0000
0000
0000
,
0001
0010
0000
0000
0000
0000
0000
0000
,
0000
0000
0100
1000
0000
0010
0100
0001
,
0100
0010
0000
0000
0000
0000
0000
0000
,
1000
0010
1000
0010
1000
0000
1010
0000
,
0010
0100
0000
0000
0000
0000
0000
0000
,
0000
0000
0100
0010
0000
0010
1000
0100
,
1000
0010
0000
0000
0000
0000
0000
0000
,
1000
0100
0010
0001
1000
0000
1001
0000
,
1001
0000
0000
0000
0000
0000
0000
0000
0000
0000
0000
0100
0010
0000
0010
0100
,
0001
0100
0010
0000
0000
0000
1000
0001
1000
0000
0001
0000
1001
0000
0000
0000
,
0001
0010
0100
1000
,
0001
0010
0001
0100
,
0001
1000
0100
0010
,
0001
1000
0100
1000
,
0100
0010
0001
0010
,
0001
0010
0100
1000
,
0001
0010
0100
1000
,
0100
0010
0100
1000
,
0100
1000
0100
0010
,
0001
1000
0100
0010
,
0001
0000
0000
0000
,
1000
0010
1000
0010
1000
0000
1010
0000
,
0010
0100
0010
0110
,
0100
0001
0100
0000
,
0001
0010
0000
0001
0000
0010
0000
0001
,
0100
0010
1000
0000
,
1000
0001
1000
0001
,
1001
0001
0010
0000
,
0001
0100
0000
0100
0010
0000
0010
1000
,
0000
1000
0001
0000
1000
0000
1010
0000
,
0010
0000
0010
0100
0010
0000
1000
0000
,
1010
0000
0000
0000
,
0001
0000
0100
0001
0100
0000
0001
0000
,
0101
0000
0000
0000
,
0100
0000
0010
1000
0010
0000
0100
0000
,
0101
0000
0000
0000
,
1000
0001
1000
0000
1000
0001
1000
0000
,
1000
0001
0000
0000
0000
0000
0000
0000
0001
0000
0000
0000
0010
0000
0000
0000
,
0100
1000
0001
0010
,
0001
0100
0001
1000
,
0010
0100
0001
0010
,
0100
0000
1000
0000
0001
1000
0001
0000
,
0010
0000
0000
0011
0000
0000
0000
0000
1000
0010
0000
1010
0000
0000
0000
0000
,
0100
0000
0000
0110
0000
0000
0000
0000
1000
0001
0000
0101
0000
0000
0000
0000
,
0001
0000
0000
0011
0000
0000
0000
0000
0100
1000
0000
1100
0000
0000
0000
0000
,
1001
0001
1000
0001
1001
0000
0000
0000
;

//---------------dance-single - ----------------
#NOTES:
     dance-single:
     :
     Easy:
     4:
     0.308,0.411,0.267,0.000,0.056:
0000
0000
0000
0000
,
0000
0000
0000
0000
,
0000
0000
0000
0000
,
0000
0000
0000
0000
,
1000
0000
1010
0000
,
0001
0010
0011
0000
,
1000
0000
1100
0000
,
1000
0000
1100
0000
,
0100
0010
0100
0010
,
0001
0010
0000
0000
0000
0000
0000
0000
,
0001
1000
0000
0000
0000
0000
0000
0000
,
0001
0010
0000
0000
0000
0000
0000
0000
,
0100
0010
0000
0000
0000
0000
0000
0000
,
0001
0010
0000
0000
0000
0000
0000
0000
,
0010
0100
0000
0000
0000
0000
0000
0000
,
0100
1000
0000
0000
0000
0000
0000
0000
,
1000
0100
0010
0001
,
1001
0001
1000
0001
,
1001
0000
0000
0000
,
0110
0010
0100
0010
,
0110
0000
0000
0000
,
1000
0010
0000
0010
0000
0000
1000
0000
,
0001
0000
0000
0000
0000
0000
0000
0000
0001
0000
0000
0010
0000
0000
0000
0000
,
0100
0000
0000
0000
0000
0000
0000
0000
1000
0000
0000
0100
0000
0000
0000
0000
,
0100
0000
0000
0000
0000
0000
0000
0000
0010
0000
0000
0001
0000
0000
0000
0000
,
0001
0000
0000
0000
0000
0000
0000
0000
0001
0000
0000
0010
0000
0000
0000
0000
,
0100
0000
0000
0000
0000
0000
0000
0000
0100
0000
0000
1000
0000
0000
0000
0000
,
1000
0000
0000
0000
0000
0000
0000
0000
0001
0000
0000
1000
0000
0000
0000
0000
,
0010
0000
0000
0000
0000
0000
0000
0000
0100
0000
0000
0001
0000
0000
0000
0000
,
0100
0010
1000
0010
,
0100
0000
0000
0000
0010
0100
0000
0000
,
0001
0000
0010
0000
0000
0000
0000
0000
0100
0000
0000
1000
0000
0000
0000
0000
,
0001
0010
0000
0000
0100
1000
0000
0000
,
1000
0000
0100
0000
0000
0000
0000
0000
0100
0000
0000
0010
0000
0000
0000
0000
,
0101
0000
0000
0000
,
0000
0000
0000
1010
0000
1000
0010
0000
,
1000
0010
0000
0000
0000
0000
0000
0000
,
0001
0100
0000
0010
0000
0100
0001
0000
,
1001
0000
0000
0000
,
0000
0000
0000
0011
0000
0001
1000
0000
,
1000
0001
0000
0000
0000
0000
0000
0000
,
1000
0001
0000
0100
0000
0010
1000
0000
,
1001
0000
0000
0000
0000
0000
0000
0000
0000
0000
0000
1000
0000
0000
0000
0000
,
1000
0100
0010
0001
,
1000
0001
0000
0000
0000
0000
0000
0000
,
0001
0010
0000
0000
0000
0000
0000
0000
,
0010
0100
0000
0000
0000
0000
0000
0000
,
0100
1000
0000
0000
0000
0000
0000
0000
,
1000
0100
0000
0000
0000
0000
0000
0000
,
0100
0010
0000
0000
0000
0000
0000
0000
,
0010
0001
0000
0000
0000
0000
0000
0000
,
0001
1000
0000
0000
0000
0000
0000
0000
,
1001
1000
0100
1000
,
1100
0100
0010
0100
,
0110
0010
0001
0010
,
0011
0001
0100
0001
,
0101
0001
0010
0100
,
1100
0000
0000
0000
,
0000
1000
0000
0100
0000
0010
0000
0000
,
0011
0000
0000
0000
,
0100
0010
1000
0001
,
1001
0000
0000
0000
,
1000
0000
0000
0100
0000
0000
1000
0000
,
0000
0100
0000
0000
1000
0000
0000
0000
,
1000
0100
1000
0100
,
0010
0001
0010
0001
,
1000
0001
1000
0001
,
0100
0001
0100
0001
,
0010
0001
0010
0001
,
0100
0010
0100
0010
,
1000
0010
1000
0010
,
1010
0000
1000
0000
,
1100
0000
0100
0000
,
0110
0000
0010
0000
,
0011
0000
0001
0000
,
0101
0000
0110
0000
,
0001
1000
0000
0000
1000
0100
1000
0000
,
1000
0000
0000
1010
0000
0000
0000
0000
0001
0000
0100
0000
0001
0000
0000
0000
,
0100
0000
0000
0110
0000
0000
0000
0000
1000
0000
0000
1010
0000
0000
0000
0000
,
1000
0001
1001
0000
;

//---------------dance-single - ----------------
#NOTES:
     dance-single:
     :
     Beginner:
     2:
     0.160,0.274,0.267,0.000,0.000:
0000
0000
0000
0000
,
0000
0000
0000
0000
,
0000
0000
0000
0000
,
0000
0000
0000
0000
,
1000
0000
0000
0000
,
1100
0000
0000
0000
,
0110
0000
0000
0000
,
0110
0000
0000
0000
,
0001
0000
1000
0000
,
0001
0000
0000
0000
,
0011
0000
0000
0000
,
0010
0000
0000
0000
,
0110
0000
0000
0000
,
0100
0000
0000
0000
,
1100
0000
0000
0000
,
0100
0000
0000
0000
,
0110
0000
0000
0000
,
0010
0000
0000
0000
,
0011
0000
0000
0000
,
0001
0000
0000
0000
,
0101
0000
0000
0000
,
0100
0000
0000
0000
,
0001
0000
0000
0000
,
0010
0000
0000
0000
,
0100
0000
0000
0000
,
1000
0000
0000
0000
,
0100
0000
0000
0000
,
0010
0000
0000
0000
,
0001
0000
0000
0000
,
0010
0000
0000
0000
,
0100
0000
1000
0000
,
0100
0000
0010
0000
,
0100
0000
1000
0000
,
0100
0000
0010
0000
,
0101
0000
0000
0000
,
0000
0000
0000
0011
0000
0000
0000
0000
,
0110
0000
0000
0000
,
1001
0000
0000
0000
,
0101
0000
0000
0000
,
0000
0000
0000
1001
0000
0000
0000
0000
,
1010
0000
0000
0000
,
0101
0000
0000
0000
,
0101
0000
0000
0000
,
1000
0100
1000
0100
,
1000
0000
0000
0000
,
0100
0000
0000
0000
,
0010
0000
0000
0000
,
0001
0000
0000
0000
,
1000
0000
0000
0000
,
0100
0000
0000
0000
,
0010
0000
0000
0000
,
0001
0000
0000
0000
,
0101
0000
0000
0000
,
0011
0000
0000
0000
,
0110
0000
0000
0000
,
1100
0000
0000
0000
,
1000
0010
1000
0010
,
1000
0000
0000
0000
,
0000
0010
0000
0100
0000
0010
0000
0000
,
0100
0000
0000
0000
,
0001
0100
0001
0100
,
0001
0000
0000
0000
,
1000
0000
0000
0100
,
0000
0000
0010
0000
,
0001
0000
0000
0000
,
0101
0000
0000
0000
,
0100
0000
0000
0000
,
1010
0000
0000
0000
,
0010
0000
0000
0000
,
0101
0000
0000
0000
,
0010
0000
0000
0000
,
0110
0000
1000
0000
,
0000
0000
0100
0000
,
0000
0000
0010
0000
,
0000
0000
0001
0000
,
0000
0000
1000
0000
,
1001
0000
0001
0000
,
1001
0000
0100
0000
,
0110
0000
0010
0000
,
0110
0010
0110
0000
;
