#VERSION:0.81;
#TITLE:ORION.78(AMeuro-MIX);
#SUBTITLE:;
#ARTIST:RE-VENGE;
#TITLETRANSLIT:;
#SUBTITLETRANSLIT:;
#ARTISTTRANSLIT:;
#GENRE:;
#ORIGIN:;
#CREDIT:;
#BANNER:ORION.78(AMeuro-MIX).png;
#BACKGROUND:ORION.78(AMeuro-MIX)-bg.png;
#PREVIEWVID:;
#JACKET:;
#CDIMAGE:;
#DISCIMAGE:;
#LYRICSPATH:;
#CDTITLE:./CDTITLES/DANCE DANCE REVOLUTION 4THMIX.PNG;
#MUSIC:ORION.78(AMeuro-MIX).mp3;
#OFFSET:-0.049000;
#SAMPLESTART:27.450001;
#SAMPLELENGTH:15.000000;
#SELECTABLE:YES;
#DISPLAYBPM:105.000000;
#BPMS:0.000=105.000;
#STOPS:;
#DELAYS:;
#WARPS:;
#TIMESIGNATURES:0.000=4=4;
#TICKCOUNTS:0.000=4;
#COMBOS:0.000=1;
#SPEEDS:0.000=1.000=0.000=0;
#SCROLLS:0.000=1.000;
#FAKES:;
#LABELS:0.000=Song Start;
#BGCHANGES:;
#KEYSOUNDS:;
#ATTACKS:
;

//---------------dance-single - ----------------
#NOTEDATA:;
#CHARTNAME:;
#STEPSTYPE:dance-single;
#DESCRIPTION:;
#CHARTSTYLE:;
#DIFFICULTY:Easy;
#METER:3;
#RADARVALUES:0.332089,0.378837,0.488822,0.000000,0.027157,169.000000,45.000000,0.000000,0.000000,0.000000,0.000000,0.000000,0.000000,0.332089,0.378837,0.488822,0.000000,0.027157,169.000000,45.000000,0.000000,0.000000,0.000000,0.000000,0.000000,0.000000;
#CREDIT:;
#DISPLAYBPM:105.000000;
#NOTES:
0000
0000
0000
0000
,
0000
0000
0000
0000
,
0000
0000
0000
0000
,
1000
0000
0001
0000
,
1000
0010
1000
0010
,
1001
0000
1010
0000
,
1100
0010
0001
0000
0000
0000
0001
0000
,
0000
0000
1010
0001
0000
0000
0000
0000
,
0000
1000
0000
0000
0000
0000
0000
0000
,
1001
1001
0010
0000
1001
0010
0000
0100
,
1001
0000
0000
1001
,
0110
0011
1100
0110
,
1000
0000
0001
0001
,
0010
0100
1000
0010
,
1001
1001
0010
0100
,
0001
0010
0000
0000
1000
0100
0000
0000
0001
0010
0000
0000
1000
0100
0000
0010
,
0001
0100
1000
0100
0000
0001
0010
0001
,
0000
0100
0010
0100
0000
0010
0100
0010
,
0110
0101
0110
1010
,
0110
0101
1001
0110
,
0001
1000
0010
0001
,
0100
0000
0001
1000
0000
0100
0010
1001
,
0001
0010
0100
1000
,
0010
0100
0001
1001
,
1001
0001
0010
1000
0100
0010
0100
0100
,
0010
0100
1000
0001
0010
0100
1100
0001
,
0001
1001
0100
0100
0110
0010
0010
0110
,
1000
0100
0000
0001
0010
0000
1010
0000
,
0110
0101
0110
0101
,
1001
0101
0110
1100
,
0001
0000
1000
0100
0000
0010
0100
0000
,
1001
0001
0010
1000
0100
0001
0000
0001
,
0000
1010
0000
0010
0100
0001
0010
1000
,
0100
0000
0001
0000
0001
0000
1000
0001
,
1000
1000
0100
0001
,
1000
0000
0100
0000
0010
0000
1001
0100
,
0010
0100
1000
0100
0010
0000
0001
0000
,
0010
1000
0010
0100
,
0010
1001
1001
1001
;

//---------------dance-single - ----------------
#NOTEDATA:;
#CHARTNAME:;
#STEPSTYPE:dance-single;
#DESCRIPTION:;
#CHARTSTYLE:;
#DIFFICULTY:Hard;
#METER:9;
#RADARVALUES:0.577276,0.631395,0.651763,0.000000,0.586587,312.000000,60.000000,0.000000,0.000000,0.000000,0.000000,0.000000,0.000000,0.577276,0.631395,0.651763,0.000000,0.586587,312.000000,60.000000,0.000000,0.000000,0.000000,0.000000,0.000000,0.000000;
#CREDIT:;
#DISPLAYBPM:105.000000;
#NOTES:
// measure 0
0000
0000
0000
0000
,  // measure 1
0000
0000
0000
0000
,  // measure 2
0000
0000
0000
0000
,  // measure 3
1001
0000
0000
0000
1000
0100
0000
0001
0010
0000
1000
0100
0000
0001
0010
0000
,  // measure 4
0000
0100
0010
0000
0010
0100
0000
0000
1000
0100
0000
0000
0001
0010
1000
0000
,  // measure 5
0010
0001
0101
0010
1010
0110
0010
0011
,  // measure 6
1000
0100
1000
0100
1000
0100
1000
0001
0010
0001
0010
0001
0010
0001
1000
0100
,  // measure 7
1000
0100
1000
0100
1000
0000
0100
0000
0000
0000
0010
0000
1000
0000
0010
0000
,  // measure 8
0001
0000
1001
0000
0001
0010
0001
0000
1001
1000
0100
1000
0110
0010
0100
0010
,  // measure 9
0000
1010
0101
0000
0110
1001
0000
0011
,  // measure 10
1100
0110
0011
0110
1100
0101
0000
1001
,  // measure 11
0100
1001
0010
1001
0100
1001
0010
1001
,  // measure 12
0100
1000
0100
0010
0001
0100
0001
0010
,  // measure 13
0000
0010
0001
0100
0000
1001
0000
0110
,  // measure 14
0000
0000
1000
0000
0000
0000
0100
0000
0001
0000
0010
0000
1000
0100
0000
0000
,  // measure 15
0001
0010
0000
0000
1000
0100
0000
0000
0001
0010
0000
0000
1000
0100
0000
0000
,  // measure 16
0010
0000
1000
0100
0001
0010
0100
1000
,  // measure 17
0000
0100
0000
0010
0000
0001
0000
1010
,  // measure 18
0000
0001
1001
0001
1001
0001
0101
0000
,  // measure 19
0001
0000
0010
0000
0001
0000
0001
0010
0100
1001
0000
0000
0000
0000
0000
0000
,  // measure 20
1000
0000
0000
0000
1000
0000
0000
0000
1000
0100
0000
0010
0100
0000
0000
0000
,  // measure 21
1001
0000
0000
0000
0001
0010
0000
0000
1000
0100
0000
0000
0010
0100
0000
0000
,  // measure 22
1000
0100
0000
0000
0001
0010
0000
0000
0100
0010
0000
0000
1000
0100
0000
0000
,  // measure 23
0001
0010
0000
0000
1000
0100
0000
0000
0010
0100
0000
0000
1000
0001
0000
0000
,  // measure 24
1001
0000
0000
0001
0010
0100
0000
0000
1000
0100
0010
0000
0001
0010
0100
0000
,  // measure 25
1001
0001
0100
0010
1001
0100
0010
1000
0101
0010
0100
1000
0011
0000
0001
0010
,  // measure 26
1001
0000
0001
0010
0001
1000
0100
1000
0010
0100
0010
1000
0100
1000
0001
0010
,  // measure 27
0001
0001
1000
0010
,  // measure 28
0100
0011
0110
1100
,  // measure 29
0110
0011
0101
1100
,  // measure 30
0101
0000
0000
0000
0000
0000
0000
0000
0000
0000
0000
0000
1000
0000
0000
0000
0100
0000
0000
0000
0010
0000
0000
0000
0001
0000
0000
0000
0010
0000
0000
0000
0100
0000
0000
0000
1000
0000
0000
0101
0000
0000
0000
0000
0000
0101
0000
0000
,  // measure 31
0000
0101
0000
0000
1000
0100
0010
0001
0100
0010
0100
1000
0001
0010
1000
0100
,  // measure 32
0001
0010
1000
0100
0001
0010
1000
0100
0001
0010
1000
0100
0001
0010
0000
0000
,  // measure 33
1001
1000
0100
0000
0101
0010
0100
1000
0000
0010
0000
0000
0000
0000
0000
0000
,  // measure 34
1001
0000
0000
0000
1001
0000
0000
0000
1001
0000
0000
0000
0001
0010
0001
0000
,  // measure 35
1000
0100
1000
0000
0001
0010
0001
0000
1001
0110
0011
0110
0000
0000
0000
0000
,  // measure 36
0011
0000
1000
0100
0010
0001
1000
0100
0010
0001
1000
0100
,  // measure 37
0010
0000
0000
0000
0001
0000
0000
0000
0000
1000
0000
0000
0100
0000
0000
1000
0000
0000
0101
0000
0000
0000
0000
0000
0001
0000
0000
0010
0000
0000
0100
0000
0000
1000
0000
0000
0001
0000
0000
0000
0000
0000
0001
0000
0000
0010
0000
0000
,  // measure 38
0100
1000
0001
0000
0000
0001
0010
0100
1000
0100
0010
0001
1000
0000
0000
0000
;

//---------------dance-single - ----------------
#NOTEDATA:;
#CHARTNAME:;
#STEPSTYPE:dance-single;
#DESCRIPTION:;
#CHARTSTYLE:;
#DIFFICULTY:Medium;
#METER:7;
#RADARVALUES:0.477960,0.547209,0.401921,0.000000,0.276999,271.000000,37.000000,0.000000,0.000000,0.000000,0.000000,0.000000,0.000000,0.477960,0.547209,0.401921,0.000000,0.276999,271.000000,37.000000,0.000000,0.000000,0.000000,0.000000,0.000000,0.000000;
#CREDIT:;
#DISPLAYBPM:105.000000;
#NOTES:
0000
0000
0000
0000
,
0000
0000
0000
0000
,
0000
0000
0000
0000
,
0001
0010
1000
0100
0001
0010
1000
0100
,
0000
1000
0100
0010
0001
0010
0100
0001
,
0010
1000
0100
0010
0001
1001
0100
0001
,
0010
0001
1000
0100
1000
0001
0010
0001
,
1000
0000
0000
0011
0100
1000
1000
0100
,
0010
0001
0010
0100
1000
0100
0010
0001
,
1000
0010
0100
0010
,
0001
1001
1001
0100
,
1000
0010
0001
0010
,
0100
1000
0100
0011
,
0100
0000
1000
0000
0100
0001
0010
0001
,
1000
0010
0100
0001
0010
0100
1000
0100
,
0010
0001
0001
1001
0001
0010
0100
1000
,
1001
0000
0000
0000
1000
0100
1000
0001
0000
0010
1100
0000
0000
0000
0011
0000
,
0000
0110
0000
1001
0000
1010
0000
0101
,
0000
0000
0010
0000
0100
0100
0010
0000
0100
0100
0010
0000
0100
0100
0010
0000
,
0100
0100
0010
0000
0100
0100
0010
0000
0100
0100
0010
0000
0100
0100
0010
0000
,
1000
0000
1000
0000
1000
0000
1000
0100
,
1000
0000
0100
0000
0010
0000
0101
0000
1010
0000
0110
0000
0001
0010
0001
0000
,
1000
0100
1000
0000
0001
0100
0001
0000
0010
1000
0010
0000
0001
0100
0000
1000
,
0100
0000
0000
0001
0000
0000
0010
0000
0000
0100
0000
0000
1000
0000
0000
0000
1000
0000
0000
0000
0100
0000
0000
0000
0001
0000
0000
0000
0000
0000
0001
0000
0000
0010
0000
0000
0000
0000
0000
0000
0000
0000
1010
0000
0000
0010
0000
0000
,
0100
0010
0001
0010
0001
0000
0010
0100
0010
0001
0010
0100
0010
0001
0010
0100
,
1001
0000
0000
0000
0000
0000
0010
0000
1000
0100
0001
0010
1000
0100
0001
0010
,
1000
0100
0001
0010
1000
0100
0000
0001
0010
0000
1000
0100
0000
0000
0001
0010
,
1000
0100
0000
0000
0101
0000
0000
0000
1010
0000
0000
0000
0110
0000
0000
0000
,
1001
1010
0101
1000
,
0010
0100
0001
0000
,
1001
1000
0100
0010
0001
0010
0100
0010
,
0010
0001
0010
1000
1000
1001
0001
0010
,
0100
0010
0001
0010
0100
1000
0100
0000
,
0001
0010
1001
0000
1001
0000
1001
0000
,
1001
0000
0100
0000
0010
0000
0001
0010
,
1000
0001
0010
0100
0000
1000
0001
0000
,
1001
1010
1100
1010
,
1001
0010
0010
0010
0000
0000
1001
0000
0001
0010
0100
1000
0001
1000
0100
0010
,
0001
1000
0000
0001
0010
0100
1000
0100
0010
0001
0010
0000
1001
0000
0000
0000
;
