#TITLE:Move Your Feet;
#SUBTITLE:;
#ARTIST:Junior Senior;
#TITLETRANSLIT:;
#SUBTITLETRANSLIT:;
#ARTISTTRANSLIT:;
#GENRE:Pop;
#CREDIT:;
#BANNER:[Old School] - Move Your Feet.png;
#BACKGROUND:[Old School] - Move Your Feet-bg.png;
#LYRICSPATH:;
#CDTITLE:;
#MUSIC:[Old School] - Move Your Feet.mp3;
#OFFSET:1.450128;
#SAMPLESTART:55.059998;
#SAMPLELENGTH:15.000000;
#LASTBEATHINT:0.859116;
#SELECTABLE:YES;
#BPMS:0.000000=118.900002
;
#STOPS:
;
#BGCHANGES:3.000=[Old School] - Move Your Feet.avi=1.000=0=0=0=StretchNoLoop====,
99999=-nosongbg-=1.000=0=0=0 // don't automatically add -songbackground-
;
#KEYSOUNDS:;
#ATTACKS:;

//---------------dance-single - ----------------
#NOTES:
     dance-single:
     :
     Easy:
     3:
     0.219803,0.197259,0.105205,0.000000,0.000000,109.000000,8.000000,0.000000,0.000000,0.000000,0.000000,0.219803,0.197259,0.105205,0.000000,0.000000,109.000000,8.000000,0.000000,0.000000,0.000000,0.000000:
0000
0000
0000
0000
,
0000
0000
0000
0000
,
0000
0000
0000
0000
,
0010
1000
0001
0010
,
0000
0100
1000
0100
,
0000
1000
0001
0010
,
0100
0100
0000
0010
,
0001
1000
0001
0000
,
0000
0100
0001
0100
,
0000
0010
1000
0100
,
0001
0001
0000
0100
,
0110
0000
0110
0000
,
1001
0000
1001
1000
,
0010
0000
0010
0000
,
0100
0100
0100
0001
,
0001
0000
0001
0000
,
1000
1000
1000
0100
,
0100
0000
0100
0000
,
0010
0010
0010
0001
,
0001
0000
0001
0000
,
1000
1000
1000
0010
,
0010
0100
0010
0000
,
0100
0010
0100
0000
,
0001
0100
0001
0000
,
1000
0001
1000
0000
,
0100
0010
0100
0001
,
0100
0010
0100
1000
,
0010
0100
0010
0001
,
0010
1000
0001
0010
,
0000
0100
1000
0010
,
0000
0100
0001
0010
,
0100
0100
0000
1000
,
0001
1000
0010
0100
,
0001
0010
0001
0100
,
0000
0010
0100
0001
,
1000
1000
0000
0100
,
0110
0000
0110
0000
,
1001
0000
1001
0000
;

//---------------dance-single - ----------------
#NOTES:
     dance-single:
     :
     Medium:
     5:
     0.302464,0.295889,0.276163,0.000000,0.000000,140.000000,21.000000,0.000000,0.000000,0.000000,0.000000,0.302464,0.295889,0.276163,0.000000,0.000000,140.000000,21.000000,0.000000,0.000000,0.000000,0.000000:
0000
0000
0000
0000
,
0000
0000
0000
0000
,
0000
0000
0000
0000
,
1000
0001
0010
0100
,
0010
0001
0010
0001
,
0100
0000
0010
0000
0100
0100
0100
0000
,
0001
0010
0001
1000
,
0010
0100
0010
0100
,
0001
1000
0010
1000
,
0001
0000
0010
0000
0100
0100
0100
0000
,
1100
0011
0101
1010
,
1001
0000
0011
0000
,
1001
0000
1010
0010
,
0100
0000
0000
0001
0100
0000
0000
0001
,
0010
0000
0000
0001
0100
0000
0001
0000
,
0010
0000
0000
1000
0010
0000
0000
0100
,
0010
0000
0000
1000
0010
0000
0001
0000
,
0100
0000
0000
1000
0100
0000
0000
0010
,
0100
0000
0000
1000
0100
0000
0001
0000
,
0010
0000
0000
0001
0010
0000
0000
0100
,
0010
0000
0000
0001
0010
0000
0100
0000
,
1000
1000
0001
0001
,
0100
0010
0100
0010
,
1000
1000
0001
0001
,
0010
0010
0010
0000
0100
0100
0100
0000
,
1000
1100
1000
0001
,
0100
0101
0100
0010
,
1000
1010
1000
0001
,
0011
1001
1010
0110
,
0100
0001
0010
0001
,
1000
0000
0010
0000
0100
0100
0100
0000
,
0001
0010
0001
1000
,
0010
0000
0100
0000
0010
0000
1000
0001
,
1000
0001
0010
0001
,
1000
0000
0001
0000
0100
0100
0100
0000
,
0110
0110
0010
1000
,
1001
0000
0011
0000
,
1001
0000
1010
0000
;

//---------------dance-single - ----------------
#NOTES:
     dance-single:
     :
     Hard:
     6:
     0.394519,0.394519,0.289314,0.000000,0.026301,188.000000,22.000000,0.000000,0.000000,0.000000,0.000000,0.394519,0.394519,0.289314,0.000000,0.026301,188.000000,22.000000,0.000000,0.000000,0.000000,0.000000:
0000
0000
0000
0000
,
0000
0000
0000
0000
,
0000
0000
0000
0000
,
0110
1010
0101
0011
,
0010
0000
0100
1000
0001
0000
0100
0000
,
0001
0000
0010
0000
0100
0100
0100
0000
,
1000
0000
0010
0000
0100
0001
0010
0001
,
0100
0000
0010
0000
1000
1000
1000
0000
,
0001
0000
0010
0001
0100
0000
0001
0000
,
1000
0000
0001
0000
0010
0010
0010
0000
,
0110
0100
1100
1000
,
1001
0010
0110
0001
,
1001
0100
0110
1010
,
1001
0000
0001
0010
0001
0000
1000
0010
,
1000
0000
0100
0000
0001
0000
0000
1000
0000
0000
0000
0000
0010
0000
0000
0000
,
0001
0000
0100
0010
1000
0000
0100
0010
,
0001
0000
0001
0000
0001
0000
0000
1000
0000
0000
0000
0000
0010
0000
0000
0000
,
0100
0000
0010
1000
0001
0000
0010
0001
,
1000
0000
0010
0000
0001
0000
0000
1000
0000
0000
0000
0000
0100
0000
0000
0000
,
0001
0000
0010
0100
0010
0000
0001
1000
,
0001
0000
0010
0000
0100
0000
0000
1000
0000
0000
0000
0000
0001
0000
0000
0000
,
1000
1000
1000
0000
0001
0001
0001
0000
,
0010
0100
0010
0100
1000
0001
1000
0000
,
0100
0100
0100
0000
0010
0010
0010
0000
,
0001
0010
0100
1000
0001
0100
0001
0100
,
0010
1000
0010
0100
0010
0001
0010
1000
,
0100
0001
0100
0010
0100
1000
0100
1000
,
0001
0100
0001
0010
0001
1000
0001
0100
,
0110
1010
0101
0011
,
0010
0000
0010
0100
1000
0000
0001
0000
,
0100
0000
0001
0000
0010
0010
0010
0000
,
0100
0000
1000
0000
0001
1000
0010
1000
,
0001
0000
0010
0000
0001
0001
0001
0000
,
0100
0000
0010
1000
0001
0000
0010
0000
,
0100
0000
1000
0000
0001
0001
0001
0000
,
0101
0001
0011
0010
,
0110
1000
1001
0010
,
0110
1000
1001
0000
;

//---------------dance-single - ----------------
#NOTES:
     dance-single:
     :
     Beginner:
     1:
     0.114598,0.147945,0.000000,0.000000,0.000000,61.000000,0.000000,0.000000,0.000000,0.000000,0.000000,0.114598,0.147945,0.000000,0.000000,0.000000,61.000000,0.000000,0.000000,0.000000,0.000000,0.000000:
0000
0000
0000
0000
,
0000
0000
0000
0000
,
0000
0000
0000
0000
,
1000
0000
1000
0000
,
1000
0000
0000
0000
,
0001
0000
0001
0000
,
0001
0000
0000
0000
,
0010
0000
0010
0000
,
0010
0000
0000
0000
,
0100
0000
0100
0000
,
0100
0000
0000
0000
,
1000
0000
1000
0000
,
1000
0000
1000
0000
,
0010
0000
0000
0000
,
0010
0000
0000
0000
,
0100
0000
0000
0000
,
0100
0000
0000
0000
,
0001
0000
0000
0000
,
0001
0000
0000
0000
,
1000
0000
0000
0000
,
1000
0000
0000
0000
,
0001
0001
0001
0000
,
0001
0001
0001
0000
,
0001
0001
0001
0000
,
0001
0001
0001
0000
,
1000
1000
1000
0000
,
1000
1000
1000
0000
,
1000
1000
1000
0000
,
0010
0000
0010
0000
,
0010
0000
0000
0000
,
0100
0000
0100
0000
,
0100
0000
0000
0000
,
0001
0000
0001
0000
,
0001
0000
0000
0000
,
1000
0000
1000
0000
,
1000
0000
0000
0000
,
0100
0000
0100
0000
,
0100
0000
0100
0000
;

//---------------dance-single - ----------------
#NOTES:
     dance-single:
     :
     Challenge:
     9:
     0.640623,0.567121,0.315615,0.052603,0.867941,313.000000,24.000000,4.000000,0.000000,0.000000,0.000000,0.640623,0.567121,0.315615,0.052603,0.867941,313.000000,24.000000,4.000000,0.000000,0.000000,0.000000:
// measure 0
0000
0000
0000
0000
,  // measure 1
0000
0000
0000
0000
,  // measure 2
0000
0000
0000
0000
,  // measure 3
1001
0011
0110
2100
,  // measure 4
3010
0000
1000
0001
1000
0001
0000
0010
0000
0001
0000
0100
0000
0010
0100
0000
,  // measure 5
0001
0000
0010
0100
0010
0100
0000
1000
0000
0010
0000
0100
0000
0010
1000
0000
,  // measure 6
0001
0000
0010
0100
0010
0100
0000
1000
0000
0001
0000
0100
0000
0001
0010
0000
,  // measure 7
0100
0000
0010
0001
0010
0001
0000
0100
0000
0010
0000
1000
0002
0000
0000
0000
,  // measure 8
0013
0000
0001
0010
0100
1000
0000
0010
0000
1000
0000
0001
1000
0010
0100
0000
,  // measure 9
0010
0000
1000
0010
0100
0001
0000
1000
0000
0001
0000
1000
0010
0100
0010
0000
,  // measure 10
0100
0000
0001
0010
0001
0010
0000
0100
1000
0100
0000
1000
0001
0100
0001
0100
,  // measure 11
0010
1100
0010
0101
,  // measure 12
0010
1001
0010
0120
,  // measure 13
0031
0000
0010
0100
1100
0000
1000
0010
,  // measure 14
0100
0000
0010
0100
0001
0000
1000
0001
0000
0001
1000
0000
0010
0100
0010
0100
,  // measure 15
0001
0000
0100
0010
1010
0000
1000
0100
,  // measure 16
0010
0000
0100
0010
0001
0000
1000
0001
0000
0001
1000
0000
0010
1000
0001
0010
,  // measure 17
0100
0000
0010
0100
1001
0000
0100
0010
,  // measure 18
1000
0000
0010
1000
0001
0000
0010
0001
0000
0001
0010
0000
0001
0100
1000
0100
,  // measure 19
0001
0000
0010
0100
1001
0000
0100
0010
,  // measure 20
1000
0000
0001
0010
0001
0000
0010
0100
0000
0100
1000
0000
0001
1000
0001
1000
,  // measure 21
0010
0000
0010
0000
0010
0000
0100
0000
0010
0000
1000
0010
0000
1000
0010
1000
,  // measure 22
0000
1000
0000
1000
0001
0000
0010
0000
0001
0000
1000
0001
0000
0001
0010
0001
,  // measure 23
0000
0001
0000
0100
0001
0000
0010
0000
0100
0000
0010
0100
0000
1000
0100
1000
,  // measure 24
0000
0001
1000
0010
0100
0001
1000
0001
0000
1000
0000
1001
0000
1000
0010
0000
,  // measure 25
0100
0000
0010
0000
0011
0000
0010
0000
1000
0000
0001
1000
0000
1000
0100
0000
,  // measure 26
0100
0000
0010
0000
1010
0000
0010
0000
0001
0000
0100
0001
0000
0001
1000
0000
,  // measure 27
0010
0000
0001
0000
0101
0000
0001
0000
0010
0000
0100
0010
0000
0010
0100
0000
,  // measure 28
0101
1010
1001
0021
,  // measure 29
0130
0000
0010
0001
0010
0001
0000
0100
0000
0001
0000
1000
0000
0100
1000
0000
,  // measure 30
0010
0000
1000
0010
1000
0010
0000
0100
0000
0010
0000
0100
0000
0001
0010
0000
,  // measure 31
0100
0000
0010
0001
0010
0001
0000
0100
0000
0001
0000
1000
0000
0001
0100
0000
,  // measure 32
0010
0000
0100
0010
0100
0010
0000
1000
0000
1000
0000
1000
0001
0010
0100
1000
,  // measure 33
0001
0000
0100
0001
0010
0100
0000
0010
0000
0001
0000
0100
0001
1000
0100
0000
,  // measure 34
1000
0000
0010
1000
0100
0010
0000
0100
0000
1000
0000
0001
0100
1000
0100
0000
,  // measure 35
0010
0000
1000
0010
0100
0001
0000
0100
0000
0001
0000
1000
0100
0010
0100
1000
,  // measure 36
0001
0101
0100
0110
,  // measure 37
0010
1010
1001
0000
;
