#TITLE:M.A.M.A.;
#SUBTITLE:;
#ARTIST:High Speed Music Team Sharpnel;
#TITLETRANSLIT:;
#SUBTITLETRANSLIT:;
#ARTISTTRANSLIT:;
#GENRE:;
#CREDIT:;
#BANNER:[Old School] - M.A.M.A.-bn.png;
#BACKGROUND:[Old School] - M.A.M.A.-bg.png;
#LYRICSPATH:;
#CDTITLE:cdtitle.png;
#MUSIC:[Old School] - M.A.M.A..ogg;
#OFFSET:-0.407;
#SAMPLESTART:55.262;
#SAMPLELENGTH:12.000;
#SELECTABLE:YES;
#DISPLAYBPM:175.000;
#BPMS:0.000=175.000
,192.000=174.500
,224.000=175.000
,240.000=175.200
,256.000=175.000
;
#STOPS:
;
#BGCHANGES:;
#KEYSOUNDS:;
#ATTACKS:;

//---------------dance-single - ----------------
#NOTES:
     dance-single:
     :
     Hard:
     8:
     0.509,0.565,0.181,0.000,0.000,393.000,21.000,0.000,0.000,0.000,0.000,0.509,0.565,0.181,0.000,0.000,393.000,21.000,0.000,0.000,0.000,0.000: // measure 0
0000
0000
0000
0000
,  // measure 1
0000
0000
0000
0000
,  // measure 2
0000
0000
0000
0000
,  // measure 3
0000
0000
0000
0000
,  // measure 4
1000
0000
0100
0000
0010
0000
0001
0001
,  // measure 5
0001
0000
0100
0000
0010
0000
1000
1000
,  // measure 6
1000
0000
0001
0000
0010
0000
0100
0100
,  // measure 7
0100
0000
1000
0000
0010
0000
0100
0100
,  // measure 8
0100
0000
0010
0000
1000
0000
0001
1000
,  // measure 9
0001
0000
0010
0000
0100
0000
1000
0001
,  // measure 10
1000
0000
0010
0000
0100
0000
0001
0010
,  // measure 11
0001
0000
0010
0000
0100
0000
1000
0100
,  // measure 12
1000
0000
1000
0000
1000
0000
0001
0100
,  // measure 13
0001
0000
0001
0000
0001
0000
1000
0100
,  // measure 14
1000
0010
0100
0001
,  // measure 15
1001
0000
0000
0000
,  // measure 16
1000
0001
1000
0001
,  // measure 17
0100
0000
0001
0000
1000
0000
0001
1000
,  // measure 18
0001
1000
0001
1000
,  // measure 19
0100
0000
1000
0000
0001
0000
1000
0001
,  // measure 20
1000
0010
0100
0001
,  // measure 21
1000
0000
0100
0000
0010
0000
0001
1000
,  // measure 22
0001
0100
0010
1000
,  // measure 23
0001
0000
0010
0000
0100
1000
0100
1000
,  // measure 24
0001
0101
0001
0101
,  // measure 25
0001
0000
0101
0000
0001
1000
0001
0000
,  // measure 26
1000
1100
1000
1100
,  // measure 27
1000
0000
1100
0000
1000
0001
1000
0000
,  // measure 28
0001
0011
0001
0011
,  // measure 29
0001
0000
0011
0000
0001
1000
0001
0000
,  // measure 30
1000
1010
1000
1010
,  // measure 31
1000
0000
1010
0000
1000
0000
0001
1000
,  // measure 32
0001
0000
0001
0010
0100
0000
0001
0010
,  // measure 33
0100
0000
0001
0010
0100
0000
1000
0000
,  // measure 34
0001
0000
1000
0010
0100
0000
1000
0010
,  // measure 35
0100
0000
1000
0010
0100
0000
0001
0000
,  // measure 36
1000
0000
0001
0010
0100
0000
0001
0010
,  // measure 37
0100
0000
0001
0010
0100
0000
1000
0000
,  // measure 38
0001
0000
1000
0010
0100
0000
1000
0010
,  // measure 39
0100
0100
0010
0010
,  // measure 40
1000
0100
0010
0100
,  // measure 41
1000
0000
0010
0000
0100
0000
0001
1000
,  // measure 42
0001
0010
0100
0010
,  // measure 43
0001
0000
0100
0000
0010
1000
0010
1000
,  // measure 44
0001
0010
0001
0010
,  // measure 45
0100
0000
1000
0000
0100
0000
1000
0001
,  // measure 46
1000
0010
1000
0010
,  // measure 47
0100
0001
0100
0000
0001
1000
0001
1000
,  // measure 48
0100
0010
0100
1000
,  // measure 49
0100
0000
0010
0000
0001
0000
0100
0001
,  // measure 50
0100
0010
0100
0001
,  // measure 51
0100
0000
0010
0000
1000
0001
1000
0001
,  // measure 52
0010
0100
1000
0100
,  // measure 53
0010
0000
0001
0000
0100
0000
0010
1000
,  // measure 54
0010
0100
0001
0100
,  // measure 55
0110
0110
1010
1010
,  // measure 56
1001
0100
0100
0100
,  // measure 57
1001
0010
0010
0010
,  // measure 58
1001
0100
0100
0100
,  // measure 59
1001
0010
0010
0010
,  // measure 60
0000
1000
0100
1000
0000
1000
0100
1000
,  // measure 61
0000
1000
0001
1000
0000
1000
0001
1000
,  // measure 62
0000
0001
0100
0001
0000
0001
0100
0001
,  // measure 63
1000
1000
0001
0001
,  // measure 64
1000
1000
0100
0100
,  // measure 65
0010
0000
0010
0000
0001
0000
0001
1000
,  // measure 66
0001
0001
0100
0100
,  // measure 67
0010
0000
0010
0000
1000
0001
1000
0001
,  // measure 68
0010
0010
0100
0100
,  // measure 69
1000
0000
1000
0000
0010
0000
0010
0100
,  // measure 70
0010
0010
0100
0100
,  // measure 71
0001
0000
0001
0000
0010
0100
0010
0100
,  // measure 72
1000
0010
1000
0000
1000
0001
1000
0000
,  // measure 73
0001
0100
0001
0000
0001
1000
0001
1000
,  // measure 74
0001
0010
0001
0000
0001
1000
0001
0000
,  // measure 75
1000
0010
1000
0000
1000
0001
1000
0001
,  // measure 76
0010
0100
0010
0000
0100
1000
0100
0000
,  // measure 77
1000
0001
1000
0000
0001
0100
0001
0100
,  // measure 78
0001
0010
0001
0010
0100
1000
0100
1000
,  // measure 79
0001
0100
0001
0100
0010
1000
0010
0000
,  // measure 80
1000
0100
1000
0100
0010
0001
0010
0001
,  // measure 81
1000
0010
1000
0010
0100
0001
0100
0001
,  // measure 82
1000
0000
0000
0000
;

//---------------dance-single - ----------------
#NOTES:
     dance-single:
     :
     Medium:
     5:
     0.390,0.318,0.052,0.000,0.000,311.000,6.000,0.000,0.000,0.000,0.000,0.390,0.318,0.052,0.000,0.000,311.000,6.000,0.000,0.000,0.000,0.000: // measure 0
0000
0000
0000
0000
,  // measure 1
0000
0000
0000
0000
,  // measure 2
0000
0000
0000
0000
,  // measure 3
0000
0000
0000
0000
,  // measure 4
0001
0010
0001
1000
,  // measure 5
0001
0100
0001
1000
,  // measure 6
1000
0100
1000
0001
,  // measure 7
1000
0010
1000
0001
,  // measure 8
0001
0000
0010
0000
0100
0000
1000
0001
,  // measure 9
1000
0010
0100
0001
,  // measure 10
1000
0000
0100
0000
0010
0000
0001
1000
,  // measure 11
0001
0100
0010
1000
,  // measure 12
0100
0010
0100
0010
,  // measure 13
0001
0010
0001
0100
,  // measure 14
0001
0100
0001
1000
,  // measure 15
1001
0000
0000
0000
,  // measure 16
0001
0010
0001
0010
,  // measure 17
0100
1000
0100
1000
,  // measure 18
1000
0010
1000
0010
,  // measure 19
0100
0001
1000
0001
,  // measure 20
1000
0100
1000
0100
,  // measure 21
0010
0001
0010
0001
,  // measure 22
0001
0100
0001
0100
,  // measure 23
0010
0000
1000
0000
0010
1000
0010
0000
,  // measure 24
1000
0100
0100
0010
,  // measure 25
0010
0001
0001
1000
,  // measure 26
0001
0100
0100
0010
,  // measure 27
0010
0000
1000
0000
1000
0000
0001
1000
,  // measure 28
0001
0010
0010
0100
,  // measure 29
0100
1000
1000
0001
,  // measure 30
1000
0010
0010
0100
,  // measure 31
0100
0001
0001
1000
,  // measure 32
0001
0010
0010
0001
,  // measure 33
0010
0001
0001
1000
,  // measure 34
0001
0100
0100
0001
,  // measure 35
0100
0000
0001
0000
0001
0000
1000
0001
,  // measure 36
1000
0100
0100
1000
,  // measure 37
0100
1000
1000
0001
,  // measure 38
1000
0010
0010
1000
,  // measure 39
0010
1000
0001
1000
,  // measure 40
1001
0000
0001
0100
,  // measure 41
0001
0000
1000
0010
,  // measure 42
1010
0000
1000
0100
,  // measure 43
1000
0000
0001
0010
,  // measure 44
0011
0001
1000
0010
,  // measure 45
1000
0000
0001
0100
,  // measure 46
0101
0000
0001
1000
,  // measure 47
0001
0010
0100
1000
,  // measure 48
1001
0001
1000
0100
,  // measure 49
1000
0100
0010
0001
,  // measure 50
0010
0001
1000
0010
,  // measure 51
1000
0010
0100
0001
,  // measure 52
1000
0001
0010
0001
,  // measure 53
0010
0100
1000
0100
,  // measure 54
1000
0010
1000
0010
,  // measure 55
0100
0001
1000
0100
,  // measure 56
1000
0010
0010
0010
,  // measure 57
0100
0010
0010
0010
,  // measure 58
1000
0010
0010
0010
,  // measure 59
0100
0010
0010
0010
,  // measure 60
1000
0100
1000
0001
,  // measure 61
1000
0010
1000
0001
,  // measure 62
1000
0100
0010
0001
,  // measure 63
1000
1000
0001
0001
,  // measure 64
1000
1000
0100
0100
,  // measure 65
1000
1000
0001
1000
,  // measure 66
0001
0001
0100
0100
,  // measure 67
0001
0000
0001
0000
1000
0001
1000
0000
,  // measure 68
0100
0100
0010
0010
,  // measure 69
0001
0001
1000
0010
,  // measure 70
0100
0100
0010
0010
,  // measure 71
1000
0000
1000
0000
0001
1000
0001
0000
,  // measure 72
1000
0100
0010
0100
,  // measure 73
1000
0010
0100
0001
,  // measure 74
0010
0100
0010
0001
,  // measure 75
0100
0010
1000
0001
,  // measure 76
1000
0100
0010
0001
,  // measure 77
1000
0010
0100
0001
,  // measure 78
1000
0100
1000
0100
,  // measure 79
0010
0001
0010
0001
,  // measure 80
1000
0010
1000
0010
,  // measure 81
0100
0001
0100
0001
,  // measure 82
1000
0000
0000
0000
;

//---------------dance-single - ----------------
#NOTES:
     dance-single:
     :
     Easy:
     4:
     0.315,0.283,0.155,0.000,0.000,238.000,18.000,0.000,0.000,0.000,0.000,0.315,0.283,0.155,0.000,0.000,238.000,18.000,0.000,0.000,0.000,0.000: // measure 0
0000
0000
0000
0000
,  // measure 1
0000
0000
0000
0000
,  // measure 2
0000
0000
0000
0000
,  // measure 3
0000
0000
0000
0000
,  // measure 4
1000
0100
0100
1000
,  // measure 5
0001
0100
0100
0001
,  // measure 6
1000
0010
0010
1000
,  // measure 7
0001
0010
0010
0001
,  // measure 8
1000
0000
1000
0001
,  // measure 9
0100
0000
0100
0001
,  // measure 10
1000
0000
1000
0001
,  // measure 11
0010
0000
0010
0100
,  // measure 12
1000
0010
1000
0010
,  // measure 13
1000
0001
1000
0001
,  // measure 14
1000
0100
1000
0100
,  // measure 15
1000
0000
0000
0000
,  // measure 16
0001
0100
0001
0000
,  // measure 17
1000
0001
1000
0000
,  // measure 18
0001
0010
0001
0000
,  // measure 19
1000
0100
1000
0100
,  // measure 20
1000
0001
1000
0000
,  // measure 21
0001
0100
0001
0000
,  // measure 22
1000
0001
1000
0000
,  // measure 23
1000
0010
1000
0010
,  // measure 24
1000
0000
1100
0000
,  // measure 25
1100
0000
1100
0000
,  // measure 26
0001
0000
0101
0000
,  // measure 27
0101
0000
0101
0000
,  // measure 28
1000
0000
1100
0000
,  // measure 29
1100
0000
1100
0000
,  // measure 30
0001
0000
0101
0000
,  // measure 31
0101
0000
0101
0000
,  // measure 32
0001
1000
0000
1000
,  // measure 33
0000
1000
0001
0100
,  // measure 34
0001
1000
0000
1000
,  // measure 35
0000
1000
0001
0010
,  // measure 36
0001
1000
0000
1000
,  // measure 37
0000
1000
0001
0010
,  // measure 38
0001
1000
0000
1000
,  // measure 39
0001
0001
1000
1000
,  // measure 40
0001
0000
1000
1000
,  // measure 41
0010
0000
1000
1000
,  // measure 42
0001
0000
0010
0010
,  // measure 43
0001
0000
0001
0001
,  // measure 44
0100
0000
0010
0010
,  // measure 45
1000
0000
0001
0001
,  // measure 46
1000
0000
1000
1000
,  // measure 47
0100
0000
0010
0010
,  // measure 48
0001
0000
1000
0010
,  // measure 49
1000
0000
1000
0001
,  // measure 50
1000
0000
0001
0100
,  // measure 51
0001
0000
0001
1000
,  // measure 52
0001
0000
1000
0100
,  // measure 53
1000
0000
1000
0001
,  // measure 54
1000
0000
0001
0010
,  // measure 55
0001
0001
1000
1000
,  // measure 56
1010
0000
0001
0000
,  // measure 57
0011
0000
1000
0000
,  // measure 58
1100
0000
0001
0000
,  // measure 59
0101
0000
1000
0000
,  // measure 60
0001
0010
0001
0000
,  // measure 61
0001
1000
0001
0000
,  // measure 62
1000
0010
1000
0000
,  // measure 63
1010
0000
0101
0000
,  // measure 64
1000
0000
0001
0001
,  // measure 65
0100
0000
0001
0001
,  // measure 66
0010
0000
0100
0100
,  // measure 67
1000
0000
1000
1000
,  // measure 68
0001
0000
1000
1000
,  // measure 69
0010
0000
0100
0100
,  // measure 70
0010
0000
0010
0010
,  // measure 71
1000
0001
1000
0100
,  // measure 72
1000
0001
1000
0000
,  // measure 73
0001
0100
0001
0000
,  // measure 74
0001
1000
0001
0000
,  // measure 75
1000
0100
1000
0000
,  // measure 76
1000
0010
1000
0010
,  // measure 77
1000
0001
1000
0001
,  // measure 78
1000
0100
1000
0100
,  // measure 79
0010
0001
0010
0001
,  // measure 80
1000
0010
1000
0010
,  // measure 81
0100
0001
0100
0001
,  // measure 82
1000
0000
0000
0000
;
