#TITLE:Libertine;
#SUBTITLE:(Y-Front Remix);
#ARTIST:Mylène Farmer;
#TITLETRANSLIT:;
#SUBTITLETRANSLIT:;
#ARTISTTRANSLIT:;
#GENRE:;
#CREDIT:;
#BANNER:[Old School] - Libertine (Y-Front Remix).png;
#BACKGROUND:[Old School] - Libertine (Y-Front Remix)-bg.png;
#LYRICSPATH:;
#CDTITLE:;
#MUSIC:Libertine (Y-Front Remix).ogg;
#OFFSET:-0.496;
#SAMPLESTART:56.892;
#SAMPLELENGTH:15.993;
#SELECTABLE:YES;
#BPMS:0.000=136.000
;
#STOPS:
;
#BGCHANGES:15.500=[Old School] - Libertine (Y-Front Remix).avi=1.000=0=0=1===CrossFade_Faster==,
207.750=[Old School] - Libertine (Y-Front Remix)-bg.png=1.000=0=0=1=====,
99999=-nosongbg-=1.000=0=0=0 // don't automatically add -songbackground-
;
#KEYSOUNDS:;
#ATTACKS:;

//---------------dance-single - ----------------
#NOTES:
     dance-single:
     :
     Hard:
     8:
     0.579,0.488,0.215,0.000,0.103,374.000,21.000,0.000,0.000,0.000,0.000,0.579,0.488,0.215,0.000,0.103,374.000,21.000,0.000,0.000,0.000,0.000: // measure 0
0000
0000
0000
0000
,  // measure 1
0000
0000
0000
0000
,  // measure 2
0000
0000
0000
0000
,  // measure 3
0000
0000
0000
0000
,  // measure 4
1000
0000
0010
0100
0001
0000
1000
0000
1000
0000
0100
0010
0001
0000
0100
0000
,  // measure 5
0100
0000
0010
1000
0001
0000
0010
0000
0100
0000
0000
0000
0110
0000
0000
0000
,  // measure 6
0010
0001
0010
0001
0010
0000
0001
0000
1000
0000
0010
0000
1000
0000
0010
0000
,  // measure 7
0100
1000
0100
0001
1000
0000
1001
0000
,  // measure 8
0001
0000
0100
0001
0100
0000
0001
0000
1000
0000
0100
1000
0100
0000
1000
0000
,  // measure 9
0010
0000
0100
0010
0100
0000
0001
0000
0010
0000
0000
0000
0110
0000
0000
0000
,  // measure 10
1000
0001
1000
0001
1000
0000
0001
0000
0100
0000
0001
0000
0010
0000
0001
0000
,  // measure 11
1000
0010
0100
0010
1000
0000
1001
0000
,  // measure 12
0001
0000
0010
0001
0010
0000
0001
0000
0010
0000
0100
0010
0100
0000
0010
0000
,  // measure 13
0100
0000
1000
0100
1000
0000
0100
0000
1000
0000
0000
0000
1010
0000
0000
0000
,  // measure 14
0010
0100
0010
0100
0010
0000
0100
0000
0001
0000
0010
0000
1000
0000
0010
0000
,  // measure 15
0001
0100
0010
1000
0001
0010
0110
0000
,  // measure 16
0100
1000
0100
0010
0100
1000
0010
0100
,  // measure 17
0001
0000
1000
0001
1000
0000
0100
0000
1000
0000
0100
1000
0100
0000
1000
0000
,  // measure 18
0010
0100
0001
0010
0001
0100
0010
1000
,  // measure 19
0001
0000
0010
0001
0010
0000
0001
0000
1000
0000
0010
0000
1010
0000
0000
0000
,  // measure 20
1000
0100
1000
0100
1000
0001
1000
0001
,  // measure 21
0010
0001
0010
0001
0010
0100
0010
0100
,  // measure 22
1000
0100
1000
0100
1000
0010
1000
0010
,  // measure 23
0100
0010
0100
0010
1000
0001
1001
0000
,  // measure 24
0001
0100
0001
0100
0010
0100
0010
0100
,  // measure 25
0010
1000
0100
1000
0010
1000
1001
0000
,  // measure 26
0001
0010
0001
0010
0100
0010
0100
0010
,  // measure 27
0100
1000
0010
0100
0001
1000
1010
0000
,  // measure 28
0010
0000
0100
0001
0100
0000
0001
0000
0010
0000
0100
0000
0010
0000
0001
0000
,  // measure 29
0100
0010
1000
0001
1000
0100
1100
0000
,  // measure 30
1000
0100
0010
0000
0001
0100
0010
0000
,  // measure 31
1000
0100
0010
0001
1000
1001
1001
0000
,  // measure 32
1010
0000
0110
0000
0100
1000
0100
0001
,  // measure 33
1000
0000
1001
0000
0001
0010
0100
1000
,  // measure 34
0010
0000
0010
1000
0001
0000
0001
0010
,  // measure 35
0001
0100
0010
1000
0001
0010
0100
0000
,  // measure 36
0110
0000
1100
0000
1000
0010
0100
0010
,  // measure 37
1000
0000
1010
0000
1000
0001
0010
0001
,  // measure 38
1000
0000
1000
0001
0100
0000
0100
0010
,  // measure 39
1000
0100
1000
0001
0100
0010
1000
0000
,  // measure 40
0001
0010
0001
0100
0001
1000
0100
1000
,  // measure 41
0010
0001
0010
1000
0100
0001
0100
1000
,  // measure 42
0001
0000
0001
0010
0100
0000
0100
1000
,  // measure 43
0010
0000
0100
0000
0001
0000
0010
0000
0100
0000
1000
0000
0001
1000
0001
0000
,  // measure 44
1000
0010
1000
0100
0010
0001
0100
0001
,  // measure 45
0010
0100
1000
0010
0100
0001
0010
0001
,  // measure 46
0100
0010
1000
0100
0010
0001
0010
0100
,  // measure 47
1000
0010
1000
0001
0100
0010
0100
0000
,  // measure 48
0001
0010
0001
0010
0100
0010
0100
0010
,  // measure 49
0100
1000
0100
1000
0001
1000
0001
1000
,  // measure 50
0001
0100
0001
0100
0010
0100
0010
0100
,  // measure 51
0010
1000
0010
1000
0001
1000
0001
0010
,  // measure 52
0100
0000
1000
0010
0100
0000
0101
0101
;

//---------------dance-single - ----------------
#NOTES:
     dance-single:
     :
     Medium:
     6:
     0.343,0.353,0.082,0.000,0.000,226.000,8.000,0.000,0.000,0.000,0.000,0.343,0.353,0.082,0.000,0.000,226.000,8.000,0.000,0.000,0.000,0.000:
0000
0000
0000
0000
,
0000
0000
0000
0000
,
0000
0000
0000
0000
,
0000
0000
0000
0000
,
1000
0000
1000
0010
0100
0000
0100
0001
,
0010
0000
0010
0100
1000
0000
1000
0000
,
0001
0000
0001
0010
0001
0000
0001
0010
,
0100
0000
0100
1000
0010
0000
0000
0000
,
0100
0010
1000
0001
,
0010
0100
1000
0010
0100
0000
0001
0000
,
0010
0010
0100
0100
,
0010
0001
0100
0010
1000
0000
0001
0000
,
0100
0000
0100
0000
0010
1000
0100
0010
,
0100
1000
0010
0100
,
0001
0000
0001
0000
0010
0001
0100
0001
,
0100
0010
1000
0100
0010
0001
0100
0000
,
0010
0000
0010
0000
1000
0100
0010
0000
,
0001
0100
0001
0000
0010
0001
0010
0000
,
0100
0000
0100
0000
1000
0100
1000
0000
,
0010
0000
0100
0000
0001
1000
0001
0000
,
0010
0011
0001
0101
,
0100
0110
0010
1010
,
1000
1001
0001
1001
,
1000
0000
0100
0000
0010
0001
0100
0000
,
0010
0010
1000
1000
,
0001
0010
0100
1000
,
0010
0010
1000
1000
,
0100
0010
0001
0100
,
0001
0010
0001
0000
0010
0000
0100
0000
,
0010
0001
0100
0010
,
1000
1001
0001
1001
,
1000
0000
0100
0000
0010
0001
0100
0000
,
0010
0000
0010
0000
1000
0000
0100
0010
,
0001
0100
0001
0001
,
0010
0000
0100
0000
,
1000
0000
0010
0000
0100
0010
0100
0000
,
0001
0000
0001
0000
0010
0000
0001
0100
,
0010
1000
0100
0100
,
0010
0000
0001
0000
,
0100
0000
0010
0000
1000
0001
1000
0000
,
0100
0000
1000
0000
0010
0000
0100
0010
,
0100
0001
0010
0010
,
0001
0000
0000
0100
0001
0000
0000
0100
,
0010
0000
1000
0000
0100
0010
0001
0000
,
1000
0000
0001
0000
0100
0000
0010
0100
,
0010
1000
0001
0001
,
1000
0000
0001
0010
0100
0000
0010
0100
,
1000
0010
0100
0001
,
0010
0010
0001
0001
,
0100
0100
0010
0010
,
1000
1000
0001
0001
,
0010
0010
0100
0100
,
1000
0000
0010
0000
0100
0000
0001
0100
;

//---------------dance-single - ----------------
#NOTES:
     dance-single:
     :
     Easy:
     3:
     0.237,0.217,0.082,0.000,0.000,154.000,8.000,0.000,0.000,0.000,0.000,0.237,0.217,0.082,0.000,0.000,154.000,8.000,0.000,0.000,0.000,0.000:
0000
0000
0000
0000
,
0000
0000
0000
0000
,
0000
0000
0000
0000
,
0000
0000
0000
0000
,
1000
0000
0001
0000
,
0010
0000
0100
0000
,
0010
0000
0001
0000
,
0100
0000
0010
0000
,
1000
1000
0100
0100
,
0010
0010
0000
0001
,
0100
0100
0010
0010
,
1000
1000
0000
0001
,
0010
0010
0001
0001
,
0100
0100
0000
0010
,
1000
1000
0100
0100
,
1000
0001
0010
0100
,
0010
0010
0000
0001
,
0100
0010
0000
0010
,
0010
1000
0000
1000
,
0001
0010
0000
0010
,
0001
0001
0100
0100
,
0010
0010
1000
1000
,
0001
1000
0100
0010
,
0001
1000
0010
0100
,
0001
0000
1000
0000
,
0100
1000
0010
0000
,
0100
0000
0001
0000
,
0010
0001
0100
0000
,
0010
0010
0000
1000
,
0100
0010
0000
0100
,
1000
1000
0000
0010
,
0100
0001
0000
1000
,
0001
1001
0000
1000
,
0100
1100
0000
0100
,
0010
0000
0001
0000
,
0100
0010
1000
0001
,
0100
0101
0000
0001
,
0100
0110
0000
0010
,
1000
0000
0100
0000
,
0010
0100
1000
0001
,
0010
0011
0000
0001
,
1000
1001
0000
1000
,
0010
0000
0100
0000
,
0001
0010
0001
1000
,
0010
1010
0000
1000
,
0100
1100
0000
1000
,
0001
0000
0100
0000
,
0010
0100
0001
0010
,
0100
0100
0100
0100
,
1000
1000
1000
1000
,
0010
0010
0010
0010
,
0100
0100
0100
0100
,
0001
0000
0000
0000
1000
0000
0000
0001
;
