#TITLE:Japanese Hardcore;
#SUBTITLE:;
#ARTIST:Cardopusher;
#TITLETRANSLIT:;
#SUBTITLETRANSLIT:;
#ARTISTTRANSLIT:;
#CREDIT:;
#BANNER:[Old School] - Japanese Hardcore.png;
#BACKGROUND:[Old School] - Japanese Hardcore-bg.png;
#LYRICSPATH:;
#CDTITLE:;
#MUSIC:[Old School] - Japanese Hardcore.ogg;
#OFFSET:0.000;
#SAMPLESTART:32.522;
#SAMPLELENGTH:12.000;
#SELECTABLE:YES;
#BPMS:0.000=177.000;
#STOPS:;
#BGCHANGES:;

//---------------dance-single - ----------------
#NOTES:
     dance-single:
     :
     Hard:
     8:
     0.470,0.599,0.318,0.000,0.000: // measure 1
0000
0000
0000
0000
,  // measure 2
0000
0000
0000
0000
,  // measure 3
0000
0000
0000
0000
,  // measure 4
0000
0000
0000
0000
,  // measure 5
0000
0000
0000
0000
,  // measure 6
0000
0000
0000
0000
,  // measure 7
0000
0000
0000
0000
,  // measure 8
0000
0000
0000
0000
,  // measure 9
1001
0000
0000
1001
0000
0000
0000
0000
,  // measure 10
0000
0000
0000
0000
,  // measure 11
0110
0000
0000
0110
0000
0000
1010
0000
,  // measure 12
0000
1010
0000
0000
0101
0000
0000
0000
,  // measure 13
0110
0000
0000
0110
0000
0000
0000
0000
,  // measure 14
0000
0000
0000
0000
,  // measure 15
0101
0000
0000
0101
0000
0000
0011
0000
,  // measure 16
0000
0011
0000
0000
1100
0000
0000
0000
,  // measure 17
1000
0000
0010
1000
0010
0000
1000
0001
,  // measure 18
1000
0000
0001
0000
0011
0000
0010
0100
,  // measure 19
0010
0000
0100
0000
1100
0000
1000
0010
,  // measure 20
1000
0000
0010
0000
0110
0000
0100
0001
,  // measure 21
0100
0000
0001
0000
0011
0000
0010
0100
,  // measure 22
0010
0000
0100
0000
1100
0000
1000
0100
,  // measure 23
1000
0000
0100
0000
0110
0000
0010
0001
,  // measure 24
0010
0001
1001
1000
,  // measure 25
1000
0000
0100
0000
1000
0000
0100
0010
,  // measure 26
0100
0000
0010
0001
0011
0000
0011
0000
,  // measure 27
0001
0000
0100
0000
0010
0000
1000
0100
,  // measure 28
1000
0000
1000
0100
0010
0000
0011
0000
,  // measure 29
0010
0000
0100
0000
1000
0000
0010
0100
,  // measure 30
0001
0000
0001
1000
1001
0000
1001
0000
,  // measure 31
0010
0000
0100
0000
0001
0010
0001
0010
,  // measure 32
0001
0000
0010
0100
1000
0000
1001
0000
,  // measure 33
1000
0100
1000
0100
1000
0100
1000
0100
,  // measure 34
0010
0001
0010
0001
0010
0001
0010
0001
,  // measure 35
0100
0010
0100
0010
0100
0010
0100
0010
,  // measure 36
0100
0001
1000
0001
1000
0001
1000
0001
,  // measure 37
1000
0000
0010
0100
0010
0100
0010
0000
,  // measure 38
1000
0000
0001
0010
0001
0010
0001
0000
,  // measure 39
0100
0000
0010
1000
0010
1000
0010
0000
,  // measure 40
0010
0000
0100
0001
0100
0001
0100
0000
,  // measure 41
0001
0000
0000
0000
,  // measure 42
0000
0000
0000
0000
,  // measure 43
0000
0000
0000
0000
,  // measure 44
1000
0000
0000
0100
0000
0000
0010
0000
,  // measure 45
0001
0000
0000
0000
,  // measure 46
0000
0000
0000
0000
,  // measure 47
1000
0100
1000
0100
0010
0001
0010
0001
,  // measure 48
1000
0000
0000
0010
0000
0000
1000
0000
,  // measure 49
1001
0000
0001
0010
0100
1000
0010
1000
,  // measure 50
0000
0100
0000
0010
0001
0010
0100
0000
,  // measure 51
1000
0000
0001
0000
0010
0000
0100
1000
,  // measure 52
0000
0001
0000
0010
0100
0010
0100
0000
,  // measure 53
1000
0000
0001
0000
0010
0000
0100
0010
,  // measure 54
0000
0001
0000
0010
0000
0100
0000
1000
,  // measure 55
0010
0000
0100
0000
0001
0000
0010
0100
,  // measure 56
0000
1000
0000
0001
0010
0001
0010
0000
,  // measure 57
0010
0100
0010
0100
0010
0100
0000
1000
,  // measure 58
0001
1000
0001
1000
0001
1000
0000
0001
,  // measure 59
0010
0000
0001
0000
0010
0100
0000
0010
,  // measure 60
0000
0001
0010
0100
1000
0100
0000
0000
,  // measure 61
0100
1000
0100
1000
0100
1000
0000
0000
,  // measure 62
1000
0001
1000
0001
1000
0001
1000
0000
,  // measure 63
0001
0010
0100
1000
0001
0010
0000
0000
,  // measure 64
0100
1000
0100
0010
0001
1000
0000
0000
,  // measure 65
0010
0100
0001
0010
0100
1000
0000
0000
,  // measure 66
0001
0010
0100
1000
0010
0100
0000
0000
,  // measure 67
0010
0100
0010
0000
0100
0001
0100
0000
,  // measure 68
0010
0010
0100
0100
,  // measure 69
0010
0110
0010
0100
,  // measure 70
0010
0100
0001
0010
0100
1000
0100
0010
,  // measure 71
0100
1000
0001
1000
0001
1000
0000
0000
,  // measure 72
0000
0000
0000
0000
,  // measure 73
1000
0000
0100
0000
0010
0000
0001
0100
,  // measure 74
0001
1000
1010
1010
,  // measure 75
0010
0000
0100
0000
0001
0000
0010
0100
,  // measure 76
0010
0000
0100
1000
1100
0000
1100
0000
,  // measure 77
1000
0000
0001
0000
1000
0000
0100
0010
,  // measure 78
0001
0100
0101
0101
,  // measure 79
1000
0010
1000
0000
0010
0100
0001
0010
,  // measure 80
0110
0100
1000
0001
;

//---------------dance-single - ----------------
#NOTES:
     dance-single:
     :
     Medium:
     6:
     0.347,0.458,0.133,0.000,0.000:
0000
0000
0000
0000
,
0000
0000
0000
0000
,
0000
0000
0000
0000
,
0000
0000
0000
0000
,
0000
0000
0000
0000
,
0000
0000
0000
0000
,
0000
0000
0000
0000
,
0000
0000
0000
0000
,
1000
0000
0000
1010
0000
0000
0000
0000
,
0000
0000
0000
0000
,
0010
0000
0000
0110
0000
0000
0100
0000
,
0000
0101
0000
0000
0001
0000
0000
0000
,
0100
0000
0000
0110
0000
0000
0000
0000
,
0000
0000
0000
0000
,
0100
0000
0000
0101
0000
0000
0001
0000
,
0000
0011
0000
0000
0010
0000
0000
0000
,
0001
0000
0010
0000
0100
0000
1000
0010
,
1000
0001
0100
0000
,
0010
0000
1000
0000
0001
0000
0010
0100
,
1000
0000
0010
0000
0100
0000
0001
0010
,
0001
0000
0010
0000
0100
0000
0010
0001
,
0010
0000
0001
0000
1000
0000
0100
0010
,
0100
0010
0001
0010
,
0100
1000
0001
1000
,
0001
0010
0100
1000
,
0010
0100
0001
1001
,
1000
0100
1000
0100
,
0010
0000
0001
0010
0001
0000
0101
0000
,
0100
0010
0100
0010
,
1000
0001
1000
1001
,
0001
0010
0001
0010
,
0100
0000
1000
0010
1000
0000
1001
0000
,
0001
0010
0001
0000
0001
0100
0001
0000
,
0100
0010
0100
0000
0100
0001
0100
0000
,
0001
1000
0001
0000
1000
0001
1000
0000
,
0100
0010
0100
0000
0010
0100
1000
0000
,
0001
0000
1000
0000
0001
1000
0000
0000
,
0010
0000
0100
0000
0010
0100
0000
0000
,
0001
0000
0010
0000
0001
0010
0000
0000
,
0100
0000
1000
0000
0100
1000
0000
0000
,
0010
0000
0000
0000
,
0000
0000
0000
0000
,
0000
0000
0000
0000
,
1000
0000
0000
0010
0000
0000
1000
0000
,
0010
0000
0000
0000
,
0000
0000
0000
0000
,
1000
0100
0010
0001
,
1000
0000
0000
0100
0000
0000
1000
0000
,
0001
0000
0010
0000
0100
0000
1000
0010
,
0000
0010
0000
0010
1000
0000
0001
0000
,
0010
0000
0100
0000
1000
0000
0001
0010
,
0000
0010
0000
0010
0001
0000
0100
0000
,
0010
0000
1000
0000
0010
0000
1000
0100
,
0000
0100
0000
0100
0000
0100
0010
0000
,
1000
0000
0100
0000
,
0010
0000
0001
0000
,
1000
0100
1000
0100
,
0010
0001
0010
0001
,
0010
0100
1000
0001
,
0010
0100
1000
0010
,
0100
0001
0010
0100
,
1000
0100
0010
0001
,
0100
0010
1000
0100
,
0010
0001
0010
0100
,
1000
0100
1000
0100
,
0010
0001
0010
0001
,
1000
0010
1000
0010
,
0100
0001
0100
0001
,
1000
0100
0010
0001
,
1000
0100
0010
0001
,
0100
0001
0010
0100
,
0000
0000
0000
0000
,
1000
0100
0010
0001
,
0100
0010
1010
1010
,
0010
0100
0010
1000
,
0001
0000
1000
0010
1000
0000
1010
0000
,
1000
0100
1000
0100
,
0010
0100
1100
1100
,
0100
0010
0001
0100
,
0010
1000
0010
1000
;

//---------------dance-single - ----------------
#NOTES:
     dance-single:
     :
     Easy:
     4:
     0.207,0.317,0.000,0.000,0.000:
0000
0000
0000
0000
,
0000
0000
0000
0000
,
0000
0000
0000
0000
,
0000
0000
0000
0000
,
0000
0000
0000
0000
,
0000
0000
0000
0000
,
0000
0000
0000
0000
,
0000
0000
0000
0000
,
1000
0000
0000
0100
0000
0000
0000
0000
,
0000
0000
0000
0000
,
0100
0000
0000
0010
0000
0000
0010
0000
,
0000
0001
0000
0000
0001
0000
0000
0000
,
0100
0000
0000
0010
0000
0000
0000
0000
,
0000
0000
0000
0000
,
0100
0000
0000
0001
0000
0000
0010
0000
,
0000
0100
0000
0000
1000
0000
0000
0000
,
1000
0100
1000
0100
,
0010
0001
0010
0001
,
1000
0100
0010
0001
,
1000
0100
0010
0001
,
0100
0010
0100
0001
,
1000
0010
1000
0010
,
0100
0001
0100
0001
,
0010
0100
1000
0001
,
1000
0000
0000
0000
0000
0000
1000
0010
,
1000
0000
1000
0100
,
0010
0000
0000
0000
0000
0000
0010
0100
,
0010
0010
0001
0010
,
0001
0000
0000
0000
0000
0000
1000
0001
,
1000
0000
0100
0010
,
0001
0000
0000
0000
0000
0000
0100
0001
,
0100
0010
1000
0100
,
0010
0000
0001
0000
,
0100
0000
0010
0000
,
1000
0000
0010
0000
,
0100
0000
0001
0000
,
0001
0000
0010
0000
,
0100
0000
0010
0000
,
0001
0000
0010
0000
,
0100
0000
0010
0000
,
0100
0000
0000
0000
,
0000
0000
0000
0000
,
0000
0000
0000
0000
,
0001
0000
0000
0001
,
1000
0000
0000
0000
,
0000
0000
0000
0000
,
1000
0000
0100
0000
,
0010
0000
0001
0000
,
1000
0000
0000
0000
0000
0000
0000
0100
,
0000
0010
0000
0100
0000
0000
0000
0000
,
0010
0000
0000
0000
0000
0000
0000
0001
,
0000
0100
0000
0001
0000
0000
0000
0000
,
1000
0000
0000
0000
0000
0000
0000
0001
,
0000
0010
0000
0100
0000
0000
0000
0000
,
0100
0000
0000
0000
0000
0000
0000
1000
,
0000
0001
0000
1000
0000
0000
0000
0000
,
0010
0000
0100
0000
,
0010
0000
1000
0000
,
0001
0000
1000
0000
,
0100
0000
0010
0000
,
0001
0000
0100
0000
,
0010
0000
1000
0000
,
0100
0000
0010
0000
,
0001
0000
1000
0000
,
0001
0000
1000
0000
,
0001
0000
0010
0000
,
0100
0000
0010
0000
,
0100
0000
0010
0000
,
0100
0000
1000
0000
,
0100
0000
0010
0000
,
0100
0000
1000
0000
,
0000
0000
0000
0000
,
0001
0000
0000
0001
,
0100
0000
0010
0100
,
0010
0000
0000
0010
,
0100
0001
0010
0100
,
0100
0000
0000
0100
,
1000
0000
1000
0100
,
1000
0000
0010
0000
,
1000
0010
1000
0010
;

//---------------dance-single - ----------------
#NOTES:
     dance-single:
     :
     Beginner:
     2:
     0.093,0.140,0.009,0.000,0.000:
0000
0000
0000
0000
,
0000
0000
0000
0000
,
0000
0000
0000
0000
,
0000
0000
0000
0000
,
0000
0000
0000
0000
,
0000
0000
0000
0000
,
0000
0000
0000
0000
,
0000
0000
0000
0000
,
1000
0000
0000
0000
,
0000
0000
0000
0000
,
0100
0000
0000
0100
,
0000
0000
0000
0000
,
0010
0000
0000
0000
,
0000
0000
0000
0000
,
0001
0000
0000
0001
,
0000
0000
0000
0000
,
1000
0000
0000
0000
,
0100
0000
0000
0000
,
0010
0000
0000
0000
,
0001
0000
0000
0000
,
0100
0000
0000
0000
,
0010
0000
0000
0000
,
1000
0000
0000
0000
,
0100
0000
0000
0000
,
0010
0000
0000
0000
,
0001
0000
1000
0000
,
0001
0000
0000
0000
,
0010
0000
0100
0000
,
0010
0000
0000
0000
,
0001
0000
0010
0000
,
0100
0000
0000
0000
,
1000
0000
0100
0000
,
0010
0000
0000
0000
,
0001
0000
0000
0000
,
0010
0000
0000
0000
,
0100
0000
0000
0000
,
1000
0000
0000
0000
,
0100
0000
0000
0000
,
0010
0000
0000
0000
,
0001
0000
0000
0000
,
0010
0000
0000
0000
,
0000
0000
0000
0000
,
0000
0000
0000
0000
,
0010
0000
0000
0000
,
0100
0000
0000
0000
,
0000
0000
0000
0000
,
1000
0000
0000
0000
,
0100
0000
0000
0000
,
0010
0000
0000
0000
0000
0000
0000
1000
,
0000
0000
0000
0000
,
0010
0000
0000
0000
0000
0000
0000
0100
,
0000
0000
0000
0000
,
0010
0000
0000
0000
0000
0000
0000
0100
,
0000
0000
0000
0000
,
0001
0000
0000
0000
0000
0000
0000
1000
,
0000
0000
0000
0000
,
0100
0000
0000
0000
,
0010
0000
0000
0000
,
0100
0000
0000
0000
,
0010
0000
0000
0000
,
0001
0000
0000
0000
,
0010
0000
0000
0000
,
0001
0000
0000
0000
,
0010
0000
0000
0000
,
0100
0000
0000
0000
,
0010
0000
0000
0000
,
0100
0000
0000
0000
,
1000
0000
0000
0000
,
0100
0000
0000
0000
,
1000
0000
0000
0000
,
0100
0000
0000
0000
,
0000
0000
0000
0000
,
0100
0000
0000
0000
,
1000
0000
0010
0000
,
0100
0000
0000
0000
,
0010
0000
0100
0000
,
0001
0000
0000
0000
,
0010
0000
0001
0000
,
0100
0000
0000
0000
,
0110
0000
0000
0000
;
