#TITLE:In My Dreams;
#SUBTITLE:(U.K. Mix);
#ARTIST:REBECCA;
#TITLETRANSLIT:;
#SUBTITLETRANSLIT:;
#ARTISTTRANSLIT:;
#CREDIT:Lisek;
#BANNER:[Old School] - In My Dreams (U.K. Mix).png;
#BACKGROUND:[Old School] - In My Dreams (U.K. Mix)-bg.png;
#LYRICSPATH:;
#CDTITLE:cdtitle.png;
#MUSIC:[Old School] - In My Dreams (U.K. Mix).ogg;
#OFFSET:-1.544;
#SAMPLESTART:29.143;
#SAMPLELENGTH:21.200;
#SELECTABLE:YES;
#BPMS:0.000=139.150;
#STOPS:;
#BGCHANGES:;

//---------------dance-single - Lisek----------------
#NOTES:
     dance-single:
     Lisek:
     Hard:
     7:
     0.358,0.412,0.023,0.000,0.000: // measure 1
1000
1000
0001
0001
,  // measure 2
0100
0100
0001
0001
,  // measure 3
1000
1000
0010
0010
,  // measure 4
0100
0100
0010
0010
,  // measure 5
1000
1000
0001
0001
,  // measure 6
0100
0100
0001
0001
,  // measure 7
1000
1000
0100
0100
,  // measure 8
1000
0000
1000
0000
0010
0100
0010
0100
,  // measure 9
0010
1000
0010
0100
,  // measure 10
0010
1000
0010
0100
,  // measure 11
0001
0010
0001
0100
,  // measure 12
0001
0010
0001
0100
,  // measure 13
0001
1000
0010
1000
,  // measure 14
0001
1000
0010
1000
,  // measure 15
0001
0100
0010
0100
,  // measure 16
0001
0100
0010
0100
,  // measure 17
0001
1000
0001
1000
0010
0000
0100
0000
,  // measure 18
0001
1000
0100
1000
,  // measure 19
0010
0100
0010
0100
0001
0000
1000
0000
,  // measure 20
0100
1000
0010
0100
,  // measure 21
0001
1000
0001
1000
0100
0000
0010
0000
,  // measure 22
0100
1000
0001
0100
,  // measure 23
0010
0100
0010
0100
0001
0000
1000
0000
,  // measure 24
0001
0010
0100
1000
0001
0010
0100
1000
,  // measure 25
0001
0010
1000
0010
,  // measure 26
0001
0100
1000
0100
,  // measure 27
0001
0000
1000
0001
,  // measure 28
1000
0100
0010
0001
0010
0100
1000
0001
,  // measure 29
1000
0100
0001
0100
,  // measure 30
1000
0010
0001
0010
,  // measure 31
1000
0000
0001
1000
,  // measure 32
0001
0010
0100
1000
0100
0010
0001
1000
,  // measure 33
0001
0100
1000
0010
,  // measure 34
0001
0100
0010
1000
,  // measure 35
1000
0010
0001
0100
,  // measure 36
1000
0010
0100
0001
,  // measure 37
0001
0100
1000
0010
,  // measure 38
0001
1000
0001
1000
,  // measure 39
1001
0000
0000
1001
0000
0000
1000
0000
,  // measure 40
0001
0100
0010
1000
0100
0010
0001
0000
,  // measure 41
1000
0000
0100
0001
0010
0000
0000
0000
,  // measure 42
1000
0100
0010
0001
,  // measure 43
0001
0000
0100
1000
0010
0000
0000
0000
,  // measure 44
0001
0010
0100
1000
,  // measure 45
1000
0000
0100
0001
0010
0000
0000
0000
,  // measure 46
1000
0010
0100
0001
,  // measure 47
0001
0000
0100
1000
0010
0000
0000
0000
,  // measure 48
0001
0100
0010
1000
0100
0000
0010
0000
,  // measure 49
0100
0000
0000
0000
;

//---------------dance-single - Lisek----------------
#NOTES:
     dance-single:
     Lisek:
     Challenge:
     8:
     0.445,0.466,0.309,0.000,0.000:
0000
0000
1000
0001
0000
0100
0000
0010
,
0000
0000
0100
0001
0000
0010
0000
0100
,
0000
0000
1000
0100
0000
1000
0000
0010
,
0000
0100
0001
0010
0100
0000
1000
0100
,
1000
0000
0010
0100
0000
0001
0000
0010
,
0000
0000
0001
0100
0000
0010
0000
1000
,
0000
0000
0100
1000
0000
0010
0000
1000
,
0000
0100
0010
0001
0010
0000
0100
1000
,
0100
0000
0010
0000
0001
0100
0010
1000
,
0000
0100
0010
0001
0000
0100
0000
0000
,
0001
0000
0010
0000
0001
0100
0010
0100
,
0000
0001
0010
0100
0000
0100
0000
1000
,
0010
0000
0100
0000
0001
0010
0001
0100
,
0000
0010
1000
0100
0000
0010
0000
0000
,
0100
0000
1000
0000
0010
1000
0100
0010
,
0000
0001
0010
0000
0100
0000
1000
0000
,
1010
0000
0000
0110
0000
0000
0101
0000
,
0011
0000
0000
0101
0000
0000
0110
0000
,
1010
0000
0000
1100
0000
0000
0110
0000
,
0101
0000
0000
1001
0000
0000
1010
0000
,
0110
0000
0000
1010
0000
0000
1100
0000
,
1001
0000
0000
0101
0000
0000
0110
0000
,
0101
0000
0000
0011
0000
0000
0110
0000
,
1000
0100
0010
0001
0100
0010
1000
0001
,
1000
0000
0001
0100
0000
0010
0000
0100
,
0000
0000
0001
0010
0000
0100
0000
1000
,
0000
0000
0010
0100
0000
0001
0000
1000
,
0000
0100
0010
0001
1000
0000
0010
0100
,
0000
0000
0001
0010
0000
0100
0000
1000
,
0000
0000
0010
0100
0000
0001
0000
0010
,
0000
0000
0001
1000
0000
0100
0000
1000
,
0010
1000
0100
0010
0001
1000
0010
1000
,
0001
0010
0001
0100
0001
0010
0001
0100
,
0001
1000
0001
0100
0001
1000
0001
0000
,
1000
0010
1000
0100
1000
0010
1000
0100
,
1000
0001
1000
0100
1000
0001
1000
0000
,
0010
0100
0010
1000
0010
0100
0010
1000
,
0001
1000
0001
0100
0001
1000
0001
0000
,
1001
0000
0000
1001
0000
0000
1000
0000
,
0001
0010
0100
1000
0100
0010
0001
1000
,
1010
0000
0010
0100
0010
0000
1000
0000
,
0010
0100
0001
0010
,
0011
0000
0001
0010
0001
0100
0000
0010
,
0000
1000
0100
0010
0001
0000
1000
0001
,
1001
0000
1000
0010
1000
0000
0010
0000
,
0100
0001
0100
0010
,
0110
0000
0100
0010
0100
0001
0000
1000
,
0001
0010
0100
1000
0010
0000
0100
0010
;

//---------------dance-single - Lisek----------------
#NOTES:
     dance-single:
     Lisek:
     Medium:
     4:
     0.254,0.275,0.023,0.000,0.000:
1000
1000
1000
1000
,
1000
0000
0000
0000
,
0001
0001
0001
0001
,
0001
0000
0000
0000
,
0100
0100
0100
0100
,
0100
0000
0000
0000
,
0010
0010
0010
0010
,
0010
0000
0000
0000
,
1000
0000
0001
0100
,
0010
0100
0001
0010
,
0001
0000
1000
0010
,
0100
0010
1000
0100
,
0010
0000
0001
0100
,
0010
0100
0010
1000
,
0100
0000
1000
0100
,
0010
0001
0100
0000
,
0001
0000
0000
0001
0000
0000
0001
0000
,
1000
0000
0000
1000
0000
0000
1000
0000
,
0010
0000
0000
0010
0000
0000
0010
0000
,
0100
0000
0000
0100
0000
0000
0100
0000
,
0001
0000
0000
0001
0000
0000
0001
0000
,
0010
0000
0000
0010
0000
0000
0010
0000
,
0100
0000
0000
0100
0000
0000
0100
0000
,
1000
0100
0010
0001
,
1000
0000
0010
1000
,
0010
0000
0100
0001
,
0100
0000
0001
0010
,
0100
1000
0100
0010
,
0001
0000
1000
0010
,
1000
0000
0001
0100
,
0001
0000
1000
0100
,
0010
0001
0010
0100
,
1000
0010
0010
0000
,
0100
0001
0001
0000
,
0010
0100
0100
0000
,
1000
0001
0001
0000
,
0100
0100
0001
0001
,
1000
1000
0010
0010
,
0110
0000
0000
1001
0000
0000
0000
0000
,
0000
0000
0000
0000
,
1000
0100
0010
0010
,
0100
1000
0001
0100
,
0010
0100
0100
0001
,
1000
0100
0010
0100
,
1000
0001
0001
0100
,
0010
1000
0100
0010
,
0001
0100
0100
0001
,
1000
0100
0010
0001
,
1000
0000
0000
0000
;

//---------------dance-single - Lisek----------------
#NOTES:
     dance-single:
     Lisek:
     Beginner:
     1:
     0.070,0.110,0.000,0.000,0.000:
0000
0000
0000
0000
,
0000
0000
0000
0000
,
0000
0000
0000
0000
,
0000
0000
0000
0000
,
0000
0000
0000
0000
,
0000
0000
0000
0000
,
0000
0000
0000
0000
,
0000
0000
0000
0000
,
1000
0000
0000
0000
,
0001
0000
0000
0000
,
0010
0000
0000
0000
,
0001
0000
1000
0000
,
0001
0000
0000
0000
,
0010
0000
0000
0000
,
0001
0000
0000
0000
,
1000
0000
0010
0000
,
1000
0000
0000
0000
,
0010
0000
0000
0000
,
1000
0000
0000
0000
,
0001
0000
0000
0000
,
0010
0000
0000
0000
,
0001
0000
0000
0000
,
1000
0000
0000
0000
,
0010
0000
0000
0000
,
1000
0000
0000
0000
,
0001
0000
0000
0000
,
0010
0000
0000
0000
,
0001
0000
0000
0000
,
1000
0000
0000
0000
,
0010
0000
0000
0000
,
1000
0000
0000
0000
,
0001
0000
0000
0000
,
1000
0000
0000
0000
,
0010
0000
0000
0000
,
1000
0000
0000
0000
,
0001
0000
0000
0000
,
0010
0000
0000
0000
,
0001
0000
0000
0000
,
0000
0000
0000
0000
,
0000
0000
0000
0000
,
1000
0000
0000
0000
,
0010
0000
0000
0000
,
1000
0000
0000
0000
,
0001
0000
0010
0000
,
0001
0000
0000
0000
,
1000
0000
0000
0000
,
0010
0000
1000
0000
,
0010
0000
0000
0000
,
0100
0000
0000
0000
;

//---------------dance-single - Lisek----------------
#NOTES:
     dance-single:
     Lisek:
     Easy:
     2:
     0.134,0.137,0.000,0.000,0.000:
1000
0000
0000
0000
,
0000
0000
0000
0000
,
0001
0000
0000
0000
,
0000
0000
0000
0000
,
0100
0000
0000
0000
,
0000
0000
0000
0000
,
0010
0000
0000
0000
,
0000
0000
0000
0000
,
1000
0000
0100
0000
,
1000
0000
0001
0000
,
1000
0000
0010
0000
,
1000
0000
0001
0000
,
1000
0000
0001
0000
,
0010
0000
0001
0000
,
0100
0000
0001
0000
,
1000
0000
0001
0000
,
1000
0000
0100
0000
,
0010
0000
0001
0000
,
1000
0000
0010
0000
,
0100
0000
0001
0000
,
1000
0000
0001
0000
,
0010
0000
0100
0000
,
1000
0000
0001
0000
,
0100
0000
0001
0000
,
1000
0000
0100
0000
,
1000
0000
0100
0000
,
1000
0000
0010
0000
,
0100
0000
0001
0000
,
0010
0000
0001
0000
,
0010
0000
0001
0000
,
0010
0000
0001
0000
,
0100
0000
0010
0000
,
1000
0000
0100
0000
,
1000
0000
0001
0000
,
0010
0000
0001
0000
,
1000
0000
0100
0000
,
1000
0000
0001
0000
,
0010
0000
0001
0000
,
1000
0000
0000
0000
,
0000
0000
0000
0000
,
0001
0000
0010
0000
,
0001
0000
0100
0000
,
0010
0000
0100
0000
,
0001
0000
1000
0000
,
0010
0000
1000
0000
,
0001
0000
0100
0000
,
0001
0000
1000
0000
,
0010
0000
0100
0000
,
0010
0000
0000
0000
;
